osu file format v14

[General]
AudioFilename: audio.mp3
AudioLeadIn: 0
PreviewTime: 57059
Countdown: 0
SampleSet: Normal
StackLeniency: 0.3
Mode: 0
LetterboxInBreaks: 0
EpilepsyWarning: 1
WidescreenStoryboard: 1

[Editor]
Bookmarks: 14384,19184,28784
DistanceSpacing: 2
BeatDivisor: 4
GridSize: 4
TimelineZoom: 1.6

[Metadata]
Title:Cry Baby
TitleUnicode:Cry Baby
Artist:Antiserum & Mayhem
ArtistUnicode:Antiserum & Mayhem
Creator:Shadren
Version:Extra
Source:
Tags:trap bass 808 cut short verison Hustle Firepower Records twerk scary
BeatmapID:1231936
BeatmapSetID:565136

[Difficulty]
HPDrainRate:6
CircleSize:3
OverallDifficulty:9
ApproachRate:9.5
SliderMultiplier:2.8
SliderTickRate:1

[Events]
//Background and Video events
0,0,"BG.jpg",0,0
//Break Periods
//Storyboard Layer 0 (Background)
//Storyboard Layer 1 (Fail)
//Storyboard Layer 2 (Pass)
//Storyboard Layer 3 (Foreground)
//Storyboard Sound Samples

[TimingPoints]
9584,600,4,1,1,80,1,0
19034,-100,4,1,1,5,0,0
19184,-100,4,1,1,80,0,0
38384,-90.9090909090909,4,1,1,80,0,1
47984,-100,4,1,1,80,0,0
56984,-200,4,1,1,80,0,0
57509,-200,4,1,1,5,0,0
57584,-90.9090909090909,4,1,1,80,0,1
67184,-100,4,1,1,80,0,0
76784,-90.9090909090909,4,1,1,80,0,1
86384,-100,4,1,1,80,0,0
95384,-200,4,1,1,80,0,0
95909,-200,4,1,1,5,0,0
95984,-100,4,1,1,65,0,0
97184,-100,4,1,1,50,0,0
98384,-100,4,1,1,35,0,0
99584,-100,4,1,1,20,0,0
100784,-100,4,1,1,10,0,0

[Colours]
Combo1 : 176,176,255
Combo2 : 166,210,255
Combo3 : 177,177,177
Combo4 : 248,172,97
Combo5 : 230,129,111
Combo6 : 255,255,159

[HitObjects]
53,235,9584,6,0,L|192:227,1,140,4|0,3:1|0:0,0:0:0:0:
316,293,10034,1,0,0:0:0:0:
215,66,10184,2,0,P|252:69|298:75,1,70,8|0,0:0|0:0,0:0:0:0:
502,191,10484,2,0,L|348:199,1,140,4|0,3:1|0:0,0:0:0:0:
84,122,10934,5,8,0:0:0:0:
159,326,11084,2,0,P|156:286|152:256,1,70,8|0,0:0|0:0,0:0:0:0:
238,44,11384,2,0,L|235:118,1,70,8|0,0:0|0:0,0:0:0:0:
443,232,11684,2,0,P|397:231|346:225,1,70,0|0,0:0|0:0,0:0:0:0:
32,176,11984,70,0,L|182:168,1,140,8|0,0:0|0:0,0:0:0:0:
309,65,12434,1,8,0:0:0:0:
276,310,12584,2,0,P|278:273|283:232,1,70,8|0,0:0|0:0,0:0:0:0:
489,169,12884,2,0,L|340:163,1,140,8|0,0:0|0:0,0:0:0:0:
169,247,13334,5,8,0:0:0:0:
205,30,13484,2,0,P|210:56|215:117,1,70,8|0,0:0|0:0,0:0:0:0:
275,333,13784,2,0,L|280:252,1,70,8|0,0:0|0:0,0:0:0:0:
458,165,14084,2,0,P|420:160|372:158,1,70,0|0,0:0|0:0,0:0:0:0:
29,243,14384,70,0,B|172:247,1,140,4|0,3:1|0:0,0:0:0:0:
292,314,14834,1,8,0:0:0:0:
315,47,14984,2,0,P|305:81|300:121,1,70,8|0,0:0|0:0,0:0:0:0:
433,353,15284,2,0,L|425:209,1,140,4|0,3:1|0:0,0:0:0:0:
97,249,15734,5,8,0:0:0:0:
149,30,15884,2,0,P|156:62|163:109,1,70,8|0,0:0|0:0,0:0:0:0:
365,240,16184,2,0,P|326:236|276:234,1,70,8|0,0:0|0:0,0:0:0:0:
10,213,16484,2,0,P|45:206|91:201,1,70,0|0,0:0|0:0,0:0:0:0:
194,362,16784,70,0,L|187:215,1,140,8|0,0:0|0:0,0:0:0:0:
78,329,17234,1,8,0:0:0:0:
312,253,17384,2,0,P|316:214|316:172,1,70,8|0,0:0|0:0,0:0:0:0:
143,43,17684,2,0,L|146:199,1,140,8|0,0:0|0:0,0:0:0:0:
412,336,18134,5,8,0:0:0:0:
362,160,18284,2,0,P|354:194|352:229,1,70,8|0,0:0|0:0,0:0:0:0:
163,333,18584,2,0,P|199:324|246:317,1,70,8|0,0:0|0:0,0:0:0:0:
481,341,18884,2,0,L|407:335,1,70,0|0,0:0|0:0,0:0:0:0:
193,41,19184,38,0,L|202:192,1,140,4|0,0:0|0:0,0:0:0:0:
148,310,19634,1,0,3:0:0:0:
0,115,19784,2,0,P|33:116|85:122,1,70,2|0,0:0|0:0,0:0:0:0:
298,235,20084,1,4,0:0:0:0:
149,353,20234,6,0,L|151:198,1,140,2|0,2:0|0:0,0:0:0:0:
250,24,20684,2,0,P|255:59|259:100,1,70,0|0,3:0|0:0,0:0:0:0:
440,218,20984,2,0,P|401:212|357:208,1,70,2|0,0:0|0:0,0:0:0:0:
136,252,21284,1,0,0:0:0:0:
287,372,21434,1,0,0:0:0:0:
258,93,21584,70,0,L|253:251,1,140,4|0,0:0|0:0,0:0:0:0:
370,310,22034,1,0,3:0:0:0:
434,79,22184,2,0,P|416:114|405:149,1,70,2|0,0:0|0:0,0:0:0:0:
162,56,22484,1,4,0:0:0:0:
276,334,22634,6,0,L|270:187,1,140,2|0,2:0|0:0,0:0:0:0:
176,297,23084,1,0,3:0:0:0:
402,221,23234,1,0,0:0:0:0:
241,63,23384,2,0,P|203:69|173:77,1,70,2|0,0:0|0:0,0:0:0:0:
140,347,23684,2,0,L|139:364,7,17.5,0|0|0|0|0|0|0|0,0:0|0:0|0:0|0:0|0:0|0:0|0:0|0:0,0:0:0:0:
150,330,23984,70,0,L|296:322,1,140,4|0,0:0|0:0,0:0:0:0:
427,345,24434,1,0,3:0:0:0:
385,102,24584,2,0,P|378:137|375:183,1,70,2|0,0:0|0:0,0:0:0:0:
125,111,24884,1,4,0:0:0:0:
252,341,25034,6,0,L|245:191,1,140,2|0,2:0|0:0,0:0:0:0:
396,65,25484,2,0,P|361:60|314:58,1,70,0|0,3:0|0:0,0:0:0:0:
58,146,25784,2,0,P|94:140|139:135,1,70,2|0,0:0|0:0,0:0:0:0:
408,250,26084,1,0,0:0:0:0:
392,246,26159,1,0,0:0:0:0:
375,243,26234,1,0,0:0:0:0:
359,239,26309,1,0,0:0:0:0:
344,235,26384,70,0,L|502:225,1,140,4|0,0:0|0:0,0:0:0:0:
408,344,26834,1,0,3:0:0:0:
272,113,26984,2,0,P|305:115|346:122,1,70,2|0,0:0|0:0,0:0:0:0:
113,188,27284,1,4,0:0:0:0:
306,349,27434,6,0,P|309:309|314:270,1,70,2|0,2:0|0:0,0:0:0:0:
447,241,27734,1,0,0:0:0:0:
166,126,27884,1,0,3:0:0:0:
425,26,28034,1,0,0:0:0:0:
312,279,28184,2,0,P|316:239|321:206,1,70,2|0,0:0|0:0,0:0:0:0:
466,104,28484,2,0,L|463:133,7,17.5,0|0|0|0|0|0|0|0,0:0|0:0|0:0|0:0|0:0|0:0|0:0|0:0,0:0:0:0:
467,86,28784,70,0,L|375:81,1,70,4|0,0:0|0:0,0:0:0:0:
156,163,29084,2,0,P|191:157|237:153,1,70,0|8,0:0|0:0,0:0:0:0:
474,306,29384,2,0,L|308:298,1,140,8|4,0:0|0:0,0:0:0:0:
199,338,29834,1,0,0:0:0:0:
277,129,29984,6,0,P|274:71|269:31,2,93.3333333333333,8|2|2,0:0|2:0|2:0,0:0:0:0:
334,299,30584,2,0,P|376:281|427:266,2,93.3333333333333,8|2|2,0:0|2:0|2:0,0:0:0:0:
40,158,31184,70,0,P|75:152|115:149,1,70,4|0,0:0|0:0,0:0:0:0:
260,342,31484,2,0,P|258:302|253:264,1,70,0|8,0:0|0:0,0:0:0:0:
366,46,31784,2,0,L|356:207,1,140,8|4,0:0|0:0,0:0:0:0:
484,126,32234,1,0,0:0:0:0:
148,57,32384,6,0,P|99:62|44:73,2,93.3333333333333,8|2|2,0:0|2:0|2:0,0:0:0:0:
324,235,32984,2,0,P|322:183|315:135,1,93.3333333333333,8|2,0:0|2:0,0:0:0:0:
148,57,33284,2,0,L|120:54,7,17.5,0|0|0|0|0|0|0|0,0:0|0:0|0:0|0:0|0:0|0:0|0:0|0:0,0:0:0:0:
165,62,33584,70,0,L|316:57,1,140,4|0,0:0|0:0,0:0:0:0:
442,31,34034,1,8,0:0:0:0:
374,269,34184,2,0,P|376:227|379:196,1,70,8|0,0:0|0:0,0:0:0:0:
175,61,34484,2,0,L|180:140,1,70,4|0,0:0|0:0,0:0:0:0:
369,336,34784,6,0,P|415:329|461:324,2,93.3333333333333,8|2|2,0:0|2:0|2:0,0:0:0:0:
284,168,35384,2,0,P|231:162|186:161,1,93.3333333333333,8|2,0:0|2:0,0:0:0:0:
108,298,35684,1,0,0:0:0:0:
100,293,35759,1,0,0:0:0:0:
93,288,35834,1,0,0:0:0:0:
86,283,35909,1,0,0:0:0:0:
79,277,35984,70,0,L|223:270,1,140,4|0,0:0|0:0,0:0:0:0:
339,196,36434,1,8,0:0:0:0:
177,31,36584,2,0,P|171:64|171:114,1,70,8|0,0:0|0:0,0:0:0:0:
221,340,36884,2,0,L|218:266,1,70,4|0,0:0|0:0,0:0:0:0:
396,111,37184,6,0,P|443:103|496:100,2,93.3333333333333,8|2|2,0:0|2:0|2:0,0:0:0:0:
107,235,37784,21,8,0:0:0:0:
93,220,38384,6,0,L|250:210,1,154.000004699707,4|0,0:0|0:0,0:0:0:0:
141,323,38834,1,0,3:0:0:0:
201,91,38984,1,8,0:0:0:0:
350,283,39134,1,0,0:0:0:0:
446,88,39284,2,0,P|401:96|353:112,1,77.0000023498536,0|0,3:0|0:0,0:0:0:0:
50,205,39584,6,0,B|205:209,1,154.000004699707,0|0,0:0|3:0,0:0:0:0:
284,76,40034,1,0,0:0:0:0:
220,317,40184,2,0,P|260:311|307:308,1,77.0000023498536,8|0,0:0|0:0,0:0:0:0:
490,208,40484,2,0,P|448:203|406:202,1,77.0000023498536,0|0,3:0|0:0,0:0:0:0:
126,225,40784,69,0,3:0:0:0:
240,126,40934,1,0,0:0:0:0:
153,355,41084,1,0,0:0:0:0:
5,164,41234,1,0,3:0:0:0:
279,231,41384,6,0,L|124:224,1,154.000004699707,8|0,0:0|3:0,0:0:0:0:
229,339,41834,1,0,0:0:0:0:
130,108,41984,2,0,P|92:116|55:130,1,77.0000023498536,0|0,0:0|0:0,0:0:0:0:
354,50,42284,2,0,P|307:44|270:42,1,77.0000023498536,0|0,3:0|0:0,0:0:0:0:
163,288,42584,2,0,P|166:246|174:202,1,77.0000023498536,8|0,0:0|0:0,0:0:0:0:
432,154,42884,2,0,L|429:131,7,19.2500005874634,0|0|0|0|0|0|0|0,3:0|0:0|0:0|0:0|0:0|0:0|0:0|0:0,0:0:0:0:
434,173,43184,70,0,L|276:168,1,154.000004699707,4|0,0:0|0:0,0:0:0:0:
144,92,43634,1,0,3:0:0:0:
260,292,43784,1,8,0:0:0:0:
379,62,43934,1,0,0:0:0:0:
452,292,44084,2,0,P|450:249|447:214,1,77.0000023498536,0|0,3:0|0:0,0:0:0:0:
235,44,44384,6,0,L|229:198,1,154.000004699707,0|0,0:0|3:0,0:0:0:0:
159,336,44834,1,0,0:0:0:0:
107,115,44984,2,0,P|94:163|91:208,1,77.0000023498536,8|0,0:0|0:0,0:0:0:0:
341,318,45284,1,0,3:0:0:0:
337,298,45359,1,0,0:0:0:0:
333,278,45434,1,0,0:0:0:0:
329,258,45509,1,0,0:0:0:0:
324,238,45584,69,0,3:0:0:0:
472,278,45734,1,0,0:0:0:0:
198,326,45884,1,0,0:0:0:0:
306,105,46034,1,0,3:0:0:0:
39,201,46184,2,0,L|197:191,1,154.000004699707,8|0,0:0|3:0,0:0:0:0:
315,286,46634,1,0,0:0:0:0:
265,41,46784,6,0,P|226:43|189:49,1,77.0000023498536
181,282,47084,1,0,3:0:0:0:
405,189,47234,1,0,0:0:0:0:
187,149,47384,2,0,P|149:152|111:158,1,77.0000023498536,8|0,0:0|0:0,0:0:0:0:
346,343,47684,2,0,P|343:300|337:263,1,77.0000023498536,0|0,3:0|0:0,0:0:0:0:
442,35,47984,70,0,L|437:181,1,140,4|0,0:0|0:0,0:0:0:0:
478,308,48434,1,8,0:0:0:0:
222,273,48584,2,0,P|257:268|296:265,1,70,8|0,0:0|0:0,0:0:0:0:
55,119,48884,2,0,L|203:125,1,140,4|0,0:0|0:0,0:0:0:0:
410,65,49334,5,8,0:0:0:0:
303,323,49484,2,0,L|306:239,1,70,8|0,0:0|0:0,0:0:0:0:
142,41,49784,2,0,L|145:189,1,140,8|0,0:0|0:0,0:0:0:0:
89,309,50234,1,0,0:0:0:0:
277,68,50384,69,0,0:0:0:0:
20,153,50534,1,0,0:0:0:0:
247,265,50684,1,0,0:0:0:0:
142,41,50834,1,8,0:0:0:0:
360,169,50984,2,0,L|203:164,1,140,8|0,0:0|0:0,0:0:0:0:
340,296,51434,1,0,0:0:0:0:
340,80,51584,5,0,0:0:0:0:
231,298,51734,1,8,0:0:0:0:
97,99,51884,1,8,0:0:0:0:
302,196,52034,1,0,0:0:0:0:
46,222,52184,2,0,P|85:210|142:201,1,70,8|0,0:0|0:0,0:0:0:0:
339,283,52484,2,0,L|357:285,7,17.5,0|0|0|0|0|0|0|0,0:0|0:0|0:0|0:0|0:0|0:0|0:0|0:0,0:0:0:0:
330,280,52784,70,0,L|475:274,1,140,4|0,0:0|0:0,0:0:0:0:
392,157,53234,1,8,0:0:0:0:
211,322,53384,2,0,P|212:289|217:248,1,70,8|0,0:0|0:0,0:0:0:0:
124,48,53684,2,0,L|129:189,1,140,4|0,0:0|0:0,0:0:0:0:
366,301,54134,5,8,0:0:0:0:
128,187,54284,1,8,0:0:0:0:
359,77,54434,1,0,0:0:0:0:
242,295,54584,2,0,P|246:256|255:213,1,70,8|0,0:0|0:0,0:0:0:0:
140,47,54884,1,0,0:0:0:0:
124,48,54959,1,0,0:0:0:0:
108,49,55034,1,0,0:0:0:0:
92,51,55109,1,0,0:0:0:0:
76,52,55184,70,0,L|82:131,2,70
10,243,55634,1,8,0:0:0:0:
254,209,55784,2,0,P|212:203|168:202,1,70,8|0,0:0|0:0,0:0:0:0:
386,315,56084,5,0,0:0:0:0:
268,105,56234,1,0,0:0:0:0:
124,291,56384,1,0,0:0:0:0:
374,183,56534,1,8,0:0:0:0:
140,162,56684,1,8,0:0:0:0:
248,348,56834,1,0,0:0:0:0:
249,81,56984,54,0,P|256:136|259:208,1,122.5,8|0,0:0|0:0,0:0:0:0:
259,219,57584,6,0,L|414:213,1,154.000004699707,4|0,0:0|0:0,0:0:0:0:
172,314,58034,1,0,3:0:0:0:
61,66,58184,2,0,P|104:73|145:86,1,77.0000023498536,2|0,0:0|0:0,0:0:0:0:
31,213,58484,1,0,3:0:0:0:
348,172,58634,6,0,L|186:167,1,154.000004699707,0|0,0:0|0:0,0:0:0:0:
341,48,59084,2,0,L|342:15,7,19.2500005874634,0|0|0|0|0|0|0|0,3:0|0:0|0:0|0:0|0:0|0:0|0:0|0:0,0:0:0:0:
342,61,59384,2,0,P|383:66|422:78,1,77.0000023498536,2|0,0:0|0:0,0:0:0:0:
484,289,59684,1,0,3:0:0:0:
204,243,59834,1,0,0:0:0:0:
432,168,59984,70,0,L|274:177,1,154.000004699707,0|0,3:0|0:0,0:0:0:0:
376,296,60434,1,0,3:0:0:0:
151,171,60584,2,0,P|153:131|160:86,1,77.0000023498536,2|0,0:0|0:0,0:0:0:0:
305,49,60884,1,0,3:0:0:0:
273,330,61034,2,0,L|278:165,1,154.000004699707,0|0,0:0|0:0,0:0:0:0:
147,243,61484,5,0,3:0:0:0:
408,286,61634,1,0,0:0:0:0:
330,53,61784,2,0,L|173:59,1,154.000004699707,2|0,0:0|3:0,0:0:0:0:
277,176,62234,1,0,0:0:0:0:
30,131,62384,70,0,P|66:133|112:140,1,77.0000023498536,4|0,0:0|0:0,0:0:0:0:
353,171,62684,2,0,L|262:176,1,77.0000023498536,0|0,0:0|3:0,0:0:0:0:
154,345,62984,2,0,P|157:304|166:248,1,77.0000023498536,2|0,0:0|0:0,0:0:0:0:
235,57,63284,1,0,3:0:0:0:
2,148,63434,2,0,L|159:142,1,154.000004699707,0|0,0:0|0:0,0:0:0:0:
407,96,63884,6,0,L|443:95,7,19.2500005874634,0|0|0|0|0|0|0|0,3:0|0:0|0:0|0:0|0:0|0:0|0:0|0:0,0:0:0:0:
395,116,64184,2,0,P|388:156|386:206,1,77.0000023498536,2|0,0:0|0:0,0:0:0:0:
437,344,64484,1,0,3:0:0:0:
174,202,64634,1,0,0:0:0:0:
289,347,64784,70,0,L|296:188,1,154.000004699707,0|0,3:0|0:0,0:0:0:0:
398,78,65234,1,0,3:0:0:0:
153,31,65384,2,0,P|163:70|174:124,1,77.0000023498536,2|0,0:0|0:0,0:0:0:0:
101,333,65684,2,0,P|105:281|112:233,1,77.0000023498536,0|0,3:0|0:0,0:0:0:0:
452,209,65984,6,0,L|212:197,1,231.000007049561,2|0,0:0|0:0,0:0:0:0:
137,227,66584,2,0,P|244:232|264:359,1,231.000007049561,2|0,0:0|0:0,0:0:0:0:
21,134,67184,70,0,P|56:128|110:125,1,70,4|0,0:0|0:0,0:0:0:0:
323,230,67484,1,0,0:0:0:0:
321,245,67559,1,0,0:0:0:0:
320,261,67634,1,8,0:0:0:0:
208,29,67784,2,0,P|201:66|199:116,1,70,8|0,0:0|0:0,0:0:0:0:
459,262,68084,2,0,L|308:260,1,140,4|0,0:0|0:0,0:0:0:0:
84,314,68534,5,0,0:0:0:0:
195,129,68684,1,0,3:0:0:0:
196,113,68759,1,0,0:0:0:0:
198,98,68834,1,8,0:0:0:0:
324,329,68984,2,0,P|322:290|316:244,1,70,8|0,0:0|0:0,0:0:0:0:
180,285,69284,1,0,3:0:0:0:
464,351,69434,1,0,0:0:0:0:
334,65,69584,70,0,L|328:134,1,70,4|0,0:0|0:0,0:0:0:0:
418,242,69884,1,0,0:0:0:0:
416,257,69959,1,0,0:0:0:0:
415,273,70034,1,8,0:0:0:0:
438,134,70184,1,8,0:0:0:0:
298,333,70334,1,0,0:0:0:0:
114,184,70484,2,0,P|146:185|186:191,1,70,4|0,0:0|0:0,0:0:0:0:
339,74,70784,6,0,P|391:63|445:57,2,93.3333333333333,8|2|2,0:0|2:0|2:0,0:0:0:0:
157,290,71384,2,0,P|108:282|61:279,2,93.3333333333333,8|2|2,0:0|2:0|2:0,0:0:0:0:
93,48,71984,70,0,P|139:41|194:36,1,70,4|0,0:0|0:0,0:0:0:0:
257,253,72284,1,0,0:0:0:0:
255,269,72359,1,0,0:0:0:0:
253,286,72434,1,8,0:0:0:0:
117,322,72584,1,8,0:0:0:0:
232,113,72734,1,0,0:0:0:0:
2,198,72884,2,0,L|143:193,1,140,4|0,0:0|0:0,0:0:0:0:
392,77,73334,5,0,0:0:0:0:
334,204,73484,1,0,3:0:0:0:
336,220,73559,1,0,0:0:0:0:
338,237,73634,1,8,0:0:0:0:
144,78,73784,2,0,P|182:80|219:85,1,70,8|0,0:0|0:0,0:0:0:0:
432,194,74084,1,0,3:0:0:0:
238,332,74234,1,0,0:0:0:0:
371,78,74384,70,0,L|373:57,4,17.5,12|0|0|0|0,0:0|0:0|0:0|0:0|0:0,0:0:0:0:
337,341,74684,2,0,L|336:367,4,17.5,8|0|0|0|0,0:0|0:0|0:0|0:0|0:0,0:0:0:0:
143,169,74984,6,0,L|112:167,4,17.5,8|0|0|0|0,0:0|0:0|0:0|0:0|0:0,0:0:0:0:
432,194,75284,2,0,L|458:193,4,17.5,12|0|0|0|0,0:0|0:0|0:0|0:0|0:0,0:0:0:0:
73,172,75584,70,0,L|147:168,1,70,4|0,0:0|0:0,0:0:0:0:
432,194,75884,2,0,L|355:191,1,70,4|0,0:0|0:0,0:0:0:0:
31,154,76184,6,0,L|105:149,1,70,4|0,0:0|0:0,0:0:0:0:
466,216,76484,2,0,L|391:210,1,70,4|0,0:0|0:0,0:0:0:0:
226,345,76784,70,0,L|231:186,1,154.000004699707,4|0,0:0|0:0,0:0:0:0:
117,285,77234,1,0,3:0:0:0:
396,210,77384,1,2,0:0:0:0:
177,59,77534,1,0,0:0:0:0:
268,292,77684,2,0,P|306:296|355:305,1,77.0000023498536,0|0,3:0|0:0,0:0:0:0:
486,103,77984,6,0,L|327:109,1,154.000004699707,0|0,0:0|3:0,0:0:0:0:
432,216,78434,1,0,0:0:0:0:
149,154,78584,2,0,P|189:156|228:162,1,77.0000023498536,2|0,0:0|0:0,0:0:0:0:
367,345,78884,2,0,P|363:298|355:254,1,77.0000023498536,0|0,3:0|0:0,0:0:0:0:
256,58,79184,69,0,3:0:0:0:
190,304,79334,1,0,0:0:0:0:
465,236,79484,1,0,0:0:0:0:
163,175,79634,1,0,3:0:0:0:
349,350,79784,2,0,P|346:308|337:254,1,77.0000023498536,2|0,0:0|0:0,0:0:0:0:
190,304,80084,1,0,3:0:0:0:
466,357,80234,1,0,0:0:0:0:
290,56,80384,6,0,P|286:91|285:142,1,77.0000023498536,0|0,0:0|0:0,0:0:0:0:
405,217,80684,1,0,3:0:0:0:
146,159,80834,1,0,0:0:0:0:
390,22,80984,2,0,P|402:64|410:109,1,77.0000023498536,2|0,0:0|0:0,0:0:0:0:
316,327,81284,2,0,L|317:354,7,19.2500005874634,0|0|0|0|0|0|0|0,3:0|0:0|0:0|0:0|0:0|0:0|0:0|0:0,0:0:0:0:
320,313,81584,70,0,L|316:158,1,154.000004699707,4|0,0:0|0:0,0:0:0:0:
212,263,82034,1,0,3:0:0:0:
475,214,82184,1,2,0:0:0:0:
187,103,82334,1,0,0:0:0:0:
376,5,82484,2,0,P|381:48|382:98,1,77.0000023498536,0|0,3:0|0:0,0:0:0:0:
92,194,82784,6,0,L|250:186,1,154.000004699707,0|0,0:0|3:0,0:0:0:0:
147,76,83234,1,0,0:0:0:0:
303,295,83384,2,0,P|345:287|389:284,1,77.0000023498536,2|0,0:0|0:0,0:0:0:0:
496,150,83684,1,0,3:0:0:0:
475,146,83759,1,0,0:0:0:0:
455,143,83834,1,0,0:0:0:0:
435,140,83909,1,0,0:0:0:0:
415,138,83984,69,0,3:0:0:0:
449,280,84134,1,0,0:0:0:0:
160,204,84284,1,0,0:0:0:0:
361,33,84434,1,0,3:0:0:0:
289,315,84584,2,0,L|292:155,1,154.000004699707,2|0,0:0|3:0,0:0:0:0:
411,244,85034,1,0,0:0:0:0:
166,133,85184,6,0,P|173:80|183:38,1,77.0000023498536,0|0,0:0|0:0,0:0:0:0:
291,161,85484,1,0,3:0:0:0:
26,114,85634,1,0,0:0:0:0:
188,345,85784,2,0,P|184:306|179:268,1,77.0000023498536,2|0,0:0|0:0,0:0:0:0:
367,169,86084,2,0,P|319:162|281:160,1,77.0000023498536,0|0,3:0|0:0,0:0:0:0:
39,275,86384,70,0,L|190:267,1,140,4|0,0:0|0:0,0:0:0:0:
297,326,86834,1,8,0:0:0:0:
331,67,86984,2,0,P|342:110|345:153,1,70,8|0,0:0|0:0,0:0:0:0:
440,349,87284,2,0,L|443:200,1,140,4|0,0:0|0:0,0:0:0:0:
93,81,87734,5,8,0:0:0:0:
344,135,87884,1,8,0:0:0:0:
179,294,88034,1,0,0:0:0:0:
218,39,88184,2,0,P|209:74|203:119,1,70,8|0,0:0|0:0,0:0:0:0:
391,244,88484,2,0,P|353:239|310:236,1,70,0|0,0:0|0:0,0:0:0:0:
108,275,88784,70,0,P|102:310|100:349,2,70
234,314,89234,1,8,0:0:0:0:
191,56,89384,2,0,L|194:207,1,140,8|0,0:0|0:0,0:0:0:0:
297,279,89834,1,0,0:0:0:0:
77,220,89984,6,0,P|72:260|71:300,2,70,0|8|8,0:0|0:0|0:0,0:0:0:0:
188,323,90434,1,0,0:0:0:0:
110,70,90584,2,0,P|143:64|185:61,1,70,8|0,0:0|0:0,0:0:0:0:
433,118,90884,2,0,L|461:114,7,17.5,0|0|0|0|0|0|0|0,0:0|0:0|0:0|0:0|0:0|0:0|0:0|0:0,0:0:0:0:
423,121,91184,70,0,L|281:113,1,140,4|0,0:0|0:0,0:0:0:0:
390,231,91634,1,8,0:0:0:0:
124,176,91784,2,0,P|162:171|197:169,1,70,8|0,0:0|0:0,0:0:0:0:
0,43,92084,2,0,L|150:54,1,140,4|0,0:0|0:0,0:0:0:0:
306,187,92534,5,8,0:0:0:0:
192,306,92684,1,8,0:0:0:0:
466,227,92834,1,0,0:0:0:0:
267,25,92984,2,0,P|259:64|254:113,1,70,8|0,0:0|0:0,0:0:0:0:
383,331,93284,1,0,0:0:0:0:
380,314,93359,1,0,0:0:0:0:
378,297,93434,1,0,0:0:0:0:
375,280,93509,1,0,0:0:0:0:
371,264,93584,70,0,P|337:268|290:278,2,70
497,326,94034,1,8,0:0:0:0:
235,159,94184,2,0,L|389:151,1,140,8|8,0:0|0:0,0:0:0:0:
494,225,94634,1,0,0:0:0:0:
233,346,94784,5,0,0:0:0:0:
276,59,94934,1,8,0:0:0:0:
71,231,95084,5,8,0:0:0:0:
347,194,95234,1,0,0:0:0:0:
39,89,95384,38,0,P|99:82|163:79,1,122.5,8|0,0:0|0:0,0:0:0:0:
194,84,95984,69,4,0:0:0:0:
256,192,96134,12,0,100784,0:0:0:0:
