osu file format v14

[General]
AudioFilename: audio.mp3
AudioLeadIn: 0
PreviewTime: 57059
Countdown: 0
SampleSet: Normal
StackLeniency: 0.3
Mode: 0
LetterboxInBreaks: 0
EpilepsyWarning: 1
WidescreenStoryboard: 1

[Editor]
Bookmarks: 19184,28784,38384,47984,57584,76784,86384,95984
DistanceSpacing: 1.2
BeatDivisor: 2
GridSize: 16
TimelineZoom: 0.4999999

[Metadata]
Title:Cry Baby
TitleUnicode:Cry Baby
Artist:Antiserum & Mayhem
ArtistUnicode:Antiserum & Mayhem
Creator:Shadren
Version:Easy
Source:
Tags:trap bass 808 cut short verison Hustle Firepower Records twerk scary
BeatmapID:1209807
BeatmapSetID:565136

[Difficulty]
HPDrainRate:3
CircleSize:2.7
OverallDifficulty:3
ApproachRate:3
SliderMultiplier:1.4
SliderTickRate:1

[Events]
//Background and Video events
0,0,"BG.jpg",0,0
//Break Periods
//Storyboard Layer 0 (Background)
//Storyboard Layer 1 (Fail)
//Storyboard Layer 2 (Pass)
//Storyboard Layer 3 (Foreground)
//Storyboard Sound Samples

[TimingPoints]
9584,600,4,1,1,80,1,0
38384,-100,4,1,1,80,0,1
47984,-100,4,1,1,80,0,0
57584,-100,4,1,1,80,0,1
67184,-100,4,1,1,80,0,0
76784,-100,4,1,1,80,0,1
86384,-100,4,1,1,80,0,0
95984,-100,4,1,1,65,0,0
97184,-100,4,1,1,50,0,0
98384,-100,4,1,1,35,0,0
99584,-100,4,1,1,20,0,0
100784,-100,4,1,1,10,0,0

[Colours]
Combo1 : 176,176,255
Combo2 : 166,210,255
Combo3 : 177,177,177
Combo4 : 248,172,97
Combo5 : 230,129,111
Combo6 : 255,255,159

[HitObjects]
27,79,9584,6,0,P|102:69|175:64,1,140,4|8,3:1|0:0,0:0:0:0:
241,100,10484,2,0,B|289:102|289:102|347:91|347:91|396:90,1,140,4|8,3:1|0:0,0:0:0:0:
454,130,11384,2,0,B|462:167|467:207|467:204,1,70,8|0,0:0|0:0,0:0:0:0:
425,272,11984,6,0,B|404:288|347:275|347:275|297:262|257:277,1,140,8|8,0:0|0:0,0:0:0:0:
207,244,12884,2,0,B|198:193|198:193|205:89,1,140,8|8,0:0|0:0,0:0:0:0:
267,49,13784,2,0,L|343:45,1,70,8|0,0:0|0:0,0:0:0:0:
402,98,14384,70,0,B|411:174|411:174|402:254,1,140,4|8,3:1|0:0,0:0:0:0:
343,296,15284,2,0,P|263:289|172:288,1,140,4|8,3:1|0:0,0:0:0:0:
120,273,16184,2,0,L|116:195,1,70,8|0,0:0|0:0,0:0:0:0:
37,174,16784,6,0,L|43:24,1,140,8|8,0:0|0:0,0:0:0:0:
126,39,17684,2,0,B|174:42|174:42|228:35|228:35|284:34,1,140,8|8,0:0|0:0,0:0:0:0:
339,74,18584,2,0,P|376:68|418:65,1,70,8|0,0:0|0:0,0:0:0:0:
463,128,19184,38,0,L|471:298,1,140,4|2,0:0|0:0,0:0:0:0:
406,323,20084,2,0,P|371:325|328:316,2,70,4|0|0,0:0|0:0|3:0,0:0:0:0:
381,242,20984,2,0,P|341:234|293:240,1,70,2|0,0:0|0:0,0:0:0:0:
239,279,21584,6,0,B|187:288|187:288|71:278,1,140,4|2,0:0|0:0,0:0:0:0:
37,225,22484,2,0,P|37:187|43:148,1,70,4|0,0:0|0:0,0:0:0:0:
86,84,23084,1,0,3:0:0:0:
164,55,23384,2,0,L|246:63,1,70,2|0,0:0|0:0,0:0:0:0:
300,112,23984,70,0,P|375:110|458:102,1,140,4|2,0:0|0:0,0:0:0:0:
487,173,24884,2,0,B|491:211|493:260|493:259,2,70,4|0|0,0:0|0:0|3:0,0:0:0:0:
404,188,25784,2,0,B|405:236|410:275,1,70,2|0,0:0|0:0,0:0:0:0:
346,316,26384,6,0,L|190:310,1,140,4|2,0:0|0:0,0:0:0:0:
143,254,27284,2,0,P|144:218|152:173,1,70,4|0,0:0|0:0,0:0:0:0:
201,118,27884,1,0,3:0:0:0:
280,91,28184,2,0,L|359:100,1,70,2|0,0:0|0:0,0:0:0:0:
418,147,28784,70,0,B|425:195|425:195|421:245|421:245|427:318,1,140,4|8,0:0|0:0,0:0:0:0:
353,330,29684,2,0,B|262:321|188:321,1,140,4|0,0:0|0:0,0:0:0:0:
144,273,30584,2,0,P|106:275|60:282,1,70,8|0,0:0|0:0,0:0:0:0:
37,203,31184,6,0,P|109:190|199:198,1,140,4|8,0:0|0:0,0:0:0:0:
253,225,32084,2,0,B|301:233|301:233|416:220,1,140,4|0,0:0|0:0,0:0:0:0:
453,165,32984,2,0,P|450:129|441:89,1,70,8|0,0:0|0:0,0:0:0:0:
372,49,33584,70,0,P|296:52|218:57,1,140,4|8,0:0|0:0,0:0:0:0:
158,96,34484,2,0,B|153:145|153:145|165:255,1,140,4|0,0:0|0:0,0:0:0:0:
246,239,35384,2,0,L|236:158,1,70,8|0,0:0|0:0,0:0:0:0:
283,100,35984,6,0,P|367:87|442:90,1,140,4|8,0:0|0:0,0:0:0:0:
476,152,36884,2,0,B|489:203|489:203|482:321,1,140,4|0,0:0|0:0,0:0:0:0:
413,335,37784,1,8,0:0:0:0:
267,250,38384,38,0,P|195:240|115:237,2,140,4|8|0,0:0|0:0|0:0,0:0:0:0:
341,290,39884,1,0,3:0:0:0:
406,236,40184,2,0,P|412:194|412:163,1,70,8|0,0:0|3:0,0:0:0:0:
352,107,40784,6,0,P|281:102|198:100,1,140,0|8,3:0|0:0,0:0:0:0:
144,150,41684,2,0,B|134:200|134:200|142:295,1,140,0|0,3:0|3:0,0:0:0:0:
217,326,42584,2,0,L|298:318,1,70,8|0,0:0|3:0,0:0:0:0:
358,276,43184,70,0,P|428:266|503:268,2,140,4|8|0,0:0|0:0|0:0,0:0:0:0:
286,319,44684,1,0,3:0:0:0:
213,276,44984,2,0,P|175:279|137:285,1,70,8|0,0:0|3:0,0:0:0:0:
70,242,45584,6,0,B|63:200|63:200|74:95,1,140,0|8,3:0|0:0,0:0:0:0:
150,69,46484,2,0,P|224:58|320:60,1,140,0|0,3:0|3:0,0:0:0:0:
357,107,47384,2,0,L|432:102,1,70,8|0,0:0|3:0,0:0:0:0:
477,169,47984,70,0,P|488:248|484:318,1,140,4|8,0:0|0:0,0:0:0:0:
406,337,48884,2,0,L|239:334,1,140,4|8,0:0|0:0,0:0:0:0:
190,298,49784,2,0,P|152:303|111:312,1,70,8|0,0:0|0:0,0:0:0:0:
43,277,50384,6,0,L|48:129,1,140,0|8,0:0|0:0,0:0:0:0:
112,83,51284,2,0,B|135:75|179:85|179:85|237:99|265:90,1,140,0|8,0:0|0:0,0:0:0:0:
323,50,52184,2,0,P|359:45|395:42,1,70,8|0,0:0|0:0,0:0:0:0:
458,94,52784,70,0,B|471:138|471:138|466:245,1,140,4|8,0:0|0:0,0:0:0:0:
412,297,53684,2,0,P|336:302|263:334,1,140,4|8,0:0|0:0,0:0:0:0:
201,287,54584,2,0,P|201:249|204:210,1,70,8|0,0:0|0:0,0:0:0:0:
280,183,55184,6,0,L|266:43,1,140,0|8,0:0|0:0,0:0:0:0:
183,29,56084,2,0,P|118:53|82:117,1,140,0|8,0:0|0:0,0:0:0:0:
102,193,56984,1,8,0:0:0:0:
232,304,57584,70,0,P|302:295|371:291,2,140,4|2|0,0:0|0:0|0:0,0:0:0:0:
153,334,59084,1,0,3:0:0:0:
80,291,59384,2,0,P|74:258|75:221,1,70,2|0,0:0|3:0,0:0:0:0:
135,163,59984,6,0,B|130:77|130:77|118:44|128:18,1,140,0|2,3:0|0:0,0:0:0:0:
208,41,60884,2,0,P|282:54|363:52,1,140,0|0,3:0|3:0,0:0:0:0:
403,115,61784,2,0,L|397:195,1,70,2|0,0:0|3:0,0:0:0:0:
347,253,62384,70,0,B|308:269|277:260|277:260|282:296|248:342,2,140,4|2|0,0:0|0:0|0:0,0:0:0:0:
399,187,63884,1,0,3:0:0:0:
368,108,64184,2,0,L|369:32,1,70,2|0,0:0|3:0,0:0:0:0:
285,30,64784,6,0,P|212:36|134:49,1,140,0|2,3:0|0:0,0:0:0:0:
87,107,65684,1,0,3:0:0:0:
127,180,65984,2,0,L|133:261,1,70,2|0,0:0|0:0,0:0:0:0:
58,289,66584,2,0,L|55:374,1,70,2|0,0:0|0:0,0:0:0:0:
139,360,67184,70,0,P|214:350|287:347,1,140,4|8,0:0|0:0,0:0:0:0:
337,288,68084,2,0,P|410:296|504:298,1,140,4|0,0:0|3:0,0:0:0:0:
506,220,68984,2,0,L|499:148,1,70,8|0,0:0|3:0,0:0:0:0:
427,106,69584,6,0,B|376:101|376:101|280:112|279:112,1,140,4|8,0:0|0:0,0:0:0:0:
228,170,70484,2,0,L|233:261,1,70,4|8,0:0|0:0,0:0:0:0:
155,275,71084,2,0,L|150:353,1,70,0|8,3:0|0:0,0:0:0:0:
28,229,71984,70,0,P|29:156|33:81,1,140,4|8,0:0|0:0,0:0:0:0:
109,55,72884,2,0,P|187:45|264:46,1,140,4|0,0:0|3:0,0:0:0:0:
321,85,73784,2,0,L|392:80,1,70,8|0,0:0|3:0,0:0:0:0:
457,131,74384,6,0,B|462:173|462:173|448:297,1,140,12|8,0:0|0:0,0:0:0:0:
375,306,75284,1,12,0:0:0:0:
299,268,75584,2,0,L|208:266,1,70,4|4,0:0|0:0,0:0:0:0:
160,216,76184,2,0,L|75:226,1,70,4|4,0:0|0:0,0:0:0:0:
30,165,76784,70,0,P|37:92|87:43,1,140,4|2,0:0|0:0,0:0:0:0:
163,65,77684,2,0,P|235:60|309:53,1,140,0|0,3:0|3:0,0:0:0:0:
370,104,78584,2,0,L|366:188,1,70,2|0,0:0|3:0,0:0:0:0:
294,217,79184,6,0,P|279:282|292:358,2,140,0|2|0,3:0|0:0|0:0,0:0:0:0:
366,173,80684,1,0,3:0:0:0:
410,101,80984,2,0,P|405:64|397:29,1,70,2|0,0:0|3:0,0:0:0:0:
314,37,81584,70,0,P|240:43|172:67,1,140,4|2,0:0|0:0,0:0:0:0:
118,123,82484,2,0,B|113:169|113:169|129:270,1,140,0|0,3:0|3:0,0:0:0:0:
199,304,83384,2,0,P|237:298|272:289,1,70,2|0,0:0|3:0,0:0:0:0:
341,251,83984,6,0,P|414:254|501:280,2,140,0|2|0,3:0|0:0|0:0,0:0:0:0:
267,290,85484,1,0,3:0:0:0:
190,254,85784,2,0,P|185:217|183:184,1,70,2|0,0:0|3:0,0:0:0:0:
242,125,86384,70,0,P|323:115|394:115,1,140,4|8,0:0|0:0,0:0:0:0:
447,166,87284,2,0,B|456:193|446:238|446:238|430:279|443:328,1,140,4|8,0:0|0:0,0:0:0:0:
368,349,88184,2,0,L|296:347,1,70,8|0,0:0|0:0,0:0:0:0:
225,305,88784,6,0,B|172:298|172:298|68:313,1,140,0|8,0:0|0:0,0:0:0:0:
85,226,89684,2,0,B|170:213|170:213|223:220,1,140,0|8,0:0|0:0,0:0:0:0:
297,259,90584,2,0,P|334:257|367:252,1,70,8|0,0:0|0:0,0:0:0:0:
413,181,91184,70,0,P|417:104|410:35,1,140,4|8,0:0|0:0,0:0:0:0:
327,29,92084,2,0,L|176:40,1,140,4|8,0:0|0:0,0:0:0:0:
114,80,92984,2,0,L|34:75,1,70,8|0,0:0|0:0,0:0:0:0:
19,155,93584,6,0,B|12:201|12:201|22:305,1,140,0|8,0:0|0:0,0:0:0:0:
101,316,94484,2,0,P|179:302|250:298,1,140,8|8,0:0|0:0,0:0:0:0:
321,317,95384,1,8,0:0:0:0:
256,192,95984,12,0,100784,0:0:0:0:
