osu file format v14

[General]
AudioFilename: Me And Them.ogg
AudioLeadIn: 0
PreviewTime: 58910
Countdown: 1
SampleSet: None
StackLeniency: 0.7
Mode: 3
LetterboxInBreaks: 0
SpecialStyle: 0
WidescreenStoryboard: 0

[Editor]
DistanceSpacing: 0.8
BeatDivisor: 1
GridSize: 4
TimelineZoom: 1

[Metadata]
Title:Me And Them
TitleUnicode:
Artist:Anstam
ArtistUnicode:
Creator:Xay
Version:You
Source:
Tags:Xayy Lmao Mixtape feat. Chill Pill xayphon stepmania etterna
BeatmapID:2035581
BeatmapSetID:972197

[Difficulty]
HPDrainRate:8
CircleSize:4
OverallDifficulty:8
ApproachRate:5
SliderMultiplier:1.4
SliderTickRate:1

[Events]
//Background and Video events
0,0,"Me And Them.jpg",0,0
//Break Periods
//Storyboard Layer 0 (Background)
//Storyboard Layer 1 (Fail)
//Storyboard Layer 2 (Pass)
//Storyboard Layer 3 (Foreground)
//Storyboard Sound Samples

[TimingPoints]
196,428.571,4,1,0,15,1,0

[HitObjects]
64,192,3624,5,0,0:0:0:0:
192,192,3624,1,0,0:0:0:0:
64,192,4053,1,0,0:0:0:0:
192,192,4053,1,0,0:0:0:0:
320,192,4374,1,0,0:0:0:0:
64,192,4481,1,0,0:0:0:0:
192,192,4481,1,0,0:0:0:0:
192,192,4588,1,0,0:0:0:0:
192,192,4803,1,0,0:0:0:0:
64,192,5017,1,0,0:0:0:0:
320,192,5124,1,0,0:0:0:0:
448,192,5124,1,0,0:0:0:0:
320,192,5231,1,0,0:0:0:0:
64,192,5338,1,0,0:0:0:0:
192,192,5338,1,0,0:0:0:0:
64,192,5553,1,0,0:0:0:0:
192,192,5553,1,0,0:0:0:0:
192,192,5767,1,0,0:0:0:0:
448,192,5767,1,0,0:0:0:0:
320,192,6088,1,0,0:0:0:0:
192,192,6196,1,0,0:0:0:0:
64,192,6410,1,0,0:0:0:0:
320,192,6410,1,0,0:0:0:0:
64,192,6624,1,0,0:0:0:0:
192,192,6624,1,0,0:0:0:0:
320,192,6838,1,0,0:0:0:0:
448,192,6838,1,0,0:0:0:0:
64,192,10481,1,0,0:0:0:0:
192,192,10481,1,0,0:0:0:0:
64,192,10910,1,0,0:0:0:0:
192,192,10910,1,0,0:0:0:0:
320,192,11231,1,0,0:0:0:0:
64,192,11338,1,0,0:0:0:0:
192,192,11338,1,0,0:0:0:0:
192,192,11446,1,0,0:0:0:0:
320,192,11660,1,0,0:0:0:0:
64,192,11767,1,0,0:0:0:0:
64,192,11874,1,0,0:0:0:0:
320,192,11981,1,0,0:0:0:0:
448,192,11981,1,0,0:0:0:0:
320,192,12088,1,0,0:0:0:0:
64,192,12196,1,0,0:0:0:0:
192,192,12196,1,0,0:0:0:0:
64,192,12410,1,0,0:0:0:0:
192,192,12410,1,0,0:0:0:0:
192,192,12624,1,0,0:0:0:0:
448,192,12624,1,0,0:0:0:0:
320,192,12731,1,0,0:0:0:0:
448,192,12838,1,0,0:0:0:0:
64,192,12946,1,0,0:0:0:0:
64,192,13053,1,0,0:0:0:0:
192,192,13267,1,0,0:0:0:0:
448,192,13267,1,0,0:0:0:0:
64,192,13481,1,0,0:0:0:0:
192,192,13481,1,0,0:0:0:0:
320,192,13696,1,0,0:0:0:0:
448,192,13696,1,0,0:0:0:0:
448,192,14338,1,0,0:0:0:0:
64,0,14338,128,0,14553:1:0:0:0:
448,192,15196,1,0,0:0:0:0:
64,0,15196,128,0,15410:1:0:0:0:
192,192,16053,1,0,0:0:0:0:
448,0,16053,128,0,16267:1:0:0:0:
192,192,16910,1,0,0:0:0:0:
448,0,16910,128,0,17124:1:0:0:0:
64,192,17338,1,0,0:0:0:0:
192,192,17338,1,0,0:0:0:0:
320,192,17553,1,0,0:0:0:0:
64,192,17767,1,0,0:0:0:0:
192,192,17767,1,0,0:0:0:0:
320,192,17981,1,0,0:0:0:0:
64,192,18196,1,0,0:0:0:0:
448,192,18196,1,0,0:0:0:0:
192,192,18303,1,0,0:0:0:0:
448,192,18303,1,0,0:0:0:0:
64,192,18410,1,0,0:0:0:0:
192,192,18410,1,0,0:0:0:0:
320,192,18517,1,0,0:0:0:0:
64,192,18624,1,0,0:0:0:0:
192,192,18731,1,0,0:0:0:0:
320,192,18838,1,0,0:0:0:0:
448,192,18838,1,0,0:0:0:0:
64,192,19053,1,0,0:0:0:0:
192,192,19053,1,0,0:0:0:0:
320,192,19160,1,0,0:0:0:0:
64,192,19267,1,0,0:0:0:0:
192,192,19267,1,0,0:0:0:0:
192,192,19481,1,0,0:0:0:0:
448,192,19481,1,0,0:0:0:0:
448,192,19588,1,0,0:0:0:0:
64,192,19696,1,0,0:0:0:0:
192,192,19803,1,0,0:0:0:0:
448,192,19803,1,0,0:0:0:0:
64,192,19910,1,0,0:0:0:0:
320,192,19910,1,0,0:0:0:0:
64,192,20017,1,0,0:0:0:0:
192,192,20124,1,0,0:0:0:0:
448,192,20124,1,0,0:0:0:0:
64,192,20338,1,0,0:0:0:0:
192,192,20338,1,0,0:0:0:0:
320,192,20553,1,0,0:0:0:0:
448,192,20553,1,0,0:0:0:0:
192,192,20606,1,0,0:0:0:0:
64,0,24196,128,0,27624:1:0:0:0:
448,0,24553,128,0,25481:1:0:0:0:
192,192,24838,1,0,0:0:0:0:
192,192,25053,1,0,0:0:0:0:
192,0,25481,128,0,26338:1:0:0:0:
448,192,25696,1,0,0:0:0:0:
448,192,25910,1,0,0:0:0:0:
448,0,26338,128,0,27142:1:0:0:0:
192,192,26553,1,0,0:0:0:0:
192,192,26767,1,0,0:0:0:0:
192,0,27142,128,0,27624:1:0:0:0:
448,192,27410,1,0,0:0:0:0:
448,192,27624,1,0,0:0:0:0:
64,192,31053,1,0,0:0:0:0:
192,192,31053,1,0,0:0:0:0:
64,192,31481,1,0,0:0:0:0:
192,192,31481,1,0,0:0:0:0:
320,192,31803,1,0,0:0:0:0:
64,192,31910,1,0,0:0:0:0:
192,192,31910,1,0,0:0:0:0:
192,192,32017,1,0,0:0:0:0:
192,192,32231,1,0,0:0:0:0:
64,192,32446,1,0,0:0:0:0:
320,192,32553,1,0,0:0:0:0:
448,192,32553,1,0,0:0:0:0:
320,192,32660,1,0,0:0:0:0:
64,192,32767,1,0,0:0:0:0:
192,192,32767,1,0,0:0:0:0:
64,192,32981,1,0,0:0:0:0:
192,192,32981,1,0,0:0:0:0:
192,192,33196,1,0,0:0:0:0:
448,192,33196,1,0,0:0:0:0:
320,192,33517,1,0,0:0:0:0:
192,192,33624,1,0,0:0:0:0:
192,192,33838,1,0,0:0:0:0:
448,192,33838,1,0,0:0:0:0:
64,192,34053,1,0,0:0:0:0:
192,192,34053,1,0,0:0:0:0:
320,192,34267,1,0,0:0:0:0:
448,192,34267,1,0,0:0:0:0:
64,192,34481,1,0,0:0:0:0:
192,192,34481,1,0,0:0:0:0:
64,192,34910,1,0,0:0:0:0:
192,192,34910,1,0,0:0:0:0:
320,192,35231,1,0,0:0:0:0:
64,192,35338,1,0,0:0:0:0:
192,192,35338,1,0,0:0:0:0:
192,192,35446,1,0,0:0:0:0:
192,192,35660,1,0,0:0:0:0:
64,192,35874,1,0,0:0:0:0:
320,192,35981,1,0,0:0:0:0:
448,192,35981,1,0,0:0:0:0:
320,192,36088,1,0,0:0:0:0:
64,192,36196,1,0,0:0:0:0:
192,192,36196,1,0,0:0:0:0:
320,192,36303,1,0,0:0:0:0:
64,192,36410,1,0,0:0:0:0:
192,192,36410,1,0,0:0:0:0:
64,192,36517,1,0,0:0:0:0:
192,192,36624,1,0,0:0:0:0:
448,192,36624,1,0,0:0:0:0:
320,192,36731,1,0,0:0:0:0:
64,192,36838,1,0,0:0:0:0:
192,192,36946,1,0,0:0:0:0:
192,192,37053,1,0,0:0:0:0:
192,192,37267,1,0,0:0:0:0:
448,192,37267,1,0,0:0:0:0:
64,192,37481,1,0,0:0:0:0:
192,192,37481,1,0,0:0:0:0:
320,192,37696,1,0,0:0:0:0:
448,192,37696,1,0,0:0:0:0:
64,192,41338,1,0,0:0:0:0:
192,192,41338,1,0,0:0:0:0:
64,192,41767,1,0,0:0:0:0:
192,192,41767,1,0,0:0:0:0:
320,192,42088,1,0,0:0:0:0:
64,192,42196,1,0,0:0:0:0:
192,192,42196,1,0,0:0:0:0:
192,192,42303,1,0,0:0:0:0:
192,192,42517,1,0,0:0:0:0:
64,192,42731,1,0,0:0:0:0:
320,192,42838,1,0,0:0:0:0:
448,192,42838,1,0,0:0:0:0:
320,192,42946,1,0,0:0:0:0:
64,192,43053,1,0,0:0:0:0:
192,192,43053,1,0,0:0:0:0:
64,192,43267,1,0,0:0:0:0:
192,192,43267,1,0,0:0:0:0:
192,192,43481,1,0,0:0:0:0:
448,192,43481,1,0,0:0:0:0:
320,192,43803,1,0,0:0:0:0:
192,192,43910,1,0,0:0:0:0:
192,192,44124,1,0,0:0:0:0:
448,192,44124,1,0,0:0:0:0:
64,192,44338,1,0,0:0:0:0:
192,192,44338,1,0,0:0:0:0:
320,192,44553,1,0,0:0:0:0:
448,192,44553,1,0,0:0:0:0:
64,192,44767,1,0,0:0:0:0:
192,192,44767,1,0,0:0:0:0:
192,192,45196,1,0,0:0:0:0:
64,0,45196,128,0,45624:1:0:0:0:
448,192,45517,1,0,0:0:0:0:
192,192,45624,1,0,0:0:0:0:
320,192,45624,1,0,0:0:0:0:
192,192,45731,1,0,0:0:0:0:
192,192,45946,1,0,0:0:0:0:
64,0,46053,128,0,46481:1:0:0:0:
192,192,46160,1,0,0:0:0:0:
320,192,46267,1,0,0:0:0:0:
448,192,46267,1,0,0:0:0:0:
320,192,46374,1,0,0:0:0:0:
192,192,46481,1,0,0:0:0:0:
448,192,46481,1,0,0:0:0:0:
192,192,46696,1,0,0:0:0:0:
448,192,46696,1,0,0:0:0:0:
320,192,46910,1,0,0:0:0:0:
64,0,46910,128,0,47124:1:0:0:0:
320,192,47231,1,0,0:0:0:0:
64,0,47338,128,0,47553:1:0:0:0:
192,192,47553,1,0,0:0:0:0:
448,192,47553,1,0,0:0:0:0:
192,192,47767,1,0,0:0:0:0:
64,0,47767,128,0,47981:1:0:0:0:
320,192,47981,1,0,0:0:0:0:
448,0,47981,128,0,48196:1:0:0:0:
64,0,51624,128,0,51651:1:0:0:0:
192,0,51624,128,0,51651:1:0:0:0:
448,0,51624,128,0,51651:1:0:0:0:
64,192,51946,1,0,0:0:0:0:
192,192,51946,1,0,0:0:0:0:
192,192,52267,1,0,0:0:0:0:
448,192,52267,1,0,0:0:0:0:
192,192,52481,1,0,0:0:0:0:
64,192,52588,1,0,0:0:0:0:
320,192,52588,1,0,0:0:0:0:
448,192,52803,1,0,0:0:0:0:
64,192,52910,1,0,0:0:0:0:
192,192,52910,1,0,0:0:0:0:
192,192,53017,1,0,0:0:0:0:
320,192,53124,1,0,0:0:0:0:
448,192,53124,1,0,0:0:0:0:
448,192,53231,1,0,0:0:0:0:
64,192,53338,1,0,0:0:0:0:
192,192,53338,1,0,0:0:0:0:
64,192,53553,1,0,0:0:0:0:
192,192,53553,1,0,0:0:0:0:
448,0,53660,128,0,53713:1:0:0:0:
64,192,53767,1,0,0:0:0:0:
320,192,53767,1,0,0:0:0:0:
192,0,53874,128,0,53928:1:0:0:0:
320,192,53981,1,0,0:0:0:0:
448,192,53981,1,0,0:0:0:0:
64,192,54088,1,0,0:0:0:0:
64,192,54196,1,0,0:0:0:0:
192,192,54410,1,0,0:0:0:0:
448,192,54410,1,0,0:0:0:0:
64,192,54624,1,0,0:0:0:0:
192,192,54624,1,0,0:0:0:0:
320,192,54838,1,0,0:0:0:0:
448,192,54838,1,0,0:0:0:0:
320,192,54946,1,0,0:0:0:0:
448,192,54946,1,0,0:0:0:0:
64,192,55053,1,0,0:0:0:0:
192,192,55053,1,0,0:0:0:0:
320,192,55267,1,0,0:0:0:0:
64,192,55481,1,0,0:0:0:0:
192,192,55481,1,0,0:0:0:0:
320,192,55696,1,0,0:0:0:0:
192,192,55803,1,0,0:0:0:0:
448,192,55803,1,0,0:0:0:0:
64,192,55910,1,0,0:0:0:0:
192,192,55910,1,0,0:0:0:0:
320,192,56124,1,0,0:0:0:0:
192,192,56231,1,0,0:0:0:0:
192,192,56446,1,0,0:0:0:0:
320,192,56553,1,0,0:0:0:0:
448,192,56553,1,0,0:0:0:0:
320,192,56660,1,0,0:0:0:0:
64,192,56767,1,0,0:0:0:0:
192,192,56767,1,0,0:0:0:0:
64,192,56981,1,0,0:0:0:0:
192,192,56981,1,0,0:0:0:0:
192,192,57196,1,0,0:0:0:0:
448,192,57196,1,0,0:0:0:0:
320,192,57410,1,0,0:0:0:0:
192,192,57517,1,0,0:0:0:0:
192,192,57624,1,0,0:0:0:0:
192,192,57838,1,0,0:0:0:0:
448,192,57838,1,0,0:0:0:0:
64,192,58053,1,0,0:0:0:0:
192,192,58053,1,0,0:0:0:0:
320,192,58267,1,0,0:0:0:0:
448,192,58267,1,0,0:0:0:0:
192,192,58321,1,0,0:0:0:0:
320,0,61910,128,0,62231:1:0:0:0:
64,192,62338,1,0,0:0:0:0:
448,192,62338,1,0,0:0:0:0:
192,0,62338,128,0,63410:1:0:0:0:
320,192,62660,1,0,0:0:0:0:
64,192,62767,1,0,0:0:0:0:
448,192,62767,1,0,0:0:0:0:
320,192,63088,1,0,0:0:0:0:
448,192,63303,1,0,0:0:0:0:
320,192,63410,1,0,0:0:0:0:
64,0,63410,128,0,64267:1:0:0:0:
320,192,63517,1,0,0:0:0:0:
192,192,63624,1,0,0:0:0:0:
448,192,63624,1,0,0:0:0:0:
192,192,63838,1,0,0:0:0:0:
448,192,63838,1,0,0:0:0:0:
320,192,64053,1,0,0:0:0:0:
448,192,64053,1,0,0:0:0:0:
448,0,64267,128,0,65124:1:0:0:0:
192,192,64374,1,0,0:0:0:0:
192,192,64481,1,0,0:0:0:0:
64,192,64696,1,0,0:0:0:0:
320,192,64696,1,0,0:0:0:0:
64,192,64910,1,0,0:0:0:0:
192,192,64910,1,0,0:0:0:0:
192,192,65124,1,0,0:0:0:0:
320,0,65124,128,0,66624:1:0:0:0:
64,192,65338,1,0,0:0:0:0:
192,192,65338,1,0,0:0:0:0:
64,192,65767,1,0,0:0:0:0:
192,192,65767,1,0,0:0:0:0:
448,192,66088,1,0,0:0:0:0:
64,192,66196,1,0,0:0:0:0:
192,192,66196,1,0,0:0:0:0:
448,192,66517,1,0,0:0:0:0:
448,192,66731,1,0,0:0:0:0:
192,192,66838,1,0,0:0:0:0:
320,0,66838,128,0,68553:1:0:0:0:
192,192,66946,1,0,0:0:0:0:
64,192,67053,1,0,0:0:0:0:
448,192,67053,1,0,0:0:0:0:
64,192,67267,1,0,0:0:0:0:
448,192,67267,1,0,0:0:0:0:
64,192,67481,1,0,0:0:0:0:
192,192,67481,1,0,0:0:0:0:
64,192,67803,1,0,0:0:0:0:
64,192,67910,1,0,0:0:0:0:
192,192,68124,1,0,0:0:0:0:
448,192,68124,1,0,0:0:0:0:
64,192,68338,1,0,0:0:0:0:
192,192,68338,1,0,0:0:0:0:
448,192,68553,1,0,0:0:0:0:
64,0,68553,128,0,70053:1:0:0:0:
192,192,68767,1,0,0:0:0:0:
320,192,68767,1,0,0:0:0:0:
192,192,69196,1,0,0:0:0:0:
320,192,69196,1,0,0:0:0:0:
448,192,69517,1,0,0:0:0:0:
192,192,69624,1,0,0:0:0:0:
320,192,69624,1,0,0:0:0:0:
320,192,69731,1,0,0:0:0:0:
320,192,69946,1,0,0:0:0:0:
192,192,70160,1,0,0:0:0:0:
448,192,70267,1,0,0:0:0:0:
320,0,70267,128,0,71767:1:0:0:0:
448,192,70374,1,0,0:0:0:0:
64,192,70481,1,0,0:0:0:0:
192,192,70481,1,0,0:0:0:0:
64,192,70696,1,0,0:0:0:0:
192,192,70696,1,0,0:0:0:0:
192,192,70910,1,0,0:0:0:0:
448,192,70910,1,0,0:0:0:0:
192,192,71231,1,0,0:0:0:0:
64,192,71338,1,0,0:0:0:0:
192,192,71553,1,0,0:0:0:0:
448,192,71553,1,0,0:0:0:0:
64,192,71767,1,0,0:0:0:0:
192,192,71767,1,0,0:0:0:0:
448,192,71981,1,0,0:0:0:0:
320,0,71981,128,0,73696:1:0:0:0:
64,192,72088,1,0,0:0:0:0:
192,192,72088,1,0,0:0:0:0:
64,192,72196,1,0,0:0:0:0:
192,192,72196,1,0,0:0:0:0:
64,192,72624,1,0,0:0:0:0:
192,192,72624,1,0,0:0:0:0:
448,192,72946,1,0,0:0:0:0:
64,192,73053,1,0,0:0:0:0:
192,192,73053,1,0,0:0:0:0:
192,192,73160,1,0,0:0:0:0:
192,192,73374,1,0,0:0:0:0:
192,192,73588,1,0,0:0:0:0:
64,192,73696,1,0,0:0:0:0:
448,192,73696,1,0,0:0:0:0:
448,192,73803,1,0,0:0:0:0:
64,192,73910,1,0,0:0:0:0:
192,192,73910,1,0,0:0:0:0:
192,192,74124,1,0,0:0:0:0:
64,0,74124,128,0,74231:1:0:0:0:
192,192,74338,1,0,0:0:0:0:
448,0,74338,128,0,74446:1:0:0:0:
320,192,74660,1,0,0:0:0:0:
192,192,74767,1,0,0:0:0:0:
192,192,74981,1,0,0:0:0:0:
448,192,74981,1,0,0:0:0:0:
64,192,75196,1,0,0:0:0:0:
192,192,75196,1,0,0:0:0:0:
320,192,75410,1,0,0:0:0:0:
448,192,75410,1,0,0:0:0:0:
192,192,75624,1,0,0:0:0:0:
64,0,75624,128,0,76374:1:0:0:0:
320,192,75838,1,0,0:0:0:0:
320,192,76267,1,0,0:0:0:0:
448,192,76481,1,0,0:0:0:0:
64,0,76481,128,0,77231:1:0:0:0:
320,192,76696,1,0,0:0:0:0:
320,192,76910,1,0,0:0:0:0:
320,192,77124,1,0,0:0:0:0:
192,192,77338,1,0,0:0:0:0:
64,0,77338,128,0,78088:1:0:0:0:
320,192,77553,1,0,0:0:0:0:
320,192,77767,1,0,0:0:0:0:
320,192,77981,1,0,0:0:0:0:
448,192,78088,1,0,0:0:0:0:
192,192,78196,1,0,0:0:0:0:
64,0,78196,128,0,79053:1:0:0:0:
448,192,78410,1,0,0:0:0:0:
448,192,78517,1,0,0:0:0:0:
448,192,78731,1,0,0:0:0:0:
448,192,78838,1,0,0:0:0:0:
192,192,78946,1,0,0:0:0:0:
448,192,79071,1,0,0:0:0:0:
320,192,79124,1,0,0:0:0:0:
192,192,79178,1,0,0:0:0:0:
448,192,79267,1,0,0:0:0:0:
192,192,79374,1,0,0:0:0:0:
320,192,79481,1,0,0:0:0:0:
320,192,79588,1,0,0:0:0:0:
320,192,79803,1,0,0:0:0:0:
320,192,79910,1,0,0:0:0:0:
448,192,79910,1,0,0:0:0:0:
64,192,80017,1,0,0:0:0:0:
192,192,80088,1,0,0:0:0:0:
320,192,80124,1,0,0:0:0:0:
320,192,80338,1,0,0:0:0:0:
192,192,80446,1,0,0:0:0:0:
320,192,80553,1,0,0:0:0:0:
320,192,80660,1,0,0:0:0:0:
64,192,80767,1,0,0:0:0:0:
192,192,80767,1,0,0:0:0:0:
192,192,81088,1,0,0:0:0:0:
192,192,81410,1,0,0:0:0:0:
320,192,81463,1,0,0:0:0:0:
192,192,81517,1,0,0:0:0:0:
320,192,81624,1,0,0:0:0:0:
448,192,81624,1,0,0:0:0:0:
64,192,81678,1,0,0:0:0:0:
320,192,81731,1,0,0:0:0:0:
192,192,81838,1,0,0:0:0:0:
320,192,81892,1,0,0:0:0:0:
192,192,81946,1,0,0:0:0:0:
320,192,82017,1,0,0:0:0:0:
64,192,82053,1,0,0:0:0:0:
448,192,82374,1,0,0:0:0:0:
64,192,82481,1,0,0:0:0:0:
192,192,82481,1,0,0:0:0:0:
192,192,82696,1,0,0:0:0:0:
192,192,82803,1,0,0:0:0:0:
320,192,83017,1,0,0:0:0:0:
192,192,83124,1,0,0:0:0:0:
320,192,83231,1,0,0:0:0:0:
64,192,83338,1,0,0:0:0:0:
192,192,83338,1,0,0:0:0:0:
192,192,83446,1,0,0:0:0:0:
448,192,83553,1,0,0:0:0:0:
448,192,83660,1,0,0:0:0:0:
64,192,83767,1,0,0:0:0:0:
448,192,83963,1,0,0:0:0:0:
64,192,84196,1,0,0:0:0:0:
192,192,84196,1,0,0:0:0:0:
448,192,84267,1,0,0:0:0:0:
320,192,84410,1,0,0:0:0:0:
64,192,84517,1,0,0:0:0:0:
448,192,84553,1,0,0:0:0:0:
320,192,84588,1,0,0:0:0:0:
192,192,84660,1,0,0:0:0:0:
448,192,84829,1,0,0:0:0:0:
192,192,84946,1,0,0:0:0:0:
64,192,85053,1,0,0:0:0:0:
192,192,85053,1,0,0:0:0:0:
448,192,85124,1,0,0:0:0:0:
320,192,85267,1,0,0:0:0:0:
192,192,85374,1,0,0:0:0:0:
448,192,85472,1,0,0:0:0:0:
64,192,85481,1,0,0:0:0:0:
448,192,85669,1,0,0:0:0:0:
64,192,85803,1,0,0:0:0:0:
192,192,85910,1,0,0:0:0:0:
320,192,85910,1,0,0:0:0:0:
448,192,86008,1,0,0:0:0:0:
192,192,86231,1,0,0:0:0:0:
448,192,86338,1,0,0:0:0:0:
448,192,86553,1,0,0:0:0:0:
64,0,86767,128,0,86874:1:0:0:0:
448,0,86767,128,0,86874:1:0:0:0:
320,192,86981,1,0,0:0:0:0:
192,192,87088,1,0,0:0:0:0:
448,192,87196,1,0,0:0:0:0:
320,192,87267,1,0,0:0:0:0:
192,192,87303,1,0,0:0:0:0:
320,192,87410,1,0,0:0:0:0:
64,192,87624,1,0,0:0:0:0:
192,192,87624,1,0,0:0:0:0:
320,192,87731,1,0,0:0:0:0:
320,192,87946,1,0,0:0:0:0:
192,192,88053,1,0,0:0:0:0:
320,192,88160,1,0,0:0:0:0:
320,192,88374,1,0,0:0:0:0:
64,192,88481,1,0,0:0:0:0:
192,192,88481,1,0,0:0:0:0:
320,192,88535,1,0,0:0:0:0:
192,192,88588,1,0,0:0:0:0:
320,192,88642,1,0,0:0:0:0:
64,0,88696,128,0,89338:1:0:0:0:
320,192,88910,1,0,0:0:0:0:
192,192,89017,1,0,0:0:0:0:
448,192,89071,1,0,0:0:0:0:
320,192,89124,1,0,0:0:0:0:
320,192,89231,1,0,0:0:0:0:
192,0,89338,128,0,89365:1:0:0:0:
320,0,89338,128,0,89374:1:0:0:0:
448,0,89338,128,0,89374:1:0:0:0:
64,192,89767,1,0,0:0:0:0:
192,192,89767,1,0,0:0:0:0:
320,192,90088,1,0,0:0:0:0:
64,192,90196,1,0,0:0:0:0:
192,192,90196,1,0,0:0:0:0:
192,192,90303,1,0,0:0:0:0:
192,192,90517,1,0,0:0:0:0:
64,192,90731,1,0,0:0:0:0:
320,192,90838,1,0,0:0:0:0:
448,192,90838,1,0,0:0:0:0:
320,192,90946,1,0,0:0:0:0:
64,192,91053,1,0,0:0:0:0:
192,192,91053,1,0,0:0:0:0:
64,192,91267,1,0,0:0:0:0:
192,192,91267,1,0,0:0:0:0:
192,192,91481,1,0,0:0:0:0:
448,192,91481,1,0,0:0:0:0:
320,192,91803,1,0,0:0:0:0:
192,192,91910,1,0,0:0:0:0:
192,192,92124,1,0,0:0:0:0:
448,192,92124,1,0,0:0:0:0:
64,192,92338,1,0,0:0:0:0:
192,192,92338,1,0,0:0:0:0:
320,192,92553,1,0,0:0:0:0:
448,192,92553,1,0,0:0:0:0:
64,0,92767,128,0,92794:1:0:0:0:
192,0,92767,128,0,92794:1:0:0:0:
448,0,92767,128,0,92794:1:0:0:0:
64,192,93196,1,0,0:0:0:0:
192,192,93196,1,0,0:0:0:0:
320,192,93517,1,0,0:0:0:0:
64,192,93624,1,0,0:0:0:0:
192,192,93624,1,0,0:0:0:0:
192,192,93731,1,0,0:0:0:0:
192,192,93946,1,0,0:0:0:0:
64,192,94160,1,0,0:0:0:0:
320,192,94267,1,0,0:0:0:0:
448,192,94267,1,0,0:0:0:0:
320,192,94374,1,0,0:0:0:0:
64,192,94481,1,0,0:0:0:0:
192,192,94481,1,0,0:0:0:0:
64,192,94696,1,0,0:0:0:0:
192,192,94696,1,0,0:0:0:0:
64,192,94910,1,0,0:0:0:0:
192,192,94910,1,0,0:0:0:0:
320,192,95124,1,0,0:0:0:0:
192,192,95231,1,0,0:0:0:0:
192,192,95338,1,0,0:0:0:0:
192,192,95553,1,0,0:0:0:0:
448,192,95553,1,0,0:0:0:0:
64,192,95767,1,0,0:0:0:0:
192,192,95767,1,0,0:0:0:0:
320,192,95981,1,0,0:0:0:0:
448,192,95981,1,0,0:0:0:0:
64,0,96196,128,0,96222:1:0:0:0:
192,0,96196,128,0,96222:1:0:0:0:
448,0,96196,128,0,96222:1:0:0:0:
320,192,96517,1,0,0:0:0:0:
64,192,96624,1,0,0:0:0:0:
192,192,96624,1,0,0:0:0:0:
320,192,96838,1,0,0:0:0:0:
448,192,96838,1,0,0:0:0:0:
64,192,97053,1,0,0:0:0:0:
192,192,97106,1,0,0:0:0:0:
320,192,97160,1,0,0:0:0:0:
448,192,97213,1,0,0:0:0:0:
64,192,97267,1,0,0:0:0:0:
192,192,97321,1,0,0:0:0:0:
320,192,97374,1,0,0:0:0:0:
64,192,97428,1,0,0:0:0:0:
448,192,97481,1,0,0:0:0:0:
192,192,97588,1,0,0:0:0:0:
448,192,97696,1,0,0:0:0:0:
192,192,97803,1,0,0:0:0:0:
448,192,97910,1,0,0:0:0:0:
64,192,98017,1,0,0:0:0:0:
192,192,98017,1,0,0:0:0:0:
448,192,98124,1,0,0:0:0:0:
64,192,98231,1,0,0:0:0:0:
192,192,98231,1,0,0:0:0:0:
320,192,98338,1,0,0:0:0:0:
192,192,98446,1,0,0:0:0:0:
448,192,98446,1,0,0:0:0:0:
192,192,98553,1,0,0:0:0:0:
320,192,98553,1,0,0:0:0:0:
64,192,98660,1,0,0:0:0:0:
320,192,98660,1,0,0:0:0:0:
192,192,98767,1,0,0:0:0:0:
448,192,98767,1,0,0:0:0:0:
192,192,98981,1,0,0:0:0:0:
448,192,98981,1,0,0:0:0:0:
64,192,99196,1,0,0:0:0:0:
320,192,99196,1,0,0:0:0:0:
192,192,99303,1,0,0:0:0:0:
320,192,99410,1,0,0:0:0:0:
448,192,99410,1,0,0:0:0:0:
320,192,99517,1,0,0:0:0:0:
64,0,99624,128,0,99651:1:0:0:0:
192,0,99624,128,0,99651:1:0:0:0:
448,0,99624,128,0,99651:1:0:0:0:
64,192,100053,1,0,0:0:0:0:
192,192,100053,1,0,0:0:0:0:
192,192,100374,1,0,0:0:0:0:
448,192,100374,1,0,0:0:0:0:
320,192,100535,1,0,0:0:0:0:
320,192,100696,1,0,0:0:0:0:
64,192,100803,1,0,0:0:0:0:
448,192,100803,1,0,0:0:0:0:
192,192,100963,1,0,0:0:0:0:
320,192,101124,1,0,0:0:0:0:
448,192,101124,1,0,0:0:0:0:
192,192,101231,1,0,0:0:0:0:
64,192,101338,1,0,0:0:0:0:
192,192,101338,1,0,0:0:0:0:
64,192,101553,1,0,0:0:0:0:
192,192,101553,1,0,0:0:0:0:
192,192,101767,1,0,0:0:0:0:
448,192,101767,1,0,0:0:0:0:
320,192,102088,1,0,0:0:0:0:
64,192,102196,1,0,0:0:0:0:
448,192,102196,1,0,0:0:0:0:
320,192,102303,1,0,0:0:0:0:
192,192,102410,1,0,0:0:0:0:
448,192,102410,1,0,0:0:0:0:
192,192,102624,1,0,0:0:0:0:
320,192,102624,1,0,0:0:0:0:
64,0,102731,128,0,102838:1:0:0:0:
448,192,102838,1,0,0:0:0:0:
192,0,102838,128,0,102946:1:0:0:0:
320,0,102946,128,0,103053:1:0:0:0:
448,192,103053,1,0,0:0:0:0:
64,0,103053,128,0,109481:1:0:0:0:
448,192,108053,1,0,0:0:0:0:
192,192,108124,1,0,0:0:0:0:
320,0,108196,128,0,108553:1:0:0:0:
192,0,108553,128,0,108785:1:0:0:0:
320,192,108785,1,0,0:0:0:0:
448,0,108838,128,0,109053:1:0:0:0:
320,0,109053,128,0,109481:1:0:0:0:
192,0,109481,128,0,109910:1:0:0:0:
64,0,109910,128,0,112053:1:0:0:0:
448,0,110338,128,0,111196:1:0:0:0:
192,0,111196,128,0,113767:1:0:0:0:
448,0,112053,128,0,116767:1:0:0:0:
320,0,113767,128,0,114624:1:0:0:0:
64,0,114624,128,0,115481:1:0:0:0:
320,0,115481,128,0,117196:1:0:0:0:
192,0,116767,128,0,117196:1:0:0:0:
192,192,117303,1,0,0:0:0:0:
64,192,117410,1,0,0:0:0:0:
448,192,117517,1,0,0:0:0:0:
320,192,117731,1,0,0:0:0:0:
192,0,117838,128,0,118213:1:0:0:0:
64,192,118267,1,0,0:0:0:0:
192,192,118374,1,0,0:0:0:0:
448,0,118481,128,0,118910:1:0:0:0:
448,192,119017,1,0,0:0:0:0:
320,192,119124,1,0,0:0:0:0:
192,192,119231,1,0,0:0:0:0:
64,0,119338,128,0,119767:1:0:0:0:
448,192,119767,1,0,0:0:0:0:
320,192,119874,1,0,0:0:0:0:
192,192,119981,1,0,0:0:0:0:
64,192,120088,1,0,0:0:0:0:
64,0,120196,128,0,122338:1:0:0:0:
320,0,120624,128,0,121481:1:0:0:0:
448,0,121481,128,0,122338:1:0:0:0:
192,0,122338,128,0,123624:1:0:0:0:
320,0,122338,128,0,123624:1:0:0:0:
64,0,123624,128,0,124053:1:0:0:0:
448,192,123946,1,0,0:0:0:0:
192,192,124053,1,0,0:0:0:0:
320,0,124160,128,0,124481:1:0:0:0:
192,192,124696,1,0,0:0:0:0:
448,192,124803,1,0,0:0:0:0:
320,192,124910,1,0,0:0:0:0:
448,192,125017,1,0,0:0:0:0:
64,0,125124,128,0,125338:1:0:0:0:
320,192,125338,1,0,0:0:0:0:
192,192,125446,1,0,0:0:0:0:
320,192,125553,1,0,0:0:0:0:
448,192,125660,1,0,0:0:0:0:
192,192,125767,1,0,0:0:0:0:
320,192,125874,1,0,0:0:0:0:
192,192,126196,1,0,0:0:0:0:
448,192,126303,1,0,0:0:0:0:
320,192,126410,1,0,0:0:0:0:
64,192,126517,1,0,0:0:0:0:
192,192,126624,1,0,0:0:0:0:
320,192,126731,1,0,0:0:0:0:
64,192,126838,1,0,0:0:0:0:
448,192,126946,1,0,0:0:0:0:
192,0,127053,128,0,129196:1:0:0:0:
320,0,127481,128,0,128338:1:0:0:0:
64,0,128338,128,0,129196:1:0:0:0:
448,0,129196,128,0,130481:1:0:0:0:
320,0,129196,128,0,133053:1:0:0:0:
64,192,133053,1,0,0:0:0:0:
64,192,133267,1,0,0:0:0:0:
320,192,133374,1,0,0:0:0:0:
448,192,133428,1,0,0:0:0:0:
192,192,133481,1,0,0:0:0:0:
320,192,133696,1,0,0:0:0:0:
320,192,133803,1,0,0:0:0:0:
64,0,133910,128,0,133937:1:0:0:0:
192,0,133910,128,0,133937:1:0:0:0:
448,0,133910,128,0,133937:1:0:0:0:
64,192,134338,1,0,0:0:0:0:
192,192,134338,1,0,0:0:0:0:
320,192,134660,1,0,0:0:0:0:
64,192,134767,1,0,0:0:0:0:
192,192,134767,1,0,0:0:0:0:
192,192,134874,1,0,0:0:0:0:
192,192,135088,1,0,0:0:0:0:
64,192,135303,1,0,0:0:0:0:
320,192,135410,1,0,0:0:0:0:
448,192,135410,1,0,0:0:0:0:
320,192,135517,1,0,0:0:0:0:
64,192,135624,1,0,0:0:0:0:
192,192,135624,1,0,0:0:0:0:
64,192,135838,1,0,0:0:0:0:
192,192,135838,1,0,0:0:0:0:
192,192,136053,1,0,0:0:0:0:
448,192,136053,1,0,0:0:0:0:
320,192,136374,1,0,0:0:0:0:
192,192,136481,1,0,0:0:0:0:
192,192,136696,1,0,0:0:0:0:
448,192,136696,1,0,0:0:0:0:
64,192,136910,1,0,0:0:0:0:
192,192,136910,1,0,0:0:0:0:
320,192,137124,1,0,0:0:0:0:
448,192,137124,1,0,0:0:0:0:
64,192,137338,1,0,0:0:0:0:
192,192,137338,1,0,0:0:0:0:
64,192,137767,1,0,0:0:0:0:
192,192,137767,1,0,0:0:0:0:
320,192,138088,1,0,0:0:0:0:
64,192,138196,1,0,0:0:0:0:
192,192,138196,1,0,0:0:0:0:
192,192,138303,1,0,0:0:0:0:
192,192,138517,1,0,0:0:0:0:
64,192,138731,1,0,0:0:0:0:
320,192,138838,1,0,0:0:0:0:
448,192,138838,1,0,0:0:0:0:
320,192,138946,1,0,0:0:0:0:
64,192,139053,1,0,0:0:0:0:
192,192,139053,1,0,0:0:0:0:
320,192,139160,1,0,0:0:0:0:
64,192,139267,1,0,0:0:0:0:
192,192,139267,1,0,0:0:0:0:
64,192,139374,1,0,0:0:0:0:
192,192,139481,1,0,0:0:0:0:
448,192,139481,1,0,0:0:0:0:
320,192,139588,1,0,0:0:0:0:
64,192,139696,1,0,0:0:0:0:
320,192,139803,1,0,0:0:0:0:
192,192,139910,1,0,0:0:0:0:
320,0,139910,128,0,140124:1:0:0:0:
448,192,140124,1,0,0:0:0:0:
64,0,140124,128,0,140338:1:0:0:0:
192,192,140338,1,0,0:0:0:0:
448,0,140338,128,0,140553:1:0:0:0:
64,192,140553,1,0,0:0:0:0:
320,0,140553,128,0,140767:1:0:0:0:
64,192,140767,1,0,0:0:0:0:
192,0,140767,128,0,141196:1:0:0:0:
320,192,141196,1,0,0:0:0:0:
64,0,141196,128,0,141624:1:0:0:0:
192,192,141517,1,0,0:0:0:0:
320,192,141624,1,0,0:0:0:0:
448,192,141624,1,0,0:0:0:0:
320,192,141731,1,0,0:0:0:0:
320,192,141946,1,0,0:0:0:0:
448,192,142160,1,0,0:0:0:0:
64,192,142267,1,0,0:0:0:0:
192,192,142267,1,0,0:0:0:0:
192,192,142374,1,0,0:0:0:0:
320,192,142481,1,0,0:0:0:0:
448,192,142481,1,0,0:0:0:0:
320,192,142696,1,0,0:0:0:0:
448,192,142696,1,0,0:0:0:0:
64,192,142910,1,0,0:0:0:0:
320,192,142910,1,0,0:0:0:0:
192,192,143231,1,0,0:0:0:0:
320,192,143338,1,0,0:0:0:0:
64,192,143553,1,0,0:0:0:0:
320,192,143553,1,0,0:0:0:0:
64,192,143767,1,0,0:0:0:0:
192,192,143767,1,0,0:0:0:0:
320,192,143981,1,0,0:0:0:0:
448,192,143981,1,0,0:0:0:0:
64,192,144196,1,0,0:0:0:0:
192,192,144196,1,0,0:0:0:0:
320,192,144517,1,0,0:0:0:0:
64,192,144624,1,0,0:0:0:0:
192,192,144624,1,0,0:0:0:0:
320,192,144946,1,0,0:0:0:0:
448,192,144946,1,0,0:0:0:0:
64,192,145053,1,0,0:0:0:0:
192,192,145053,1,0,0:0:0:0:
192,192,145160,1,0,0:0:0:0:
192,192,145374,1,0,0:0:0:0:
64,192,145588,1,0,0:0:0:0:
320,192,145696,1,0,0:0:0:0:
448,192,145696,1,0,0:0:0:0:
320,192,145803,1,0,0:0:0:0:
64,192,145910,1,0,0:0:0:0:
192,192,145910,1,0,0:0:0:0:
320,192,146124,1,0,0:0:0:0:
192,192,146231,1,0,0:0:0:0:
448,192,146338,1,0,0:0:0:0:
448,192,146446,1,0,0:0:0:0:
64,192,146553,1,0,0:0:0:0:
64,192,146660,1,0,0:0:0:0:
320,192,146767,1,0,0:0:0:0:
192,192,146981,1,0,0:0:0:0:
448,192,146981,1,0,0:0:0:0:
64,192,147196,1,0,0:0:0:0:
192,192,147196,1,0,0:0:0:0:
320,192,147410,1,0,0:0:0:0:
448,192,147410,1,0,0:0:0:0:
64,192,147624,1,0,0:0:0:0:
192,192,147624,1,0,0:0:0:0:
320,192,147838,1,0,0:0:0:0:
64,192,147946,1,0,0:0:0:0:
192,192,147946,1,0,0:0:0:0:
320,192,148267,1,0,0:0:0:0:
448,192,148267,1,0,0:0:0:0:
192,192,148481,1,0,0:0:0:0:
64,192,148588,1,0,0:0:0:0:
320,192,148588,1,0,0:0:0:0:
192,192,148696,1,0,0:0:0:0:
320,192,148803,1,0,0:0:0:0:
64,192,148910,1,0,0:0:0:0:
448,192,148910,1,0,0:0:0:0:
64,192,149017,1,0,0:0:0:0:
320,192,149124,1,0,0:0:0:0:
448,192,149124,1,0,0:0:0:0:
320,192,149231,1,0,0:0:0:0:
64,192,149338,1,0,0:0:0:0:
192,192,149338,1,0,0:0:0:0:
64,192,149553,1,0,0:0:0:0:
192,192,149553,1,0,0:0:0:0:
192,192,149767,1,0,0:0:0:0:
448,192,149767,1,0,0:0:0:0:
320,192,149981,1,0,0:0:0:0:
192,192,150088,1,0,0:0:0:0:
192,192,150196,1,0,0:0:0:0:
192,192,150410,1,0,0:0:0:0:
448,192,150410,1,0,0:0:0:0:
64,192,150624,1,0,0:0:0:0:
192,192,150624,1,0,0:0:0:0:
320,192,150838,1,0,0:0:0:0:
448,192,150838,1,0,0:0:0:0:
64,192,151053,1,0,0:0:0:0:
192,192,151053,1,0,0:0:0:0:
320,192,151267,1,0,0:0:0:0:
64,192,151481,1,0,0:0:0:0:
192,192,151481,1,0,0:0:0:0:
320,192,151696,1,0,0:0:0:0:
192,192,151803,1,0,0:0:0:0:
64,192,151910,1,0,0:0:0:0:
192,192,151910,1,0,0:0:0:0:
320,192,152017,1,0,0:0:0:0:
448,192,152017,1,0,0:0:0:0:
192,192,152124,1,0,0:0:0:0:
448,192,152124,1,0,0:0:0:0:
64,192,152231,1,0,0:0:0:0:
192,192,152231,1,0,0:0:0:0:
64,192,152338,1,0,0:0:0:0:
320,192,152338,1,0,0:0:0:0:
320,192,152446,1,0,0:0:0:0:
192,192,152553,1,0,0:0:0:0:
448,192,152553,1,0,0:0:0:0:
448,192,152660,1,0,0:0:0:0:
64,192,152767,1,0,0:0:0:0:
192,192,152767,1,0,0:0:0:0:
64,192,152981,1,0,0:0:0:0:
192,192,152981,1,0,0:0:0:0:
192,192,153196,1,0,0:0:0:0:
448,192,153196,1,0,0:0:0:0:
320,192,153410,1,0,0:0:0:0:
192,192,153517,1,0,0:0:0:0:
192,192,153624,1,0,0:0:0:0:
192,192,153838,1,0,0:0:0:0:
448,192,153838,1,0,0:0:0:0:
64,192,154053,1,0,0:0:0:0:
192,192,154053,1,0,0:0:0:0:
320,192,154267,1,0,0:0:0:0:
448,192,154267,1,0,0:0:0:0:
192,0,154374,128,0,154428:1:0:0:0:
64,192,154481,1,0,0:0:0:0:
320,192,154481,1,0,0:0:0:0:
448,192,154696,1,0,0:0:0:0:
320,192,154803,1,0,0:0:0:0:
64,192,154910,1,0,0:0:0:0:
192,192,154910,1,0,0:0:0:0:
64,192,155071,1,0,0:0:0:0:
64,192,155231,1,0,0:0:0:0:
320,192,155231,1,0,0:0:0:0:
192,192,155312,1,0,0:0:0:0:
448,192,155312,1,0,0:0:0:0:
64,192,155392,1,0,0:0:0:0:
320,192,155392,1,0,0:0:0:0:
64,192,155553,1,0,0:0:0:0:
320,192,155553,1,0,0:0:0:0:
64,192,155713,1,0,0:0:0:0:
320,192,155713,1,0,0:0:0:0:
320,192,155874,1,0,0:0:0:0:
448,192,155874,1,0,0:0:0:0:
64,192,155981,1,0,0:0:0:0:
192,192,155981,1,0,0:0:0:0:
320,192,156035,1,0,0:0:0:0:
448,192,156035,1,0,0:0:0:0:
192,192,156196,1,0,0:0:0:0:
320,192,156196,1,0,0:0:0:0:
448,192,156196,1,0,0:0:0:0:
192,192,156356,1,0,0:0:0:0:
192,192,156517,1,0,0:0:0:0:
320,192,156517,1,0,0:0:0:0:
192,192,156660,1,0,0:0:0:0:
448,192,156660,1,0,0:0:0:0:
64,192,156731,1,0,0:0:0:0:
320,192,156731,1,0,0:0:0:0:
192,192,156838,1,0,0:0:0:0:
320,192,156972,1,0,0:0:0:0:
448,192,156972,1,0,0:0:0:0:
64,192,157053,1,0,0:0:0:0:
320,192,157053,1,0,0:0:0:0:
192,192,157160,1,0,0:0:0:0:
320,192,157267,1,0,0:0:0:0:
448,192,157267,1,0,0:0:0:0:
448,192,157374,1,0,0:0:0:0:
64,192,157481,1,0,0:0:0:0:
192,192,157481,1,0,0:0:0:0:
192,192,157615,1,0,0:0:0:0:
64,192,157696,1,0,0:0:0:0:
320,192,157696,1,0,0:0:0:0:
448,192,157696,1,0,0:0:0:0:
320,192,157803,1,0,0:0:0:0:
64,192,157963,1,0,0:0:0:0:
192,192,157963,1,0,0:0:0:0:
320,0,158017,128,0,159874:1:0:0:0:
448,192,159874,1,0,0:0:0:0:
320,192,160196,1,0,0:0:0:0:
64,192,160338,1,0,0:0:0:0:
192,192,160481,1,0,0:0:0:0:
192,192,160838,1,0,0:0:0:0:
448,192,161160,1,0,0:0:0:0:
192,192,161374,1,0,0:0:0:0:
320,192,161696,1,0,0:0:0:0:
320,192,162017,1,0,0:0:0:0:
320,192,162338,1,0,0:0:0:0:
192,192,162660,1,0,0:0:0:0:
64,192,162981,1,0,0:0:0:0:
192,192,163088,1,0,0:0:0:0:
320,192,163160,1,0,0:0:0:0:
448,192,163303,1,0,0:0:0:0:
448,192,163624,1,0,0:0:0:0:
64,192,163731,1,0,0:0:0:0:
192,192,163946,1,0,0:0:0:0:
320,192,164267,1,0,0:0:0:0:
448,192,164588,1,0,0:0:0:0:
64,192,164803,1,0,0:0:0:0:
320,192,164803,1,0,0:0:0:0:
192,192,165124,1,0,0:0:0:0:
64,192,165446,1,0,0:0:0:0:
192,192,165767,1,0,0:0:0:0:
320,192,166088,1,0,0:0:0:0:
320,192,166410,1,0,0:0:0:0:
448,192,166517,1,0,0:0:0:0:
192,192,166731,1,0,0:0:0:0:
448,192,167053,1,0,0:0:0:0:
64,192,167160,1,0,0:0:0:0:
320,192,167374,1,0,0:0:0:0:
320,192,167696,1,0,0:0:0:0:
448,192,168017,1,0,0:0:0:0:
64,192,168231,1,0,0:0:0:0:
320,192,168231,1,0,0:0:0:0:
192,192,168553,1,0,0:0:0:0:
192,192,168874,1,0,0:0:0:0:
192,192,169196,1,0,0:0:0:0:
64,192,169517,1,0,0:0:0:0:
64,192,169838,1,0,0:0:0:0:
448,192,169946,1,0,0:0:0:0:
192,192,170160,1,0,0:0:0:0:
320,192,170481,1,0,0:0:0:0:
64,192,170588,1,0,0:0:0:0:
320,192,170803,1,0,0:0:0:0:
320,192,171124,1,0,0:0:0:0:
192,192,171446,1,0,0:0:0:0:
320,192,171660,1,0,0:0:0:0:
448,192,171660,1,0,0:0:0:0:
64,192,171981,1,0,0:0:0:0:
64,192,172303,1,0,0:0:0:0:
192,192,172624,1,0,0:0:0:0:
192,192,172946,1,0,0:0:0:0:
192,192,173267,1,0,0:0:0:0:
320,192,173374,1,0,0:0:0:0:
448,192,173588,1,0,0:0:0:0:
192,192,173910,1,0,0:0:0:0:
64,192,174017,1,0,0:0:0:0:
320,192,174231,1,0,0:0:0:0:
192,192,174553,1,0,0:0:0:0:
448,192,174874,1,0,0:0:0:0:
64,192,175088,1,0,0:0:0:0:
320,192,175088,1,0,0:0:0:0:
448,192,175088,1,0,0:0:0:0:
192,192,175410,1,0,0:0:0:0:
192,192,175731,1,0,0:0:0:0:
192,192,176053,1,0,0:0:0:0:
64,192,176374,1,0,0:0:0:0:
448,192,176696,1,0,0:0:0:0:
192,192,176803,1,0,0:0:0:0:
448,192,177017,1,0,0:0:0:0:
192,192,177338,1,0,0:0:0:0:
64,0,177338,128,0,177481:1:0:0:0:
320,192,177660,1,0,0:0:0:0:
192,0,177660,128,0,177803:1:0:0:0:
192,192,177981,1,0,0:0:0:0:
448,0,177981,128,0,178124:1:0:0:0:
320,192,178303,1,0,0:0:0:0:
64,192,178517,1,0,0:0:0:0:
320,192,178517,1,0,0:0:0:0:
448,192,178517,1,0,0:0:0:0:
192,192,178838,1,0,0:0:0:0:
448,192,179160,1,0,0:0:0:0:
192,192,179481,1,0,0:0:0:0:
64,192,179803,1,0,0:0:0:0:
64,192,180124,1,0,0:0:0:0:
448,192,180231,1,0,0:0:0:0:
192,192,180446,1,0,0:0:0:0:
192,192,180731,1,0,0:0:0:0:
64,192,180874,1,0,0:0:0:0:
320,192,181088,1,0,0:0:0:0:
448,192,181410,1,0,0:0:0:0:
192,192,181731,1,0,0:0:0:0:
192,192,181946,1,0,0:0:0:0:
320,192,181946,1,0,0:0:0:0:
448,192,181946,1,0,0:0:0:0:
64,192,182267,1,0,0:0:0:0:
64,192,182588,1,0,0:0:0:0:
64,192,182910,1,0,0:0:0:0:
64,192,183231,1,0,0:0:0:0:
192,192,183553,1,0,0:0:0:0:
448,192,183660,1,0,0:0:0:0:
64,192,183874,1,0,0:0:0:0:
192,192,183874,1,0,0:0:0:0:
320,192,184196,1,0,0:0:0:0:
64,192,184303,1,0,0:0:0:0:
320,192,184517,1,0,0:0:0:0:
448,192,184838,1,0,0:0:0:0:
192,192,185160,1,0,0:0:0:0:
64,192,185374,1,0,0:0:0:0:
320,192,185374,1,0,0:0:0:0:
320,192,185696,1,0,0:0:0:0:
64,192,186017,1,0,0:0:0:0:
64,192,186338,1,0,0:0:0:0:
192,192,186660,1,0,0:0:0:0:
192,192,186981,1,0,0:0:0:0:
320,192,187088,1,0,0:0:0:0:
448,192,187303,1,0,0:0:0:0:
320,192,187624,1,0,0:0:0:0:
64,192,187731,1,0,0:0:0:0:
192,192,187946,1,0,0:0:0:0:
192,192,188267,1,0,0:0:0:0:
320,192,188588,1,0,0:0:0:0:
64,192,188803,1,0,0:0:0:0:
320,192,188803,1,0,0:0:0:0:
192,192,189124,1,0,0:0:0:0:
192,192,189446,1,0,0:0:0:0:
192,192,189767,1,0,0:0:0:0:
64,192,190088,1,0,0:0:0:0:
192,192,190410,1,0,0:0:0:0:
320,192,190517,1,0,0:0:0:0:
64,192,190731,1,0,0:0:0:0:
320,192,190731,1,0,0:0:0:0:
448,192,191053,1,0,0:0:0:0:
320,192,191160,1,0,0:0:0:0:
64,192,191374,1,0,0:0:0:0:
192,192,191374,1,0,0:0:0:0:
320,192,191696,1,0,0:0:0:0:
320,192,192017,1,0,0:0:0:0:
64,192,192231,1,0,0:0:0:0:
192,192,192231,1,0,0:0:0:0:
448,192,192231,1,0,0:0:0:0:
320,192,192553,1,0,0:0:0:0:
192,192,192874,1,0,0:0:0:0:
192,192,193196,1,0,0:0:0:0:
64,192,193517,1,0,0:0:0:0:
192,192,193838,1,0,0:0:0:0:
448,192,193946,1,0,0:0:0:0:
320,192,194160,1,0,0:0:0:0:
448,192,194160,1,0,0:0:0:0:
192,192,194481,1,0,0:0:0:0:
320,192,194803,1,0,0:0:0:0:
192,192,195124,1,0,0:0:0:0:
448,192,195446,1,0,0:0:0:0:
64,192,195660,1,0,0:0:0:0:
320,192,195660,1,0,0:0:0:0:
192,192,195981,1,0,0:0:0:0:
192,192,196303,1,0,0:0:0:0:
64,192,196624,1,0,0:0:0:0:
64,192,196946,1,0,0:0:0:0:
448,192,197267,1,0,0:0:0:0:
192,192,197374,1,0,0:0:0:0:
192,192,197588,1,0,0:0:0:0:
448,192,197910,1,0,0:0:0:0:
64,192,198017,1,0,0:0:0:0:
64,192,198231,1,0,0:0:0:0:
320,192,198553,1,0,0:0:0:0:
192,192,198874,1,0,0:0:0:0:
64,192,199088,1,0,0:0:0:0:
320,192,199088,1,0,0:0:0:0:
192,192,199410,1,0,0:0:0:0:
320,192,199731,1,0,0:0:0:0:
192,192,200053,1,0,0:0:0:0:
320,192,200374,1,0,0:0:0:0:
320,192,200696,1,0,0:0:0:0:
448,192,200803,1,0,0:0:0:0:
192,192,201017,1,0,0:0:0:0:
448,192,201338,1,0,0:0:0:0:
64,192,201446,1,0,0:0:0:0:
448,192,201660,1,0,0:0:0:0:
448,192,201981,1,0,0:0:0:0:
192,192,202303,1,0,0:0:0:0:
64,192,202517,1,0,0:0:0:0:
320,192,202517,1,0,0:0:0:0:
448,192,202838,1,0,0:0:0:0:
192,192,203160,1,0,0:0:0:0:
192,192,203481,1,0,0:0:0:0:
192,192,203803,1,0,0:0:0:0:
320,192,204124,1,0,0:0:0:0:
448,0,204231,128,0,212338:1:0:0:0:
320,192,204767,1,0,0:0:0:0:
64,192,204874,1,0,0:0:0:0:
64,0,205088,128,0,212338:1:0:0:0:
