osu file format v14

[General]
AudioFilename: audio.mp3
AudioLeadIn: 0
PreviewTime: 49981
Countdown: 0
SampleSet: Soft
StackLeniency: 0.2
Mode: 0
LetterboxInBreaks: 0
WidescreenStoryboard: 1

[Editor]
Bookmarks: 16720,33416,52198,85590,102285,118981,137764,171155,189988,206633,240025,256720,272372
DistanceSpacing: 1
BeatDivisor: 8
GridSize: 16
TimelineZoom: 8

[Metadata]
Title:Last Surf Holiday (Night Tempo Edit)
TitleUnicode:最後のサーフホリデー (Night Tempo Edit)
Artist:Anri
ArtistUnicode:杏里
Creator:Net0
Version:Extra
Source:
Tags:owc2022gfdt4 川嶋栄子 kawashima eiko nightempo 1988 2020 80's 2020's city pop jpop j-pop soul synthwave woogie vaporwave vintage for life records japanese kauan my favorite songs 2 myfavoritesongs2 boogie woogie mainland sibeb therapy nighttempo small circles high cs grid mapping oldstyle yasuharu ogura
BeatmapID:3890628
BeatmapSetID:1889079

[Difficulty]
HPDrainRate:5
CircleSize:5
OverallDifficulty:8
ApproachRate:8
SliderMultiplier:2.4
SliderTickRate:1

[Events]
//Background and Video events
0,0,"lastsummer.png",0,0
//Break Periods
//Storyboard Layer 0 (Background)
//Storyboard Layer 1 (Fail)
//Storyboard Layer 2 (Pass)
//Storyboard Layer 3 (Foreground)
//Storyboard Layer 4 (Overlay)
//Storyboard Sound Samples

[TimingPoints]
65,521.739130434783,4,2,1,40,1,0
65,-100,4,2,1,40,0,0
14673,-400,4,2,1,80,0,0
16760,-100,4,2,1,60,0,0
33456,-76.9230769230769,4,2,1,60,0,0
34499,-100,4,2,1,60,0,0
41804,-76.9230769230769,4,2,1,60,0,0
42847,-100,4,2,1,60,0,0
45978,-103.092783505155,4,2,1,60,0,0
48065,-100,4,2,1,60,0,0
51717,-400,4,2,1,60,0,0
52238,-100,4,2,1,80,0,0
59543,-50,4,2,1,80,0,0
59804,-125,4,2,1,80,0,0
60065,-50,4,2,1,80,0,0
60325,-125,4,2,1,80,0,0
60586,-100,4,2,1,80,0,0
76238,-50,4,2,1,80,0,0
76499,-125,4,2,1,80,0,0
76760,-50,4,2,1,80,0,0
77020,-125,4,2,1,80,0,0
77281,-100,4,2,1,80,0,0
84325,-41.1522633744856,4,2,1,80,0,0
84586,-84.0336134453781,4,2,1,80,0,0
85108,-500,4,2,1,80,0,0
85630,-100,4,2,1,70,0,0
91891,-303.030303030303,4,2,1,70,0,0
92934,-100,4,2,1,70,0,0
100238,-303.030303030303,4,2,1,70,0,0
101281,-100,4,2,1,70,0,0
101804,-151.515151515152,4,2,1,70,0,0
102325,-100,4,2,1,60,0,0
105978,-81.3008130081301,4,2,1,60,0,0
106499,-100,4,2,1,60,0,0
116934,-86.2068965517241,4,2,1,60,0,0
117978,-100,4,2,1,60,0,0
119021,-75.187969924812,4,2,1,60,0,0
120064,-100,4,2,1,60,0,0
127369,-75.187969924812,4,2,1,60,0,0
128412,-100,4,2,1,60,0,0
129456,-133.333333333333,4,2,1,60,0,0
129717,-100,4,2,1,60,0,0
129978,-133.333333333333,4,2,1,60,0,0
130238,-100,4,2,1,60,0,0
132586,-103.092783505155,4,2,1,60,0,0
133630,-66.6666666666667,4,2,1,60,0,0
134151,-100,4,2,1,60,0,0
135325,-66.6666666666667,4,2,1,60,0,0
135586,-100,4,2,1,60,0,0
137282,-400,4,2,1,60,0,0
137804,-90.9090909090909,4,2,1,80,0,0
145108,-45.4545454545455,4,2,1,80,0,0
145369,-111.111111111111,4,2,1,80,0,0
145630,-45.4545454545455,4,2,1,80,0,0
145891,-111.111111111111,4,2,1,80,0,0
146151,-90.9090909090909,4,2,1,80,0,0
161804,-45.4545454545455,4,2,1,80,0,0
162065,-111.111111111111,4,2,1,80,0,0
162325,-45.4545454545455,4,2,1,80,0,0
162586,-111.111111111111,4,2,1,80,0,0
162847,-90.9090909090909,4,2,1,80,0,0
169891,-41.1522633744856,4,2,1,80,0,0
170151,-84.0336134453781,4,2,1,80,0,0
170673,-92.5925925925926,4,2,1,80,0,0
171195,-100,4,2,1,80,0,0
173282,-66.6666666666667,4,2,1,80,0,0
174065,-39.2156862745098,4,2,1,80,0,0
174325,-41.8410041841004,4,2,1,80,0,0
175630,-66.2251655629139,4,2,1,80,0,0
176021,-54.9450549450549,4,2,1,80,0,0
176412,-49.0196078431373,4,2,1,80,0,0
177195,-66.6666666666667,4,2,1,80,0,0
178108,-78.125,4,2,1,80,0,0
178499,-52.9100529100529,4,2,1,80,0,0
179021,-82.6446280991736,4,2,1,80,0,0
179543,-62.111801242236,4,2,1,80,0,0
180325,-55.5555555555556,4,2,1,80,0,0
180586,-82.6446280991736,4,2,1,80,0,0
181891,-92.5925925925926,4,2,1,80,0,0
182412,-70.9219858156028,4,2,1,80,0,0
183195,-62.111801242236,4,2,1,80,0,0
184369,-70.9219858156028,4,2,1,80,0,0
185282,-52.3560209424084,4,2,1,80,0,0
185543,-57.1428571428571,4,2,1,80,0,0
186195,-76.3358778625954,4,2,1,80,0,0
186847,-59.5238095238095,4,2,1,80,0,0
187238,-49.0196078431373,4,2,1,80,0,0
187630,-76.3358778625954,4,2,1,80,0,0
187891,-66.6666666666667,4,2,1,80,0,0
188412,-42.5531914893617,4,2,1,80,0,0
188934,-66.6666666666667,4,2,1,80,0,0
189717,-88.4955752212389,4,2,1,60,0,0
191021,-100,4,2,1,60,0,0
194151,-85.4700854700855,4,2,1,60,0,0
194673,-100,4,2,1,60,0,0
198847,-86.2068965517241,4,2,1,60,0,0
199891,-100,4,2,1,60,0,0
202499,-85.4700854700855,4,2,1,60,0,0
203021,-100,4,2,1,60,0,0
206151,-400,4,2,1,60,0,0
206673,-83.3333333333333,4,2,1,80,0,0
213978,-41.6666666666667,4,2,1,80,0,0
214238,-100,4,2,1,80,0,0
214499,-41.6666666666667,4,2,1,80,0,0
214760,-100,4,2,1,80,0,0
215021,-83.3333333333333,4,2,1,80,0,0
230673,-41.6666666666667,4,2,1,80,0,0
230934,-100,4,2,1,80,0,0
231195,-41.6666666666667,4,2,1,80,0,0
231455,-100,4,2,1,80,0,0
231716,-83.3333333333333,4,2,1,80,0,0
238760,-41.1522633744856,4,2,1,80,0,0
239021,-84.0336134453781,4,2,1,80,0,0
239543,-666.666666666667,4,2,1,80,0,0
240065,-111.111111111111,4,2,1,50,0,0
256760,-125,4,2,1,45,0,0
258847,-142.857142857143,4,2,1,40,0,0
260934,-166.666666666667,4,2,1,35,0,0
263021,-200,4,2,1,30,0,0
265108,-250,4,2,1,25,0,0
267195,-333.333333333333,4,2,1,20,0,0
269282,-500,4,2,1,15,0,0
271369,-1000,4,2,1,10,0,0
272412,-1000,4,2,1,5,0,0

[Colours]
Combo1 : 223,178,187
Combo2 : 69,78,117
Combo3 : 126,76,124
Combo4 : 221,145,76
Combo5 : 238,189,117

[HitObjects]
256,192,65,5,2,0:0:0:0:
256,192,325,1,2,0:0:0:0:
256,192,586,1,2,0:0:0:0:
256,192,847,1,2,0:0:0:0:
256,128,1108,1,2,0:0:0:0:
256,128,1238,1,2,0:3:0:0:
256,256,1499,1,2,0:0:0:0:
256,256,1629,1,2,0:3:0:0:
192,192,1891,1,2,0:0:0:0:
192,192,2021,1,2,0:0:0:0:
192,192,2151,1,2,0:3:0:0:
256,128,2543,1,2,0:0:0:0:
256,128,2673,1,2,0:3:0:0:
256,256,2934,1,2,0:0:0:0:
256,128,3195,1,2,0:0:0:0:
320,192,3456,1,2,0:0:0:0:
320,192,3586,1,2,0:0:0:0:
320,192,3716,1,2,0:3:0:0:
192,192,3978,1,2,0:0:0:0:
192,192,4108,1,2,0:0:0:0:
192,192,4238,1,2,0:3:0:0:
64,192,4760,1,2,0:0:0:0:
448,192,5282,1,2,0:0:0:0:
192,192,5804,1,2,0:0:0:0:
320,192,6065,1,2,0:0:0:0:
320,192,6195,1,2,0:0:0:0:
320,192,6325,1,2,0:3:0:0:
448,192,6847,1,2,0:0:0:0:
64,192,7369,1,2,0:0:0:0:
192,192,7630,1,2,0:0:0:0:
192,192,7760,1,2,0:0:0:0:
192,192,7890,1,2,0:3:0:0:
320,192,8151,1,2,0:0:0:0:
320,192,8281,1,2,0:0:0:0:
320,192,8411,1,2,0:3:0:0:
256,128,8673,1,2,0:0:0:0:
192,192,8934,1,2,0:0:0:0:
320,192,9195,1,2,0:0:0:0:
256,256,9456,1,2,0:0:0:0:
256,256,9586,1,2,0:3:0:0:
256,128,9847,1,2,0:0:0:0:
256,128,9977,1,2,0:3:0:0:
320,192,10239,1,2,0:0:0:0:
320,192,10369,1,2,0:0:0:0:
320,192,10499,1,2,0:3:0:0:
256,192,10630,12,0,12456,0:0:0:0:
160,48,12586,5,2,0:0:0:0:
320,112,13108,1,2,0:0:0:0:
160,176,13630,1,2,0:0:0:0:
320,240,14151,1,2,0:0:0:0:
128,368,14673,5,0,3:0:0:0:
224,336,14804,1,2,0:3:0:0:
160,304,14934,1,2,0:3:0:0:
352,304,15195,5,0,3:0:0:0:
256,272,15326,1,2,0:3:0:0:
320,240,15456,1,2,0:3:0:0:
128,240,15717,5,0,3:0:0:0:
224,208,15848,1,2,0:3:0:0:
160,176,15978,1,2,0:3:0:0:
320,112,16238,6,0,L|320:80,1,30,8|0,0:2|0:0,0:0:0:0:
320,82,16760,6,0,B|240:82|240:82|224:82|224:98|224:98|224:172,1,180,0|2,3:0|3:0,0:0:0:0:
160,172,17282,2,0,L|160:108,2,60,8|0|2,3:2|0:0|0:3,0:0:0:0:
160,16,17673,1,0,0:0:0:0:
256,16,17804,2,0,L|316:16,2,60,0|2|2,3:0|0:2|0:3,0:0:0:0:
160,16,18195,1,2,0:2:0:0:
64,16,18325,1,8,3:2:0:0:
80,308,18586,2,0,L|80:368,1,60,2|2,0:3|0:2,0:0:0:0:
80,240,18847,6,0,B|144:240|144:240|160:240|160:256|160:256|160:288,1,120,0|2,3:0|0:2,0:0:0:0:
80,368,19238,1,2,3:0:0:0:
161,367,19369,2,0,B|225:367|225:367|241:367|241:351|241:351|241:319,1,120,8|2,3:2|0:3,0:0:0:0:
239,239,19760,1,0,0:0:0:0:
320,240,19891,2,0,B|320:192|320:192|320:176|304:176|304:176|272:176|272:176|256:176|256:160|256:160|256:112,1,180,0|2,3:0|0:2,0:0:0:0:
320,320,20412,2,0,B|368:320|368:320|384:320|384:336|384:336|384:368|384:368|384:384|400:384|400:384|448:384,1,180,8|2,3:2|0:2,0:0:0:0:
512,112,20934,6,0,L|512:52,2,60,0|2|2,3:0|0:2|0:2,0:0:0:0:
512,208,21325,1,2,3:0:0:0:
448,240,21456,2,0,L|448:300,2,60,8|0|2,3:2|0:0|0:3,0:0:0:0:
448,144,21847,1,0,0:0:0:0:
448,48,21978,2,0,B|400:48|400:48|384:48|384:64|384:64|384:96|384:96|384:112|368:112|368:112|320:112,1,180,0|2,3:0|0:2,0:0:0:0:
192,112,22499,2,0,B|240:112|240:112|256:112|256:96|256:96|256:64|256:64|256:48|272:48|272:48|320:48,1,180,8|2,3:2|0:2,0:0:0:0:
128,112,23021,5,0,3:0:0:0:
128,48,23151,1,2,0:2:0:0:
192,48,23282,1,2,0:2:0:0:
64,304,23543,2,0,B|144:304|144:304|192:304|192:256|192:256|192:173,1,240,10|0,3:2|3:0,0:0:0:0:
128,176,24195,1,2,0:2:0:0:
128,240,24325,1,2,0:3:0:0:
64,240,24456,1,2,0:3:0:0:
64,176,24586,1,10,3:2:0:0:
176,368,24847,2,0,L|236:368,1,60,2|0,0:3|0:0,0:0:0:0:
416,302,25108,6,0,B|336:302|336:302|320:302|320:286|320:286|320:212,1,180,0|2,3:0|3:0,0:0:0:0:
256,212,25630,2,0,L|256:276,2,60,8|0|2,3:2|0:0|0:3,0:0:0:0:
256,368,26021,1,0,0:0:0:0:
352,368,26152,2,0,L|412:368,2,60,0|2|2,3:0|0:2|0:3,0:0:0:0:
256,368,26543,1,2,0:2:0:0:
160,368,26673,1,8,3:2:0:0:
384,240,26934,2,0,L|444:240,1,60,2|2,0:3|0:2,0:0:0:0:
512,240,27195,6,0,B|512:176|512:176|512:160|496:160|496:160|464:160,1,120,0|2,3:0|0:2,0:0:0:0:
384,160,27586,1,2,3:0:0:0:
384,80,27717,2,0,B|384:16|384:16|384:0|400:0|400:0|432:0,1,120,8|2,3:2|0:3,0:0:0:0:
512,0,28108,1,0,0:0:0:0:
512,80,28238,1,0,3:0:0:0:
320,240,28499,1,2,0:3:0:0:
320,160,28629,1,2,0:2:0:0:
320,80,28760,2,0,B|320:16|320:16|320:0|304:0|304:0|272:0,1,120,8|2,3:2|0:3,0:0:0:0:
144,160,29282,6,0,L|84:160,2,60,0|2|2,3:0|0:2|0:2,0:0:0:0:
320,160,29673,1,2,3:0:0:0:
288,96,29804,2,0,L|348:96,2,60,8|0|2,3:2|0:0|0:3,0:0:0:0:
112,96,30195,1,0,0:0:0:0:
144,32,30325,2,0,B|192:32|192:32|208:32|208:48|208:48|208:154,1,180,0|2,3:0|0:2,0:0:0:0:
144,346,30847,2,0,B|192:346|192:346|208:346|208:330|208:330|208:224,1,180,8|2,3:2|0:2,0:0:0:0:
144,280,31369,6,0,B|119:280|119:280|102:280|102:263|102:263|86:263|86:263|86:280|69:280|69:280|45:280,1,120,2|2,3:2|0:2,0:0:0:0:
304,224,31760,1,2,0:2:0:0:
368,280,31891,2,0,B|392:280|392:280|409:280|409:263|409:263|425:263|425:263|425:280|442:280|442:280|466:280,1,120,2|2,3:2|0:2,0:0:0:0:
208,224,32282,1,2,0:2:0:0:
183,160,32412,1,2,3:2:0:0:
160,96,32543,2,0,B|160:48|160:48|160:32|176:32|176:32|208:32|208:32|224:32|224:48|224:48|224:96,1,180,0|6,0:0|3:2,0:0:0:0:
448,240,33195,5,10,0:2:0:0:
480,176,33325,1,8,0:2:0:0:
512,112,33456,2,0,B|496:112|496:112|480:112|480:96|480:96|480:48|480:48|480:32|464:32|464:32|448:32|432:32|432:32|416:32|416:48|416:48|416:96|416:96|416:112|400:112|400:112|384:131|384:131|368:112|368:112|352:112|352:96|352:96|352:48|352:48|352:32|336:32|336:32|320:32|304:32|304:32|288:32|288:48|288:48|288:96|288:96|288:112|272:112|272:112|256:112,1,545.999975006105,4|2,3:2|0:2,0:0:0:0:
256,112,34499,2,0,L|196:112,1,60,0|2,3:0|0:2,0:0:0:0:
0,112,34760,2,0,L|0:52,1,60,2|2,0:3|0:2,0:0:0:0:
96,52,35021,2,0,L|96:112,1,60,8|0,3:2|0:0,0:0:0:0:
192,224,35282,2,0,L|132:224,1,60,2|0,0:3|0:0,0:0:0:0:
0,368,35543,6,0,B|48:368|48:368|64:368|64:352|64:352|64:320|64:320|64:304|80:304|80:304|128:304,1,180,4|2,3:2|0:2,0:0:0:0:
320,160,36065,2,0,B|272:160|272:160|256:160|256:176|256:176|256:208|256:208|256:224|240:224|240:224|192:224,1,180,8|2,3:2|0:2,0:0:0:0:
384,80,36587,2,0,B|432:80|432:80|448:80|448:64|448:64|448:32|448:32|448:16|464:16|464:16|512:16,1,180,0|2,3:0|0:2,0:0:0:0:
512,80,37108,1,8,3:2:0:0:
320,224,37369,1,2,0:3:0:0:
128,368,37630,5,4,3:2:0:0:
64,336,37760,1,2,0:2:0:0:
320,224,38021,5,2,0:2:0:0:
256,192,38151,1,8,3:2:0:0:
192,160,38412,1,2,0:3:0:0:
512,80,38673,5,0,3:0:0:0:
448,48,38803,1,2,0:2:0:0:
320,224,39065,5,2,0:2:0:0:
256,192,39195,1,8,3:2:0:0:
192,160,39456,1,2,0:3:0:0:
448,224,39717,6,0,B|448:288|448:288|448:304|432:304|432:304|400:304,1,120,4|2,3:2|0:3,0:0:0:0:
192,160,40108,1,2,0:2:0:0:
224,96,40238,2,0,L|284:96,1,60,8|0,3:2|0:0,0:0:0:0:
336,368,40630,1,2,0:2:0:0:
304,304,40761,2,0,L|244:304,2,60,2|0|2,3:2|0:0|3:2,0:0:0:0:
80,240,41151,1,0,0:0:0:0:
112,304,41282,2,0,L|172:304,2,60,6|0|10,3:2|0:0|0:2,0:0:0:0:
32,176,41673,1,8,0:2:0:0:
0,112,41804,6,0,B|16:112|16:112|32:112|32:96|32:96|32:48|32:48|32:32|48:32|48:32|64:32|80:32|80:32|96:32|96:48|96:48|96:96|96:96|96:112|112:112|112:112|128:131|128:131|144:112|144:112|160:112|160:96|160:96|160:48|160:48|160:32|176:32|176:32|192:32|208:32|208:32|224:32|224:48|224:48|224:96|224:96|224:112|240:112|240:112|256:112,1,545.999975006105,4|2,3:2|0:2,0:0:0:0:
256,112,42847,2,0,L|316:112,1,60,0|2,3:0|0:2,0:0:0:0:
512,112,43108,2,0,L|512:52,1,60,2|2,0:3|0:2,0:0:0:0:
416,52,43369,2,0,L|416:112,1,60,8|0,3:2|0:0,0:0:0:0:
320,224,43630,6,0,L|380:224,1,60,2|0,0:3|0:0,0:0:0:0:
512,272,43891,1,4,3:2:0:0:
188,176,44151,2,0,L|248:176,1,60,2|2,0:3|0:2,0:0:0:0:
380,224,44412,1,8,3:2:0:0:
56,128,44673,2,0,L|116:128,1,60,2|2,0:3|0:2,0:0:0:0:
248,176,44934,1,0,3:0:0:0:
192,320,45195,1,2,0:3:0:0:
256,320,45325,1,2,0:2:0:0:
128,320,45456,1,8,3:2:0:0:
128,320,45717,2,0,L|128:260,1,60,2|0,0:3|0:0,0:0:0:0:
128,192,45978,6,0,B|96:192|96:192|64:192|64:224|64:224|64:256,1,116.400002752991,2|2,3:0|0:2,0:0:0:0:
64,128,46369,1,2,0:2:0:0:
64,64,46499,2,0,B|96:64|96:64|128:64|128:96|128:96|128:128,1,116.400002752991,10|2,3:2|0:2,0:0:0:0:
256,128,46891,1,2,0:2:0:0:
192,128,47021,2,0,B|192:96|192:96|192:64|224:64|224:64|256:64,1,116.400002752991,2|2,3:0|0:2,0:0:0:0:
192,256,47412,1,2,0:2:0:0:
192,192,47542,2,0,B|224:192|224:192|256:192|256:224|256:224|256:256,1,116.400002752991,10|2,3:2|0:2,0:0:0:0:
128,256,47934,1,2,0:2:0:0:
64,256,48065,6,0,L|5:256,1,60,2|2,3:0|0:2,0:0:0:0:
4,128,48325,2,0,L|64:128,1,60,2|2,3:0|0:2,0:0:0:0:
176,192,48586,2,0,L|-4:192,1,180,8|2,0:2|0:2,0:0:0:0:
336,192,49108,2,0,L|516:192,1,180,0|2,3:0|0:2,0:0:0:0:
383,128,49630,1,2,3:0:0:0:
336,192,49760,1,0,0:0:0:0:
336,192,50021,6,0,L|256:192,1,60,2|2,0:2|3:0,0:0:0:0:
98,201,50282,1,2,3:1:0:0:
162,281,50412,1,2,3:1:0:0:
161,281,50673,2,0,L|224:281,1,60,2|0,3:2|0:0,0:0:0:0:
92,361,50934,6,0,L|33:361,1,60,2|0,3:1|0:0,0:0:0:0:
32,272,51195,1,2,1:1:0:0:
32,272,51586,1,0,0:0:0:0:
32,192,51717,6,0,L|0:192,1,30,8|0,0:1|0:0,0:0:0:0:
0,112,52108,5,0,3:0:0:0:
64,48,52238,2,0,B|80:48|80:48|96:48|96:64|96:64|96:144,1,120,4|2,3:1|0:3,0:0:0:0:
64,272,52630,1,2,0:2:0:0:
128,336,52760,2,0,B|144:336|144:336|160:336|160:320|160:320|160:240,1,120,0|2,1:0|0:3,0:0:0:0:
224,84,53151,6,0,L|224:144,1,60,2|0,0:2|3:0,0:0:0:0:
288,224,53412,1,2,0:2:0:0:
352,160,53543,1,2,0:3:0:0:
352,64,53673,1,2,0:2:0:0:
288,0,53804,1,0,1:0:0:0:
464,240,54065,5,2,0:3:0:0:
496,304,54195,1,2,0:2:0:0:
464,368,54325,2,0,B|336:368|336:368|320:368|320:352|320:352|320:320,1,180,0|2,3:0|0:2,0:0:0:0:
304,160,54847,2,0,B|304:128|304:128|304:112|288:112|288:112|224:112|224:112|208:112|208:128|208:128|208:160,1,180,0|2,1:0|0:2,0:0:0:0:
192,325,55369,2,0,B|192:352|192:352|192:368|176:368|176:368|48:368,1,180,0|2,3:0|0:2,0:0:0:0:
144,272,55891,5,0,1:0:0:0:
208,256,56021,1,2,0:2:0:0:
256,304,56151,1,2,0:3:0:0:
304,256,56282,1,2,0:2:0:0:
368,272,56412,1,0,3:0:0:0:
256,208,56543,2,0,B|256:156|256:156|252:152|252:152|260:152|260:152|256:148|256:148|256:100,1,120,2|2,0:2|0:2,0:0:0:0:
256,16,56934,5,0,1:0:0:0:
96,48,57195,1,2,0:3:0:0:
96,240,57456,1,0,3:0:0:0:
96,144,57586,1,2,0:2:0:0:
192,144,57717,1,2,0:3:0:0:
192,240,57847,1,2,0:2:0:0:
144,192,57978,1,0,1:0:0:0:
300,192,58238,6,0,L|240:192,1,60,2|2,0:3|0:2,0:0:0:0:
144,192,58499,1,0,3:0:0:0:
456,192,58760,6,0,L|396:192,1,60,2|2,0:3|0:2,0:0:0:0:
300,192,59021,1,0,1:0:0:0:
48,192,59282,1,2,0:3:0:0:
256,368,59543,6,0,B|256:352|256:352|256:336|272:336|272:336|350:336,1,120,2|0,3:2|0:0,0:0:0:0:
464,336,59804,2,0,L|416:336,1,48,8|0,1:3|0:0,0:0:0:0:
142,208,60065,6,0,B|142:224|142:224|142:240|158:240|158:240|236:240,1,120,2|0,1:2|0:0,0:0:0:0:
350,240,60325,2,0,L|302:240,1,48,4|2,3:3|0:3,0:0:0:0:
30,112,60586,6,0,B|78:112|78:112|94:112|94:96|94:96|94:64|94:64|94:48|110:48|110:48|158:48,1,180,4|2,3:2|0:2,0:0:0:0:
314,144,61108,2,0,B|314:160|314:160|314:176|298:176|298:176|220:176,1,120,0|2,1:0|0:3,0:0:0:0:
254,48,61499,6,0,L|314:48,1,60,2|0,0:2|3:0,0:0:0:0:
397,96,61760,1,2,0:2:0:0:
461,160,61891,1,2,0:3:0:0:
461,256,62021,1,2,0:2:0:0:
397,320,62152,1,0,1:0:0:0:
176,224,62412,5,2,0:3:0:0:
128,272,62543,1,2,0:2:0:0:
80,320,62673,2,0,B|80:352|80:352|80:368|96:368|96:368|160:368|160:368|176:368|176:352|176:352|176:320,1,180,0|2,3:0|0:2,0:0:0:0:
240,160,63195,2,0,B|224:144|224:144|224:128|224:128|224:96|256:96|256:96|288:96|288:128|288:128|288:144|288:144|272:159,1,180,0|2,1:0|0:2,0:0:0:0:
336,320,63717,2,0,B|336:352|336:352|336:368|352:368|352:368|416:368|416:368|432:368|432:352|432:352|432:320,1,180,0|2,3:0|0:2,0:0:0:0:
384,272,64238,5,0,1:0:0:0:
320,240,64369,1,2,0:2:0:0:
288,176,64499,1,2,0:3:0:0:
224,176,64630,1,2,0:2:0:0:
192,240,64760,1,0,3:0:0:0:
256,272,64891,2,0,B|256:324|256:324|260:328|260:328|252:328|252:328|256:332|256:332|256:380,1,120,2|2,0:2|0:2,0:0:0:0:
128,272,65282,5,0,1:0:0:0:
128,144,65543,1,2,0:3:0:0:
384,144,65804,1,0,3:0:0:0:
384,272,66065,1,2,0:3:0:0:
320,240,66195,1,2,0:2:0:0:
256,208,66325,1,0,1:0:0:0:
256,144,66456,2,0,B|256:92|256:92|260:88|260:88|252:88|252:88|256:84|256:84|256:36,1,120,2|2,0:2|0:2,0:0:0:0:
78,61,66847,5,0,3:0:0:0:
434,195,67108,1,2,0:3:0:0:
71,192,67369,1,0,3:0:0:0:
39,256,67500,1,0,3:0:0:0:
71,320,67631,1,0,3:0:0:0:
103,256,67760,1,0,3:0:0:0:
71,192,67891,1,0,3:0:0:0:
39,128,68021,1,0,3:0:0:0:
71,64,68152,1,0,3:0:0:0:
103,128,68282,1,0,3:0:0:0:
71,192,68413,1,10,3:2:0:0:
480,272,68673,5,8,0:2:0:0:
416,144,68804,1,8,0:2:0:0:
480,192,68934,2,0,B|496:192|496:192|512:192|512:176|512:176|512:96,1,120,4|2,3:2|0:3,0:0:0:0:
416,32,69325,1,2,0:2:0:0:
329,96,69455,2,0,B|313:96|313:96|297:96|297:112|297:112|297:190,1,120,0|2,1:0|0:3,0:0:0:0:
198,250,69847,6,0,B|198:190,1,60,2|0,0:2|3:0,0:0:0:0:
297,267,70108,1,2,0:2:0:0:
241,329,70238,1,2,0:3:0:0:
156,329,70369,1,2,0:2:0:0:
100,267,70499,1,0,1:0:0:0:
16,144,70760,5,2,0:3:0:0:
0,80,70891,1,2,0:2:0:0:
16,16,71021,2,0,B|64:16|64:16|80:16|80:32|80:32|80:64|80:64|80:80|96:80|96:80|144:80,1,180,0|2,3:0|0:2,0:0:0:0:
352,144,71543,2,0,B|384:144|384:144|400:144|400:160|400:160|400:224|400:224|400:240|384:240|384:240|352:240,1,180,0|2,1:0|0:2,0:0:0:0:
144,304,72065,2,0,B|96:304|96:304|80:304|80:320|80:320|80:352|80:352|80:368|64:368|64:368|16:368,1,180,0|2,3:0|0:2,0:0:0:0:
16,304,72586,5,0,1:0:0:0:
32,240,72717,1,2,0:2:0:0:
16,176,72847,1,2,0:3:0:0:
32,112,72978,1,2,0:2:0:0:
16,48,73108,1,0,3:0:0:0:
80,176,73238,2,0,B|132:176|132:176|136:180|136:180|136:172|136:172|140:176|140:176|188:176,1,120,2|2,0:2|0:2,0:0:0:0:
272,176,73630,5,0,1:0:0:0:
16,48,73891,1,2,0:3:0:0:
304,240,74151,1,0,3:0:0:0:
368,224,74282,1,2,0:2:0:0:
416,176,74412,1,2,0:3:0:0:
368,128,74543,1,2,0:2:0:0:
304,112,74674,1,0,1:0:0:0:
400,288,74934,5,2,0:3:0:0:
320,304,75065,1,2,0:2:0:0:
464,224,75195,1,0,3:0:0:0:
400,64,75456,5,2,0:3:0:0:
320,48,75587,1,2,0:2:0:0:
464,128,75717,1,0,1:0:0:0:
236,328,75978,1,2,0:3:0:0:
236,328,76238,6,0,B|236:336|236:336|236:352|220:352|220:352|204:352|204:352|188:352|188:320|188:320|188:291,1,120,2|0,3:2|0:0,0:0:0:0:
188,128,76499,2,0,L|188:176,1,48,8|0,1:3|0:0,0:0:0:0:
32,277,76760,6,0,B|32:285|32:285|32:301|48:301|48:301|64:301|64:301|80:301|80:269|80:269|80:240,1,120,2|0,1:2|0:0,0:0:0:0:
80,76,77021,2,0,L|80:124,1,48,4|2,3:3|0:3,0:0:0:0:
208,256,77282,5,4,3:2:0:0:
256,208,77412,1,2,0:2:0:0:
304,160,77543,2,0,B|304:98|304:98|304:82|288:82|288:82|256:82|256:82,1,120,2|0,0:3|1:0,0:0:0:0:
144,80,77934,2,0,B|176:80|176:80|192:80|192:64|192:64|192:2,1,120,2|2,0:2|0:2,0:0:0:0:
264,9,78325,5,0,3:0:0:0:
352,32,78456,1,2,0:2:0:0:
400,112,78586,1,2,0:3:0:0:
400,208,78717,1,2,0:2:0:0:
352,288,78847,1,0,1:0:0:0:
16,288,79108,5,2,0:3:0:0:
64,336,79238,1,2,0:2:0:0:
128,368,79369,2,0,B|128:320|128:320|128:304|144:304|144:304|176:304|176:304|192:304|192:288|192:288|192:240,1,180,0|2,3:0|0:2,0:0:0:0:
224,95,79891,2,0,B|224:83|224:83|208:67|223:50|223:50|240:35|240:35|256:19|272:35|272:35|288:51|288:51|304:67|288:83|288:83|288:95,1,180,0|2,1:0|0:2,0:0:0:0:
320,240,80412,2,0,B|320:288|320:288|320:304|336:304|336:304|368:304|368:304|384:304|384:320|384:320|384:368,1,180,0|2,3:0|0:2,0:0:0:0:
384,240,80934,5,0,1:0:0:0:
384,176,81065,1,2,0:2:0:0:
320,176,81195,1,2,0:3:0:0:
256,176,81325,1,2,0:2:0:0:
256,240,81456,1,0,3:0:0:0:
320,112,81586,2,0,B|320:60|320:60|324:56|324:56|316:56|316:56|320:52|320:52|320:4,1,120,2|2,0:2|0:2,0:0:0:0:
320,240,81978,5,0,1:0:0:0:
448,112,82238,1,2,0:3:0:0:
192,240,82499,1,0,3:0:0:0:
64,112,82759,1,2,0:3:0:0:
64,240,83021,5,0,1:0:0:0:
128,176,83151,1,2,0:2:0:0:
192,112,83282,2,0,B|192:60|192:60|188:56|188:56|196:56|196:56|192:52|192:52|192:4,1,120,2|0,0:3|3:0,0:0:0:0:
384,208,83673,1,2,0:2:0:0:
320,272,83804,2,0,L|319:336,1,60,2|2,0:3|0:2,0:0:0:0:
192,272,84065,2,0,L|192:336,1,60,0|0,3:0|3:0,0:0:0:0:
16,192,84325,6,0,B|32:192|32:192|36:188|36:188|36:196|36:196|40:192|40:192|68:192|68:192|72:196|72:196|72:188|72:188|76:192|76:192|104:192|104:192|108:188|108:188|108:196|108:196|112:192|112:192|128:192,1,145.799999054489,0|0,3:0|3:0,0:0:0:0:
256,176,84586,6,0,B|288:176|288:176|304:176|304:192|304:192|304:208|288:208|288:208|256:208|224:208|224:208|208:208|208:192|208:192|208:176|224:176|224:176|240:176,1,214.199995751038,0|0,3:0|3:0,0:0:0:0:
441,176,85108,6,0,L|478:176,1,36,10|0,3:2|0:0,0:0:0:0:
478,176,85630,6,0,L|478:239,1,60,4|0,3:2|0:0,0:0:0:0:
480,304,85891,1,0,3:0:0:0:
416,272,86021,1,0,3:0:0:0:
480,336,86151,1,8,3:2:0:0:
480,336,86412,6,0,L|416:336,1,60,2|0,0:3|0:0,0:0:0:0:
336,112,86673,2,0,L|336:175,1,60,4|0,3:2|0:0,0:0:0:0:
338,240,86934,1,0,3:0:0:0:
274,208,87064,1,0,3:0:0:0:
338,272,87194,1,8,3:2:0:0:
338,272,87455,6,0,L|274:272,1,60,2|0,0:3|0:0,0:0:0:0:
480,48,87717,1,4,3:3:0:0:
480,48,87978,5,2,0:2:0:0:
416,48,88108,1,2,0:2:0:0:
352,48,88238,2,0,B|300:48|300:48|296:52|296:52|296:44|296:44|292:48|292:48|244:48,1,120,8|2,0:2|0:3,0:0:0:0:
176,48,88630,1,0,0:2:0:0:
112,48,88760,1,0,3:0:0:0:
112,112,88891,1,2,0:2:0:0:
112,176,89021,1,2,0:2:0:0:
48,240,89151,1,2,0:2:0:0:
112,240,89281,1,8,0:2:0:0:
112,304,89412,1,2,0:2:0:0:
112,368,89543,2,0,L|172:368,1,60,2|0,0:2|0:0,0:0:0:0:
192,272,89804,6,0,L|252:272,1,60,4|0,3:2|0:0,0:0:0:0:
304,224,90064,1,0,3:0:0:0:
356,176,90195,1,0,3:0:0:0:
320,304,90325,1,8,3:2:0:0:
320,304,90586,2,0,L|380:304,1,60,2|0,0:3|0:0,0:0:0:0:
304,224,90847,6,0,L|244:224,1,60,4|0,3:2|0:0,0:0:0:0:
192,176,91107,1,0,3:0:0:0:
144,128,91238,1,0,3:0:0:0:
176,256,91368,1,8,3:2:0:0:
176,256,91630,2,0,L|96:256,1,60,2|0,0:3|0:0,0:0:0:0:
0,192,91891,6,0,L|72:192,1,59.3999998187256,4|0,3:2|0:0,0:0:0:0:
224,192,92412,2,0,L|283:192,1,59.3999998187256,4|2,3:2|0:2,0:0:0:0:
452,192,92934,6,0,L|512:192,1,60,0|0,3:0|0:0,0:0:0:0:
389,111,93195,1,2,0:2:0:0:
367,192,93325,1,2,0:2:0:0:
345,273,93456,1,8,3:2:0:0:
172,90,93717,1,2,0:3:0:0:
145,192,93847,1,2,0:3:0:0:
117,293,93978,6,0,L|180:293,1,60,4|0,3:2|0:0,0:0:0:0:
245,295,94239,1,0,3:0:0:0:
213,231,94369,1,0,3:0:0:0:
277,295,94499,1,8,3:2:0:0:
277,295,94760,2,0,L|277:231,1,60,2|0,0:3|0:0,0:0:0:0:
504,237,95021,2,0,L|441:237,1,60,4|0,3:2|0:0,0:0:0:0:
376,235,95282,1,0,3:0:0:0:
408,299,95412,1,0,3:0:0:0:
344,235,95542,1,8,3:2:0:0:
344,235,95803,2,0,L|344:299,1,60,2|0,0:3|0:0,0:0:0:0:
256,48,96065,1,4,3:3:0:0:
256,48,96325,5,2,0:2:0:0:
192,48,96456,1,2,0:2:0:0:
128,48,96586,2,0,B|128:100|128:100|124:104|124:104|132:104|132:104|128:108|128:108|128:156,1,120,8|2,0:2|0:3,0:0:0:0:
128,224,96978,1,0,0:2:0:0:
128,288,97108,1,0,3:0:0:0:
192,288,97239,1,2,0:2:0:0:
256,288,97369,1,2,0:2:0:0:
320,352,97499,1,2,0:2:0:0:
320,288,97629,1,8,0:2:0:0:
384,288,97760,1,2,0:2:0:0:
448,288,97891,2,0,L|448:228,1,60,2|0,0:2|0:0,0:0:0:0:
352,100,98151,6,0,L|352:160,1,60,4|0,3:2|0:0,0:0:0:0:
304,212,98411,1,0,3:0:0:0:
256,264,98542,1,0,3:0:0:0:
384,228,98672,1,8,3:2:0:0:
384,228,98933,2,0,L|384:288,1,60,2|0,0:3|0:0,0:0:0:0:
304,212,99195,6,0,L|304:152,1,60,4|0,3:2|0:0,0:0:0:0:
256,100,99455,1,0,3:0:0:0:
208,52,99585,1,0,3:0:0:0:
336,84,99717,1,8,3:2:0:0:
336,84,99977,2,0,L|336:4,1,60,2|0,0:3|0:0,0:0:0:0:
436,24,100238,6,0,L|436:84,1,59.3999998187256,4|0,3:2|0:0,0:0:0:0:
256,161,100760,2,0,L|256:221,1,59.3999998187256,4|2,3:2|0:2,0:0:0:0:
166,261,101282,5,0,3:0:0:0:
76,300,101412,2,0,L|76:360,1,60,2|0,3:1|0:0,0:0:0:0:
76,300,101804,6,0,B|124:300|124:300|140:300|140:316|140:316|140:362,1,118.799999637451,8|2,3:2|0:3,0:0:0:0:
256,336,102325,6,0,B|352:338|352:338|368:338|368:322|368:322|368:258,1,180,0|2,3:0|3:0,0:0:0:0:
465,263,102847,2,0,L|465:327,2,60,8|0|2,3:2|0:0|0:3,0:0:0:0:
368,192,103238,1,0,0:0:0:0:
465,192,103369,2,0,L|465:132,1,60,0|2,3:0|0:2,0:0:0:0:
272,61,103630,1,2,0:3:0:0:
344,61,103760,1,2,0:2:0:0:
416,61,103891,1,8,3:2:0:0:
272,61,104151,2,0,L|212:61,1,60,2|2,0:3|0:2,0:0:0:0:
100,141,104412,6,0,B|100:77|100:77|100:61|116:61|116:61|146:61,1,120,0|2,3:0|0:2,0:0:0:0:
96,208,104804,1,2,3:0:0:0:
208,288,104934,2,0,B|208:224|208:224|208:208|192:208|192:208|161:208,1,120,8|2,3:2|0:3,0:0:0:0:
208,352,105325,1,0,0:0:0:0:
272,288,105456,6,0,B|320:288|320:288|336:288|336:272|336:272|336:240|336:240|336:224|352:224|352:224|400:224,1,180,0|2,3:0|0:2,0:0:0:0:
400,288,105978,2,0,B|400:320|400:320|400:336|384:336|384:336|368:336,1,73.8000011260987,8|0,3:2|0:0,0:0:0:0:
272,224,106238,2,0,B|272:192|272:192|272:176|288:176|288:176|304:176,1,73.8000011260987,2|2,0:3|0:2,0:0:0:0:
64,384,106499,6,0,L|4:384,2,60,0|2|2,3:0|0:2|0:2,0:0:0:0:
160,384,106890,1,2,3:0:0:0:
192,320,107021,2,0,L|252:320,2,60,8|0|2,3:2|0:0|0:3,0:0:0:0:
96,320,107412,1,0,0:0:0:0:
0,320,107543,2,0,B|0:272|0:272|0:256|16:256|16:256|48:256|48:256|64:256|64:240|64:240|64:192,1,180,0|2,3:0|0:2,0:0:0:0:
64,64,108065,2,0,B|64:112|64:112|64:128|48:128|48:128|16:128|16:128|0:128|0:144|0:144|0:192,1,180,8|2,3:2|0:2,0:0:0:0:
0,64,108587,5,0,3:0:0:0:
0,0,108718,1,2,0:2:0:0:
64,0,108847,2,0,L|123:0,1,60,2|2,0:2|3:0,0:0:0:0:
256,48,109108,2,0,B|256:64|256:64|256:80|240:80|240:80|144:80|144:80|128:80|128:96|128:96|128:112,1,180,10|0,3:2|0:0,0:0:0:0:
123,190,109630,2,0,L|64:191,1,60,0|2,3:0|0:2,0:0:0:0:
251,191,109891,1,2,0:3:0:0:
251,255,110021,1,2,0:3:0:0:
251,319,110151,2,0,B|155:319|155:319|123:319|123:287|123:287|123:255,1,180,10|0,3:2|0:0,0:0:0:0:
389,254,110673,6,0,B|389:286|389:286|389:318|357:318|357:318|321:318,1,120,0|2,3:0|0:2,0:0:0:0:
251,191,111065,1,2,3:0:0:0:
251,127,111195,2,0,L|251:67,1,60,8|0,3:2|0:0,0:0:0:0:
187,191,111456,1,2,0:3:0:0:
251,255,111586,1,0,0:0:0:0:
314,191,111717,1,0,3:0:0:0:
314,191,111978,2,0,L|374:191,1,60,2|2,0:3|0:2,0:0:0:0:
502,129,112238,2,0,L|502:69,1,60,8|0,3:2|0:0,0:0:0:0:
374,2,112499,1,2,0:3:0:0:
374,65,112630,1,2,0:2:0:0:
374,128,112760,6,0,B|422:128|422:128|438:128|438:144|438:144|438:176|438:176|438:190,1,120,0|2,3:0|0:2,0:0:0:0:
502,190,113151,1,2,3:0:0:0:
310,127,113282,2,0,B|262:127|262:127|246:127|246:111|246:111|246:79|246:79|246:64,1,120,8|2,3:2|0:3,0:0:0:0:
319,65,113630,5,0,0:0:0:0:
319,65,113717,1,0,0:0:0:0:
319,65,113804,1,0,3:0:0:0:
6,18,114065,1,2,0:3:0:0:
86,18,114195,1,2,0:2:0:0:
166,18,114326,2,0,B|230:18|230:18|246:18|246:34|246:34|246:66,1,120,8|2,3:2|0:3,0:0:0:0:
246,304,114847,6,0,L|246:364,2,60,0|2|2,3:0|0:2|0:2,0:0:0:0:
246,128,115238,1,2,3:0:0:0:
182,160,115369,2,0,L|182:100,2,60,8|0|2,3:2|0:0|0:3,0:0:0:0:
182,336,115760,1,0,0:0:0:0:
118,304,115890,2,0,B|118:256|118:256|118:240|134:240|134:240|240:240,1,180,0|2,3:0|0:2,0:0:0:0:
432,304,116412,2,0,B|432:256|432:256|432:240|416:240|416:240|310:240,1,180,8|2,3:2|0:2,0:0:0:0:
274,173,116934,6,0,B|274:159|274:159|274:111|274:111|274:95|290:95|290:95|306:95|322:95|322:95|338:95|338:111|338:111|338:159|338:159|338:175,1,208.800006372071,2|2,3:2|0:2,0:0:0:0:
210,171,117456,2,0,B|210:157|210:157|210:109|210:109|210:93|226:93|226:93|242:93|258:93|258:93|274:93|274:109|274:109|274:157|274:157|274:173,1,208.800006372071,2|2,3:2|0:2,0:0:0:0:
274,173,117978,2,0,L|274:233,1,60,2|0,3:2|0:0,0:0:0:0:
146,233,118238,2,0,L|146:173,1,60,2|0,3:2|0:0,0:0:0:0:
144,80,118499,1,6,3:2:0:0:
80,80,118629,1,0,0:0:0:0:
16,80,118760,1,10,0:2:0:0:
16,80,119021,6,0,B|16:64|16:64|16:48|48:48|48:48|64:48|64:48|80:48|80:64|80:64|80:128|80:128|80:144|64:144|64:144|48:144|48:144|64:144|64:144|80:144|80:160|80:160|80:224|80:224|80:240|96:240|96:240|112:240|112:240|96:240|96:240|80:240|80:256|80:256|80:320|80:320|80:336|96:336|96:336|128:336|128:336|144:336|144:320|144:320|144:304,1,557.99997786255,4|2,3:2|0:2,0:0:0:0:
144,303,120065,2,0,L|204:303,1,60,0|2,3:0|0:2,0:0:0:0:
400,303,120326,2,0,L|400:363,1,60,2|2,0:3|0:2,0:0:0:0:
304,363,120587,2,0,L|304:303,1,60,8|0,3:2|0:0,0:0:0:0:
208,192,120848,2,0,L|268:192,1,60,2|0,0:3|0:0,0:0:0:0:
432,128,121108,6,0,B|480:128|480:128|496:128|496:144|496:144|496:176|496:176|496:192|480:192|480:192|432:192,1,180,4|2,3:2|0:2,0:0:0:0:
256,64,121630,2,0,B|256:16|256:16|256:0|272:0|272:0|304:0|304:0|320:0|320:16|320:16|320:64,1,180,8|2,3:2|0:2,0:0:0:0:
144,192,122151,2,0,B|96:192|96:192|80:192|80:176|80:176|80:144|80:144|80:128|96:128|96:128|144:128,1,180,0|2,3:0|0:2,0:0:0:0:
0,80,122673,1,8,3:2:0:0:
256,192,122934,1,2,0:3:0:0:
512,304,123195,5,4,3:2:0:0:
448,336,123325,1,2,0:2:0:0:
320,160,123586,5,2,0:2:0:0:
256,192,123716,1,8,3:2:0:0:
192,224,123978,1,2,0:3:0:0:
128,16,124238,5,0,3:0:0:0:
64,48,124368,1,2,0:2:0:0:
320,160,124630,5,2,0:2:0:0:
256,192,124760,1,8,3:2:0:0:
192,224,125021,1,2,0:3:0:0:
128,16,125282,6,0,L|208:16,1,60,4|2,3:2|0:2,0:0:0:0:
320,160,125543,1,2,0:3:0:0:
384,192,125673,2,0,L|464:192,1,60,2|8,0:2|3:2,0:0:0:0:
192,224,125934,2,0,L|112:224,1,60,0|2,0:0|0:3,0:0:0:0:
324,368,126195,2,0,L|384:368,2,60,2|2|0,0:2|3:2|0:0,0:0:0:0:
256,192,126586,2,0,L|256:132,1,60,2|0,3:2|0:0,0:0:0:0:
368,80,126847,1,6,3:2:0:0:
432,80,126977,1,0,0:0:0:0:
496,80,127108,1,10,0:2:0:0:
496,80,127369,38,0,B|496:64|496:64|496:48|464:48|464:48|448:48|448:48|432:48|432:64|432:64|432:128|432:128|432:144|448:144|448:144|464:144|464:144|448:144|448:144|432:144|432:160|432:160|432:224|432:224|432:240|416:240|416:240|400:240|400:240|416:240|416:240|432:240|432:256|432:256|432:320|432:320|432:336|416:336|416:336|384:336|384:336|368:336|368:320|368:320|368:304,1,557.99997786255,4|2,3:2|0:2,0:0:0:0:
368,306,128412,2,0,L|308:306,1,60,0|2,3:0|0:2,0:0:0:0:
112,306,128673,2,0,L|112:366,1,60,2|2,0:3|0:2,0:0:0:0:
208,366,128934,2,0,L|208:306,1,60,8|0,3:2|0:0,0:0:0:0:
304,192,129195,6,0,L|244:192,1,60,2|0,0:3|0:0,0:0:0:0:
112,144,129456,1,4,3:2:0:0:
112,144,129717,6,0,L|172:144,1,60,2|2,0:3|0:2,0:0:0:0:
304,96,129978,1,8,3:2:0:0:
304,96,130238,2,0,L|244:96,1,60,2|2,0:3|0:2,0:0:0:0:
112,48,130499,1,0,3:0:0:0:
112,48,130760,5,2,0:3:0:0:
176,48,130890,1,2,0:2:0:0:
48,48,131021,1,8,3:2:0:0:
48,48,131282,2,0,L|48:108,1,60,2|0,0:3|0:0,0:0:0:0:
112,272,131543,6,0,B|144:272|144:272|176:272|176:240|176:240|176:144,1,180,2|2,3:0|0:2,0:0:0:0:
304,96,132065,2,0,B|272:96|272:96|240:96|240:128|240:128|240:224,1,180,10|2,3:2|0:2,0:0:0:0:
368,352,132586,2,0,B|368:320|368:320|368:288|336:288|336:288|304:288,1,116.400002752991,2|2,3:0|0:2,0:0:0:0:
304,352,132978,1,2,0:2:0:0:
304,224,133108,2,0,B|336:224|336:224|368:224|368:192|368:192|368:160,1,116.400002752991,10|2,3:2|0:2,0:0:0:0:
304,160,133499,1,2,0:2:0:0:
238,356,133630,6,0,B|206:356|206:356|174:356|174:324|174:324|174:317,1,90,2|2,3:0|0:2,0:0:0:0:
174,249,133891,2,0,B|142:249|142:249|110:249|110:281|110:281|110:287,1,90,2|2,3:0|0:2,0:0:0:0:
46,340,134151,2,0,B|46:318|46:318|46:287|46:255|46:255|46:216|46:216|46:184|78:184|78:184|144:184,1,240,8|0,0:2|3:0,0:0:0:0:
215,184,134804,2,0,L|215:124,1,60,0|2,0:0|0:2,0:0:0:0:
163,72,135065,2,0,L|163:12,1,60,2|2,0:2|3:0,0:0:0:0:
368,108,135325,2,0,B|336:108|336:108|304:108|304:76|304:76|304:69,1,90,0|2,0:0|0:2,0:0:0:0:
304,10,135586,6,0,L|304:90,1,60,2|2,0:2|3:0,0:0:0:0:
295,248,135847,1,2,3:1:0:0:
215,184,135977,1,2,3:1:0:0:
215,185,136238,2,0,L|215:121,1,60,2|0,3:2|0:0,0:0:0:0:
135,254,136499,6,0,L|135:313,1,60,2|0,3:1|0:0,0:0:0:0:
224,314,136760,1,2,1:1:0:0:
224,314,137151,1,0,0:0:0:0:
304,314,137282,6,0,L|304:346,1,30,8|0,0:1|0:0,0:0:0:0:
384,346,137673,5,0,3:0:0:0:
480,288,137804,2,0,B|480:272|480:272|480:256|464:256|464:256|373:256,1,132.00000402832,4|2,3:1|0:3,0:0:0:0:
293,288,138195,1,2,0:2:0:0:
197,230,138326,2,0,B|197:214|197:214|197:198|213:198|213:198|303:198,1,132.00000402832,0|2,1:0|0:3,0:0:0:0:
431,132,138717,6,0,L|365:132,1,66.0000020141602,2|0,0:2|3:0,0:0:0:0:
288,68,138978,1,2,0:2:0:0:
352,4,139109,1,2,0:3:0:0:
448,4,139239,1,2,0:2:0:0:
512,68,139370,1,0,1:0:0:0:
160,128,139630,5,2,0:3:0:0:
224,68,139761,1,2,0:2:0:0:
160,4,139891,2,0,B|32:4|32:4|16:4|16:20|16:20|16:68,1,198.000006042481,0|2,3:0|0:2,0:0:0:0:
203,218,140412,2,0,B|203:182|203:182|203:165|220:165|220:165|290:165|290:165|308:165|308:182|308:182|308:218,1,198.000006042481,0|2,1:0|0:2,0:0:0:0:
352,380,140934,2,0,B|480:380|480:380|496:380|496:364|496:364|496:316,1,198.000006042481,0|2,3:0|0:2,0:0:0:0:
352,96,141456,5,0,1:0:0:0:
304,48,141586,1,2,0:2:0:0:
256,0,141716,1,2,0:3:0:0:
208,48,141847,1,2,0:2:0:0:
160,96,141978,1,0,3:0:0:0:
256,96,142108,2,0,B|256:153|256:153|260:157|260:157|251:157|251:157|256:161|256:161|256:214,1,132.00000402832,2|2,0:2|0:2,0:0:0:0:
256,320,142499,5,0,1:0:0:0:
96,256,142760,1,2,0:3:0:0:
416,256,143021,1,0,3:0:0:0:
350,321,143151,1,2,0:2:0:0:
284,256,143282,1,2,0:3:0:0:
350,191,143412,1,2,0:2:0:0:
416,256,143543,1,0,1:0:0:0:
128,320,143804,6,0,L|194:320,1,66.0000020141602,2|0,0:3|0:0,0:0:0:0:
444,320,144065,1,0,3:0:0:0:
380,64,144325,6,0,L|314:64,1,66.0000020141602,2|0,0:3|0:0,0:0:0:0:
68,64,144586,1,0,1:0:0:0:
132,320,144847,1,2,0:3:0:0:
444,320,145108,6,0,B|444:348|444:348|444:364|428:364|428:364|350:364,1,132.00000402832,2|0,3:2|0:0,0:0:0:0:
230,364,145369,2,0,L|284:364,1,53.9999983520508,8|0,1:3|0:0,0:0:0:0:
230,211,145630,6,0,B|230:239|230:239|230:255|246:255|246:255|324:255,1,132.00000402832,2|0,1:2|0:0,0:0:0:0:
444,255,145891,2,0,L|390:255,1,53.9999983520508,4|2,3:3|0:3,0:0:0:0:
93,255,146151,6,0,B|93:202|93:202|93:184|75:184|75:184|40:184|40:184|22:184|22:167|22:167|22:114,1,198.000006042481,4|2,3:2|0:2,0:0:0:0:
22,1,146673,2,0,B|22:17|22:17|22:33|38:33|38:33|128:33,1,132.00000402832,0|2,1:0|0:3,0:0:0:0:
194,113,147065,6,0,L|128:113,1,66.0000020141602,2|0,0:2|3:0,0:0:0:0:
277,160,147325,1,2,0:2:0:0:
341,224,147456,1,2,0:3:0:0:
341,320,147586,1,2,0:2:0:0:
277,384,147717,1,0,1:0:0:0:
512,112,147978,5,2,0:3:0:0:
464,64,148109,1,2,0:2:0:0:
418,114,148238,2,0,B|418:167|418:167|418:184|436:184|436:184|471:184|471:184|489:184|489:202|489:202|489:255,1,198.000006042481,0|2,3:0|0:2,0:0:0:0:
238,71,148760,2,0,B|220:53|220:53|220:36|220:36|220:1|255:1|255:1|290:1|290:36|290:36|290:53|290:53|272:69,1,198.000006042481,0|2,1:0|0:2,0:0:0:0:
93,114,149282,2,0,B|93:167|93:167|93:184|75:184|75:184|40:184|40:184|23:184|23:202|23:202|23:255,1,198.000006042481,0|2,3:0|0:2,0:0:0:0:
160,368,149804,5,0,1:0:0:0:
192,304,149934,1,2,0:2:0:0:
224,368,150065,1,2,0:3:0:0:
288,368,150196,1,2,0:2:0:0:
320,304,150326,1,0,3:0:0:0:
256,272,150457,2,0,B|256:214|256:214|251:210|251:210|260:210|260:210|256:205|256:205|256:152,1,132.00000402832,2|2,0:2|0:2,0:0:0:0:
352,368,150847,5,0,1:0:0:0:
160,368,151108,1,2,0:3:0:0:
160,16,151369,1,0,3:0:0:0:
352,16,151630,1,2,0:3:0:0:
331,91,151760,1,2,0:2:0:0:
276,36,151890,1,0,1:0:0:0:
256,112,152021,2,0,B|256:170|256:170|251:174|251:174|260:174|260:174|256:179|256:179|256:232,1,132.00000402832,2|2,0:2|0:2,0:0:0:0:
432,224,152412,5,0,3:0:0:0:
80,160,152673,1,2,0:3:0:0:
510,355,152934,1,0,3:0:0:0:
432,355,153065,1,0,3:0:0:0:
471,288,153195,1,0,3:0:0:0:
503,224,153325,1,0,3:0:0:0:
471,160,153456,1,0,3:0:0:0:
432,93,153586,1,0,3:0:0:0:
510,93,153717,1,0,3:0:0:0:
471,160,153847,1,0,3:0:0:0:
432,224,153977,1,10,3:2:0:0:
48,160,154238,5,8,0:2:0:0:
80,96,154368,1,8,0:2:0:0:
80,224,154499,2,0,B|80:240|80:240|80:256|95:256|95:256|187:256,1,132.00000402832,4|2,3:2|0:3,0:0:0:0:
312,256,154891,1,2,0:2:0:0:
312,128,155022,2,0,B|312:112|312:112|312:96|327:96|327:96|419:96,1,132.00000402832,0|2,1:0|0:3,0:0:0:0:
410,239,155412,6,0,B|410:170,1,66.0000020141602,2|0,0:2|3:0,0:0:0:0:
312,256,155673,1,2,0:2:0:0:
368,318,155803,1,2,0:3:0:0:
453,318,155934,1,2,0:2:0:0:
509,256,156064,1,0,1:0:0:0:
144,192,156325,5,2,0:3:0:0:
176,256,156455,1,2,0:2:0:0:
144,318,156586,2,0,B|144:353|144:353|144:370|126:370|126:370|56:370|56:370|38:370|38:353|38:353|38:318,1,198.000006042481,0|2,3:0|0:2,0:0:0:0:
256,160,157108,2,0,B|284:160|284:160|284:103|284:103|227:103|227:103|227:160,1,198.000006042481,0|2,1:0|0:2,0:0:0:0:
368,318,157630,2,0,B|368:353|368:353|368:370|385:370|385:370|455:370|455:370|473:370|473:353|473:353|473:318,1,198.000006042481,0|2,3:0|0:2,0:0:0:0:
419,258,158151,5,0,1:0:0:0:
462,208,158282,1,2,0:2:0:0:
419,159,158412,1,2,0:3:0:0:
462,109,158543,1,2,0:2:0:0:
419,59,158673,1,0,3:0:0:0:
352,159,158804,2,0,B|294:159|294:159|290:163|290:163|290:154|290:154|286:159|286:159|233:159,1,132.00000402832,2|2,0:2|0:2,0:0:0:0:
128,159,159195,5,0,1:0:0:0:
419,59,159456,1,2,0:3:0:0:
160,79,159717,1,0,3:0:0:0:
80,79,159848,1,2,0:2:0:0:
48,159,159979,1,2,0:3:0:0:
80,239,160108,1,2,0:2:0:0:
160,239,160238,1,0,1:0:0:0:
32,0,160499,5,2,0:3:0:0:
0,80,160629,1,2,0:2:0:0:
112,0,160760,1,0,3:0:0:0:
32,319,161021,5,2,0:3:0:0:
0,239,161151,1,2,0:2:0:0:
112,319,161282,1,0,1:0:0:0:
396,319,161543,1,2,0:3:0:0:
396,319,161804,6,0,B|368:319|368:319|352:319|352:303|352:303|352:225,1,132.00000402832,2|0,3:2|0:0,0:0:0:0:
352,105,162065,2,0,L|352:159,1,53.9999983520508,8|0,1:3|0:0,0:0:0:0:
197,281,162325,6,0,B|225:281|225:281|241:281|241:265|241:265|241:187,1,132.00000402832,2|0,1:2|0:0,0:0:0:0:
241,67,162586,2,0,L|241:121,1,53.9999983520508,4|2,3:3|0:3,0:0:0:0:
82,194,162847,5,4,3:2:0:0:
34,146,162977,1,2,0:2:0:0:
82,98,163108,2,0,B|144:98|144:98|160:98|160:114|160:114|160:159|160:159,1,132.00000402832,2|0,0:3|1:0,0:0:0:0:
163,281,163499,2,0,B|163:237|163:237|163:221|179:221|179:221|241:221,1,132.00000402832,2|2,0:2|0:2,0:0:0:0:
358,129,163891,5,0,3:0:0:0:
438,149,164022,1,2,0:2:0:0:
481,221,164152,1,2,0:3:0:0:
438,293,164282,1,2,0:2:0:0:
358,314,164413,1,0,1:0:0:0:
80,256,164673,5,2,0:3:0:0:
48,320,164803,1,2,0:2:0:0:
80,384,164934,2,0,B|124:384|124:384|140:384|140:368|140:368|140:352|140:352|140:336|156:336|156:336|172:336|172:336|188:336|188:320|188:320|188:276,1,198.000006042481,0|2,3:0|0:2,0:0:0:0:
323,266,165456,2,0,B|367:223|367:223|398:192|367:161|367:161|321:116,1,198.000006042481,0|2,1:0|0:2,0:0:0:0:
188,108,165978,2,0,B|188:64|188:64|188:48|172:48|172:48|156:48|156:48|140:48|140:32|140:32|140:16|140:16|140:0|124:0|124:0|80:0,1,198.000006042481,0|2,3:0|0:2,0:0:0:0:
16,80,166499,5,0,1:0:0:0:
64,128,166630,1,2,0:2:0:0:
64,192,166760,1,2,0:3:0:0:
64,256,166890,1,2,0:2:0:0:
16,304,167021,1,0,3:0:0:0:
128,192,167151,2,0,B|186:192|186:192|190:196|190:196|190:187|190:187|194:192|194:192|247:192,1,132.00000402832,2|2,0:2|0:2,0:0:0:0:
0,192,167543,5,0,1:0:0:0:
374,192,167804,1,2,0:3:0:0:
128,192,168065,1,0,3:0:0:0:
502,192,168326,1,2,0:3:0:0:
128,192,168586,5,0,1:0:0:0:
192,256,168716,1,2,0:2:0:0:
256,320,168847,2,0,B|313:320|313:320|317:315|317:315|317:324|317:324|321:320|321:320|374:320,1,132.00000402832,2|0,0:3|3:0,0:0:0:0:
192,112,169238,1,2,0:2:0:0:
128,48,169369,2,0,L|62:48,1,66.0000020141602,2|2,0:3|0:2,0:0:0:0:
256,176,169630,2,0,L|322:176,1,66.0000020141602,0|0,3:0|3:0,0:0:0:0:
365,64,169891,6,0,B|349:64|349:64|345:60|345:60|345:68|345:68|341:64|341:64|313:64|313:64|309:68|309:68|309:60|309:60|305:64|305:64|277:64|277:64|273:60|273:60|273:68|273:68|269:64|269:64|253:64,1,145.799999054489,0|0,3:0|3:0,0:0:0:0:
128,48,170151,6,0,B|96:48|96:48|80:48|80:64|80:64|80:80|96:80|96:80|128:80|160:80|160:80|176:80|176:64|176:64|176:48|160:48|160:48|144:48,1,214.199995751038,0|0,3:0|3:0,0:0:0:0:
0,64,170673,6,0,L|0:128,1,64.8000015820313,10|0,3:2|0:0,0:0:0:0:
0,192,170934,1,8,0:2:0:0:
0,256,171065,1,8,0:2:0:0:
128,192,171325,5,8,0:2:0:0:
192,128,171456,1,8,0:2:0:0:
256,192,171586,1,2,3:2:0:0:
256,256,171846,5,8,0:2:0:0:
320,192,171977,1,8,0:2:0:0:
384,256,172107,1,2,3:2:0:0:
384,320,172369,5,8,0:2:0:0:
448,256,172500,1,8,0:2:0:0:
512,320,172630,1,2,3:2:0:0:
448,384,172760,1,10,3:1:0:0:
384,320,173282,6,0,L|288:320,1,90.0000034332277,4|0,3:2|0:0,0:0:0:0:
97,239,173543,1,2,0:3:0:0:
97,239,173630,1,2,0:3:0:0:
97,239,173717,1,2,0:3:0:0:
97,239,173804,2,0,L|1:239,1,90.0000034332277,10|0,1:0|0:0,0:0:0:0:
150,288,174065,6,0,B|166:288|166:288|182:288|198:288|198:288|214:288|214:272|214:272|214:208|214:208|214:191,1,152.99999795723,2|2,0:3|0:2,0:0:0:0:
150,191,174325,6,0,B|182:191|182:191|214:191|214:158|214:158|214:126|214:94|214:94|214:62|246:63|246:63|358:63|358:63|406:63|406:111|406:111|406:159|406:159|406:191|374:191|374:191|342:191|342:159|342:159|342:127,1,573.60001050293,2|2,3:1|1:2,0:0:0:0:
342,128,175369,5,2,3:2:0:0:
278,128,175499,1,0,0:0:0:0:
342,128,175630,2,0,B|342:251|342:251|341:272|320:272|320:272|295:272,1,181.49999487648,2|0,0:1|1:0,0:0:0:0:
215,272,176021,2,0,B|192:272|192:272|170:272|170:251|170:251|170:149|170:149|170:128|191:128|191:128|216:128,1,217.799993851776,2|2,0:1|0:2,0:0:0:0:
342,128,176412,6,0,B|342:96|342:96|342:64|342:64|342:32|310:32|310:32|278:32|278:64|278:64|278:96|278:96|278:160|278:160|278:192|310:192|310:192|358:192|358:192|406:192|406:144|406:144|406:96,1,489.600002988281,2|0,0:1|1:0,0:0:0:0:
406,32,177065,1,2,0:2:0:0:
505,192,177195,2,0,B|445:192|445:192|406:192|406:152|406:152|406:96,1,180.000006866455,2|2,0:1|3:2,0:0:0:0:
105,32,177586,1,2,0:2:0:0:
7,192,177717,2,0,B|66:192|66:192|105:192|105:152|105:152|105:96,1,180.000006866455,2|0,0:1|1:0,0:0:0:0:
233,176,178108,6,0,B|233:112|233:112|233:96|249:96|249:96|262:96|262:96|278:96|278:112|278:112|278:176,1,192,2|2,0:1|0:2,0:0:0:0:
342,128,178499,6,0,B|342:61|342:61|342:32|313:32|313:32|255:32|255:32|198:32|198:32|169:32|169:61|169:61|169:128,1,340.199997793808,2|2,0:1|0:2,0:0:0:0:
237,238,179021,2,0,L|274:238,2,36.299998975296,2|0|2,1:1|0:0|0:2,0:0:0:0:
274,300,179282,2,0,L|237:300,2,36.299998975296,2|0|2,0:3|0:0|0:2,0:0:0:0:
113,224,179543,5,2,0:1:0:0:
112,160,179673,2,0,B|112:112|112:112|112:96|128:96|128:96|150:96,1,96.6000001473999,2|2,0:2|0:2,0:0:0:0:
399,224,179934,1,2,0:2:0:0:
400,160,180064,2,0,B|400:112|400:112|400:96|384:96|384:96|361:96,1,96.6000001473999,10|2,1:1|0:2,0:0:0:0:
256,253,180325,2,0,B|256:297|256:297|252:301|252:301|260:301|260:301|256:305|256:305|256:349,1,107.999996704102,2|2,0:1|0:2,0:0:0:0:
448,352,180586,6,0,B|485:352|485:352|501:352|501:336|501:336|501:304|501:304|501:288|485:288|485:288|389:288,1,217.799993851776,2|2,0:1|0:2,0:0:0:0:
64,352,181108,2,0,B|26:352|26:352|10:352|10:336|10:336|10:304|10:304|10:288|26:288|26:288|122:288,1,217.799993851776,8|2,1:0|0:2,0:0:0:0:
192,160,181630,1,2,3:2:0:0:
320,160,181760,1,2,0:1:0:0:
320,96,181891,6,0,L|320:16,1,64.8000015820313,2|2,0:1|0:2,0:0:0:0:
192,31,182151,2,0,L|192:96,1,64.8000015820313,10|2,0:2|0:2,0:0:0:0:
64,288,182412,2,0,B|56:288|56:288|48:288|48:280|48:280|48:216,1,84.5999956755068,2|2,0:1|0:2,0:0:0:0:
448,288,182673,2,0,B|456:288|456:288|464:288|464:280|464:280|464:216,1,84.5999956755068,2|2,3:0|0:2,0:0:0:0:
480,143,182934,1,8,0:2:0:0:
495,72,183065,1,8,0:2:0:0:
512,0,183195,6,0,B|416:0|416:0|256:0|256:160|256:160|256:192|256:192|256:224|256:224|256:384|96:384|96:384|0:384,1,772.800001179199,14|0,0:1|1:0,0:0:0:0:
145,174,184369,1,2,0:3:0:0:
145,254,184499,2,0,B|81:254|81:254|65:254|65:238|65:238,1,84.5999956755068,2|2,0:1|0:2,0:0:0:0:
65,174,184760,2,0,B|65:126|65:126|65:110|49:110|49:110|17:110|17:110|1:110|1:126|1:126|1:248,1,253.79998702652,2|2,0:1|0:2,0:0:0:0:
114,319,185282,6,0,B|0:319,1,114.599997945328,10|2,1:1|0:2,0:0:0:0:
97,60,185543,2,0,B|97:46|97:46|97:30|113:30|113:30|129:30|129:30|145:30|145:46|145:46|145:174,2,210.000002002716,2|0|2,0:1|3:0|0:1,0:0:0:0:
145,248,186195,2,0,L|224:248,2,78.600001439209,2|0|2,0:3|1:0|0:2,0:0:0:0:
367,248,186586,1,2,0:3:0:0:
303,248,186717,1,2,0:2:0:0:
431,248,186847,6,0,B|431:120|431:120|431:104|415:104|415:104|367:104,1,201.599993847656,2|2,0:1|0:2,0:0:0:0:
303,103,187238,2,0,B|303:55|303:55|303:39|319:39|319:39|367:39,2,122.40000074707,2|0|2,0:1|1:0|0:2,0:0:0:0:
431,39,187630,1,2,0:1:0:0:
148,273,187891,1,2,0:1:0:0:
148,273,187978,1,0,0:0:0:0:
148,273,188065,1,0,0:0:0:0:
148,273,188152,2,0,L|52:273,1,90.0000034332277,2|2,0:2|0:2,0:0:0:0:
207,242,188412,6,0,B|207:229|207:229|207:213|223:213|223:213|287:213|287:213|303:213|303:229|303:229|303:241,1,140.999997848511,10|2,1:1|0:2,0:0:0:0:
303,304,188673,2,0,B|303:316|303:316|303:332|287:332|287:332|223:332|223:332|207:332|207:316|207:316|207:303,1,140.999997848511,2|2,0:3|0:2,0:0:0:0:
148,273,188934,6,0,L|58:273,1,90.0000034332277,2|2,0:1|0:2,0:0:0:0:
364,273,189195,2,0,L|454:273,1,90.0000034332277,2|2,0:2|0:2,0:0:0:0:
303,240,189456,1,10,1:1:0:0:
207,241,189586,1,10,0:1:0:0:
199,170,189717,1,10,0:1:0:0:
314,171,189847,1,10,0:1:0:0:
352,112,189978,6,0,B|352:96|352:96|352:48|352:48|352:32|336:32|336:32|320:32|304:32|304:32|288:32|288:48|288:48|288:96|288:96|288:112|272:112|272:112|240:112|240:112|224:112|224:96|224:96|224:48|224:48|224:32|208:32|208:32|192:32|176:32|176:32|160:32|160:48|160:48|160:96|160:96|160:112,1,475.199998549805,4|0,3:2|0:0,0:0:0:0:
199,170,191021,1,2,3:2:0:0:
199,170,191543,1,8,3:2:0:0:
160,111,191804,5,2,0:2:0:0:
121,170,191934,2,0,L|61:169,1,60,2|0,0:2|3:0,0:0:0:0:
160,273,192325,1,2,0:2:0:0:
160,111,192586,1,8,3:2:0:0:
256,0,192847,1,2,0:3:0:0:
352,111,193108,1,0,3:0:0:0:
391,170,193238,2,0,L|451:169,1,60,0|2,0:0|0:2,0:0:0:0:
352,229,193499,1,0,0:0:0:0:
313,288,193629,2,0,L|253:288,1,60,8|0,3:2|0:0,0:0:0:0:
391,288,193891,2,0,L|451:288,1,60,2|0,0:3|0:0,0:0:0:0:
176,288,194151,6,0,B|160:288|160:288|112:288|112:288|96:288|96:272|96:272|96:256|96:240|96:240|96:224|112:224|112:224|160:224|160:224|174:224,1,210,2|0,3:2|0:0,0:0:0:0:
174,224,194673,2,0,L|174:163,1,60,10|0,3:2|0:0,0:0:0:0:
176,288,194934,2,0,L|176:347,1,60,2|0,0:2|0:0,0:0:0:0:
253,347,195195,2,0,L|253:288,1,60,2|0,3:2|0:0,0:0:0:0:
251,164,195456,2,0,L|252:224,2,60,2|0|10,0:3|0:0|3:2,0:0:0:0:
252,224,196238,6,0,B|291:224|291:224|306:224|306:238|306:238|306:252|306:252|306:267|320:267|320:267|335:267|335:267|349:267|349:281|349:281|349:321,1,180,4|0,3:2|0:0,0:0:0:0:
349,62,196760,2,0,B|349:102|349:102|349:116|335:116|335:116|320:116|320:116|306:116|306:131|306:131|306:145|306:145|306:160|291:160|291:160|252:160,1,180,8|2,3:2|0:2,0:0:0:0:
510,159,197282,2,0,B|470:159|470:159|455:159|455:144|455:144|455:130|455:130|455:115|441:115|441:115|426:115|426:115|412:115|412:101|412:101|412:61,1,180,0|2,3:0|0:2,0:0:0:0:
384,192,197804,1,8,3:2:0:0:
451,265,197935,1,8,3:2:0:0:
384,192,198065,1,2,0:3:0:0:
61,265,198325,5,4,3:2:0:0:
61,265,198586,2,0,L|124:265,1,60
256,179,198847,6,0,B|256:162|256:162|256:115|256:115|256:99|240:99|240:99|223:98|208:98|208:98|192:98|192:114|192:114|192:162|192:162|192:177,1,208.800006372071,8|0,3:2|0:0,0:0:0:0:
192,243,199369,2,0,B|192:259|192:259|192:307|192:307|192:322|208:322|208:322|224:323|240:323|240:323|255:323|255:307|255:307|256:259|256:259|256:243,1,208.800006372071,2|0,3:2|0:0,0:0:0:0:
256,179,199891,1,8,3:2:0:0:
352,273,200152,5,2,0:2:0:0:
391,214,200282,2,0,L|451:215,1,60,2|0,0:2|3:0,0:0:0:0:
352,111,200673,1,2,0:2:0:0:
352,273,200934,1,8,3:2:0:0:
256,384,201195,1,2,0:3:0:0:
160,273,201456,1,0,3:0:0:0:
121,214,201586,2,0,L|61:215,1,60,0|2,0:0|0:2,0:0:0:0:
160,155,201847,1,0,0:0:0:0:
199,96,201977,2,0,L|259:96,1,60,8|0,3:2|0:0,0:0:0:0:
121,96,202239,2,0,L|61:96,1,60,2|0,0:3|0:0,0:0:0:0:
336,96,202499,6,0,B|352:96|352:96|400:96|400:96|416:96|416:112|416:112|416:128|416:144|416:144|416:160|400:160|400:160|352:160|352:160|337:160,1,210,2|0,3:2|0:0,0:0:0:0:
337,160,203021,2,0,L|338:221,1,60,10|0,3:2|0:0,0:0:0:0:
336,96,203282,2,0,L|335:36,1,60,2|0,0:2|0:0,0:0:0:0:
258,36,203543,2,0,L|259:96,1,60,2|0,3:2|0:0,0:0:0:0:
260,219,203804,2,0,L|260:160,1,60,2|0,0:3|0:0,0:0:0:0:
416,160,204065,1,10,3:2:0:0:
416,160,204456,5,2,0:2:0:0:
96,224,204847,5,2,0:2:0:0:
352,288,205173,5,2,0:2:0:0:
160,352,205499,5,2,0:2:0:0:
160,352,206021,1,0,0:0:0:0:
160,272,206151,2,0,L|128:272,1,30,8|0,0:1|0:0,0:0:0:0:
128,192,206543,5,0,3:0:0:0:
86,352,206673,2,0,B|70:352|70:352|54:352|54:336|54:336|54:233,1,143.999995605469,4|2,3:1|0:3,0:0:0:0:
86,32,207065,1,2,0:2:0:0:
128,192,207195,2,0,B|144:192|144:192|160:192|160:176|160:176|160:73,1,143.999995605469,0|2,1:0|0:3,0:0:0:0:
384,120,207586,6,0,L|384:192,1,71.9999978027344,2|0,0:2|3:0,0:0:0:0:
316,279,207847,1,2,0:2:0:0:
247,210,207978,1,2,0:3:0:0:
247,106,208108,1,2,0:2:0:0:
316,37,208239,1,0,1:0:0:0:
32,224,208499,5,2,0:3:0:0:
0,304,208630,1,2,0:2:0:0:
16,380,208760,2,0,B|144:380|144:380|160:380|160:364|160:364|160:302,1,215.999993408203,0|2,3:0|0:2,0:0:0:0:
312,220,209282,2,0,B|312:181|312:181|312:162|292:162|292:162|216:162|216:162|198:162|198:181|198:181|198:220,1,215.999993408203,0|2,1:0|0:2,0:0:0:0:
496,4,209804,2,0,B|368:4|368:4|352:4|352:20|352:20|352:82,1,215.999993408203,0|2,3:0|0:2,0:0:0:0:
429,82,210325,5,0,1:0:0:0:
411,152,210455,1,2,0:2:0:0:
463,205,210586,1,2,0:3:0:0:
411,258,210716,1,2,0:2:0:0:
429,328,210846,1,0,3:0:0:0:
357,205,210977,2,0,B|294:205|294:205|289:209|289:209|289:200|289:200|285:205|285:205|227:205,1,143.999995605469,2|2,0:2|0:2,0:0:0:0:
120,205,211369,5,0,1:0:0:0:
184,316,211630,1,2,0:3:0:0:
184,95,211891,1,0,3:0:0:0:
97,118,212021,1,2,0:2:0:0:
120,205,212151,1,2,0:3:0:0:
96,293,212282,1,2,0:2:0:0:
184,316,212412,1,0,1:0:0:0:
184,23,212673,6,0,L|184:119,1,71.9999978027344,2|2,0:3|0:2,0:0:0:0:
184,316,212934,1,0,3:0:0:0:
328,23,213195,6,0,L|328:119,1,71.9999978027344,2|2,0:3|0:2,0:0:0:0:
328,316,213456,1,0,1:0:0:0:
328,316,213717,2,0,L|256:316,1,71.9999978027344,2|2,0:3|0:2,0:0:0:0:
96,306,213978,6,0,B|96:266|96:266|96:250|112:250|112:250|190:250,1,143.999995605469,2|0,3:2|0:0,0:0:0:0:
316,250,214239,2,0,L|255:250,1,60,8|0,1:3|0:0,0:0:0:0:
96,104,214500,6,0,B|96:144|96:144|96:160|112:160|112:160|190:160,1,143.999995605469,2|0,1:2|0:0,0:0:0:0:
316,160,214761,2,0,L|255:160,1,60,4|2,3:3|0:3,0:0:0:0:
36,326,215021,6,0,B|93:326|93:326|111:326|111:306|111:306|111:268|111:268|111:248|131:248|131:248|188:249,1,215.999993408203,4|2,3:2|0:2,0:0:0:0:
304,286,215543,2,0,B|304:303|304:303|304:320|286:320|286:320|188:320,1,143.999995605469,0|2,1:0|0:3,0:0:0:0:
376,248,215934,6,0,L|376:319,1,71.9999978027344,2|0,0:2|3:0,0:0:0:0:
486,361,216195,1,2,0:2:0:0:
446,291,216325,1,2,0:3:0:0:
446,210,216455,1,2,0:2:0:0:
487,140,216586,1,0,1:0:0:0:
66,210,216847,5,2,0:3:0:0:
39,134,216978,1,2,0:2:0:0:
80,64,217108,2,0,B|80:25|80:25|80:6|99:6|99:6|175:6|175:6|194:6|194:25|194:25|194:64,1,215.999993408203,0|2,3:0|0:2,0:0:0:0:
236,230,217630,2,0,B|217:249|217:249|217:268|217:268|217:306|256:306|256:306|294:306|294:268|294:268|294:249|294:249|275:231,1,215.999993408203,0|2,1:0|0:2,0:0:0:0:
317,64,218151,2,0,B|317:25|317:25|317:6|336:6|336:6|412:6|412:6|432:6|432:25|432:25|432:64,1,215.999993408203,0|2,3:0|0:2,0:0:0:0:
374,121,218673,5,0,1:0:0:0:
430,177,218803,1,2,0:2:0:0:
486,233,218933,1,2,0:3:0:0:
430,290,219064,1,2,0:2:0:0:
374,346,219195,1,0,3:0:0:0:
374,233,219325,2,0,B|311:233|311:233|307:228|307:228|307:238|307:238|303:233|303:233|245:233,1,143.999995605469,2|2,0:2|0:2,0:0:0:0:
133,233,219717,5,0,1:0:0:0:
374,346,219978,1,2,0:3:0:0:
487,105,220238,1,0,3:0:0:0:
246,0,220499,1,2,0:3:0:0:
193,43,220630,1,2,0:2:0:0:
141,85,220761,1,0,1:0:0:0:
138,151,220891,2,0,B|200:151|200:151|204:155|204:155|204:145|204:145|208:151|208:151|266:151,1,143.999995605469,2|2,0:2|0:2,0:0:0:0:
379,151,221282,5,0,3:0:0:0:
26,151,221543,1,2,0:3:0:0:
246,302,221804,1,0,3:0:0:0:
257,227,221934,1,0,3:0:0:0:
267,151,222065,1,0,3:0:0:0:
256,76,222195,1,0,3:0:0:0:
246,0,222326,1,0,3:0:0:0:
171,11,222456,1,0,3:0:0:0:
95,21,222587,1,0,3:0:0:0:
105,97,222717,1,0,3:0:0:0:
181,87,222848,1,10,3:2:0:0:
171,291,223108,5,8,0:2:0:0:
105,205,223238,1,8,0:2:0:0:
246,302,223369,2,0,B|262:302|262:302|278:302|278:286|278:286|278:183,1,143.999995605469,4|2,3:2|0:3,0:0:0:0:
180,215,223760,1,2,0:2:0:0:
52,151,223891,2,0,B|36:151|36:151|20:151|20:167|20:167|20:270,1,143.999995605469,0|2,1:0|0:3,0:0:0:0:
95,353,224282,6,0,L|95:281,1,71.9999978027344,2|0,0:2|3:0,0:0:0:0:
95,81,224543,1,2,0:2:0:0:
164,12,224674,1,2,0:3:0:0:
268,12,224804,1,2,0:2:0:0:
337,81,224935,1,0,1:0:0:0:
208,288,225195,5,2,0:3:0:0:
176,352,225326,1,2,0:2:0:0:
244,372,225456,2,0,B|291:372|291:372|309:372|309:354|309:354|309:337|309:337|309:319|326:319|326:319|344:319|344:319|361:319|361:302|361:302|361:254,1,215.999993408203,0|2,3:0|0:2,0:0:0:0:
82,273,225978,2,0,B|33:226|33:226|0:192|33:158|33:158|84:109,1,215.999993408203,0|2,1:0|0:2,0:0:0:0:
361,129,226499,2,0,B|361:81|361:81|361:64|344:64|344:64|326:64|326:64|309:64|309:46|309:46|309:29|309:29|309:12|291:12|291:12|244:12,1,215.999993408203,0|2,3:0|0:2,0:0:0:0:
361,253,227021,5,0,1:0:0:0:
422,192,227151,1,2,0:2:0:0:
361,131,227282,1,2,0:3:0:0:
300,192,227412,1,2,0:2:0:0:
362,192,227543,1,0,3:0:0:0:
360,68,227673,2,0,B|297:68|297:68|292:72|292:72|292:63|292:63|288:68|288:68|230:68,1,143.999995605469,2|2,0:2|0:2,0:0:0:0:
480,68,228065,5,0,1:0:0:0:
480,316,228325,1,2,0:3:0:0:
97,244,228586,1,0,3:0:0:0:
97,139,228716,1,2,0:2:0:0:
202,139,228847,1,2,0:3:0:0:
202,244,228977,1,2,0:2:0:0:
150,192,229108,1,0,1:0:0:0:
150,86,229369,5,2,0:3:0:0:
202,33,229499,1,2,0:2:0:0:
98,33,229630,1,0,3:0:0:0:
150,298,229891,5,2,0:3:0:0:
202,351,230021,1,2,0:2:0:0:
98,351,230152,1,0,1:0:0:0:
44,192,230412,1,2,0:3:0:0:
98,33,230673,6,0,B|138:33|138:33|154:33|154:49|154:49|154:127,1,143.999995605469,2|0,3:2|0:0,0:0:0:0:
154,253,230934,2,0,L|154:192,1,60,8|0,1:3|0:0,0:0:0:0:
374,197,231195,6,0,B|374:237|374:237|374:253|358:253|358:253|280:253,1,143.999995605469,2|0,1:2|0:0,0:0:0:0:
154,253,231456,2,0,L|215:253,1,60,4|2,3:3|0:3,0:0:0:0:
377,40,231717,5,4,3:2:0:0:
313,39,231848,1,2,0:2:0:0:
312,103,231978,2,0,B|267:103|267:103|251:103|251:87|251:87|251:14,1,143.999995605469,2|0,0:3|1:0,0:0:0:0:
434,106,232369,2,0,B|390:106|390:106|374:106|374:122|374:122|374:197,1,143.999995605469,2|2,0:2|0:2,0:0:0:0:
240,368,232760,5,0,3:0:0:0:
315,312,232891,1,2,0:2:0:0:
286,223,233022,1,2,0:3:0:0:
192,223,233152,1,2,0:2:0:0:
163,312,233282,1,0,1:0:0:0:
240,16,233543,5,2,0:3:0:0:
315,72,233674,1,2,0:2:0:0:
163,72,233804,2,0,B|125:72|125:72|109:72|109:88|109:88|109:120|109:120|109:136|125:136|125:136|221:136,1,215.999993408203,0|2,3:0|0:2,0:0:0:0:
437,248,234325,2,0,B|476:248|476:248|495:248|495:228|495:228|495:152|495:152|495:134|476:134|476:134|437:134,1,215.999993408203,0|2,1:0|0:2,0:0:0:0:
163,312,234847,2,0,B|125:312|125:312|109:312|109:296|109:296|109:264|109:264|109:248|125:248|125:248|221:248,1,215.999993408203,0|2,3:0|0:2,0:0:0:0:
444,252,235369,5,0,1:0:0:0:
380,220,235499,1,2,0:2:0:0:
444,188,235630,1,2,0:3:0:0:
444,124,235761,1,2,0:2:0:0:
380,92,235891,1,0,3:0:0:0:
348,156,236021,2,0,B|285:156|285:156|280:151|280:151|280:160|280:160|276:156|276:156|218:156,1,143.999995605469,2|2,0:2|0:2,0:0:0:0:
444,60,236412,5,0,1:0:0:0:
444,252,236673,1,2,0:3:0:0:
92,252,236934,1,0,3:0:0:0:
92,60,237195,1,2,0:3:0:0:
444,252,237456,5,0,1:0:0:0:
384,192,237586,1,2,0:2:0:0:
323,131,237717,2,0,B|323:68|323:68|327:63|327:63|318:63|318:63|323:59|323:59|323:1,1,143.999995605469,2|0,0:3|3:0,0:0:0:0:
128,208,238108,1,2,0:2:0:0:
189,269,238239,2,0,L|190:342,1,71.9999978027344,2|2,0:3|0:2,0:0:0:0:
323,269,238499,2,0,L|321:342,1,71.9999978027344,0|0,3:0|3:0,0:0:0:0:
493,192,238760,6,0,B|477:192|477:192|473:188|473:188|473:196|473:196|469:192|469:192|441:192|441:192|437:196|437:196|437:188|437:188|433:192|433:192|405:192|405:192|401:188|401:188|401:196|401:196|397:192|397:192|381:192,1,145.799999054489,0|0,3:0|3:0,0:0:0:0:
256,176,239021,6,0,B|224:176|224:176|208:176|208:192|208:192|208:208|224:208|224:208|256:208|288:208|288:208|304:208|304:192|304:192|304:176|288:176|288:176|272:176,1,214.199995751038,0|0,3:0|3:0,0:0:0:0:
66,176,239543,6,0,L|37:176,1,26.9999991760254,10|0,3:2|0:0,0:0:0:0:
137,185,240065,6,0,L|137:239,2,53.9999983520508,2|0|0,3:2|0:0|0:0,0:0:0:0:
137,52,240456,1,0,0:0:0:0:
137,118,240586,1,8,0:0:0:0:
137,118,240847,2,0,L|191:118,1,53.9999983520508
375,199,241108,2,0,L|375:145,2,53.9999983520508,2|0|0,3:2|0:0|0:0,0:0:0:0:
321,265,241499,2,0,L|375:265,1,53.9999983520508,0|8,0:0|0:0,0:0:0:0:
443,266,242021,1,0,0:0:0:0:
375,265,242151,2,0,L|321:265,1,53.9999983520508,0|0,3:0|0:0,0:0:0:0:
321,79,242412,1,0,0:0:0:0:
389,78,242543,2,0,L|443:78,1,53.9999983520508,0|8,0:0|0:0,0:0:0:0:
442,78,242934,1,0,0:0:0:0:
442,146,243065,1,0,0:0:0:0:
377,146,243195,2,0,L|320:146,2,53.9999983520508,0|0|0,3:0|0:0|0:0,0:0:0:0:
258,146,243586,1,0,0:0:0:0:
190,146,243717,1,8,0:0:0:0:
190,146,243978,2,0,L|190:203,1,53.9999983520508
377,200,244238,6,0,L|377:141,2,53.9999983520508,0|0|0,3:0|0:0|0:0,0:0:0:0:
377,333,244629,1,0,0:0:0:0:
377,267,244759,1,8,0:0:0:0:
377,267,245020,2,0,L|317:267,1,53.9999983520508
139,186,245281,2,0,L|139:246,2,53.9999983520508,0|0|0,3:0|0:0|0:0,0:0:0:0:
192,119,245673,2,0,L|138:119,1,53.9999983520508,0|8,0:0|0:0,0:0:0:0:
71,119,246194,1,0,0:0:0:0:
139,120,246324,2,0,L|192:119,1,53.9999983520508,0|0,3:0|0:0,0:0:0:0:
193,306,246585,1,0,0:0:0:0:
125,307,246717,2,0,L|54:305,1,53.9999983520508,0|8,0:0|0:0,0:0:0:0:
72,307,247107,1,0,0:0:0:0:
72,239,247238,1,0,0:0:0:0:
137,239,247368,2,0,L|194:239,2,53.9999983520508,0|0|0,3:0|0:0|0:0,0:0:0:0:
256,239,247759,1,0,0:0:0:0:
324,239,247890,1,8,0:0:0:0:
324,239,248151,2,0,L|324:182,1,53.9999983520508
138,146,248412,6,0,L|138:87,2,53.9999983520508,0|0|0,3:0|0:0|0:0,0:0:0:0:
138,279,248803,1,0,0:0:0:0:
138,213,248933,1,8,0:0:0:0:
138,213,249194,2,0,L|198:213,1,53.9999983520508
376,132,249455,2,0,L|376:192,2,53.9999983520508,0|0|0,3:0|0:0|0:0,0:0:0:0:
322,65,249847,2,0,L|375:65,1,53.9999983520508,0|8,0:0|0:0,0:0:0:0:
444,65,250368,1,0,0:0:0:0:
376,66,250498,2,0,L|322:65,1,53.9999983520508,0|0,3:0|0:0,0:0:0:0:
322,252,250759,1,0,0:0:0:0:
390,253,250891,2,0,L|443:252,1,53.9999983520508,0|8,0:0|0:0,0:0:0:0:
443,253,251281,1,0,0:0:0:0:
443,185,251412,1,0,0:0:0:0:
378,185,251542,2,0,L|321:185,2,53.9999983520508,0|0|0,3:0|0:0|0:0,0:0:0:0:
259,185,251933,1,0,0:0:0:0:
191,185,252064,1,8,0:0:0:0:
191,185,252325,2,0,L|191:128,1,53.9999983520508
378,185,252586,6,0,L|378:126,2,53.9999983520508,0|0|0,3:0|0:0|0:0,0:0:0:0:
378,318,252977,1,0,0:0:0:0:
378,252,253107,1,8,0:0:0:0:
378,252,253368,2,0,L|318:252,1,53.9999983520508
140,171,253629,2,0,L|140:231,2,53.9999983520508,0|0|0,3:0|0:0|0:0,0:0:0:0:
193,104,254020,2,0,L|139:104,1,53.9999983520508,0|8,0:0|0:0,0:0:0:0:
72,104,254542,1,0,0:0:0:0:
140,105,254672,2,0,L|193:104,1,53.9999983520508,0|0,3:0|0:0,0:0:0:0:
194,291,254933,1,0,0:0:0:0:
126,292,255065,2,0,L|72:291,1,53.9999983520508,0|8,0:0|0:0,0:0:0:0:
73,292,255455,1,0,0:0:0:0:
73,224,255586,1,0,0:0:0:0:
138,224,255716,2,0,L|195:224,2,53.9999983520508,0|0|0,3:0|0:0|0:0,0:0:0:0:
257,224,256107,1,0,0:0:0:0:
325,224,256238,1,8,0:0:0:0:
325,224,256499,2,0,L|325:167,1,53.9999983520508
32,32,256760,6,0,L|32:89,1,48,0|0,3:0|0:0,0:0:0:0:
32,147,257021,1,0,0:0:0:0:
98,147,257151,1,0,0:0:0:0:
98,79,257282,1,8,0:0:0:0:
98,79,257543,2,0,L|98:22,1,48
164,31,257803,2,0,L|164:81,1,48,0|0,3:0|0:0,0:0:0:0:
164,146,258064,1,0,0:0:0:0:
231,146,258195,1,0,0:0:0:0:
231,79,258325,1,8,0:0:0:0:
231,79,258586,1,0,0:0:0:0:
231,11,258717,1,0,0:0:0:0:
297,11,258847,6,0,L|297:68,1,41.9999987182618,0|0,3:0|0:0,0:0:0:0:
297,120,259108,2,0,L|297:177,1,41.9999987182618
364,162,259369,1,8,0:0:0:0:
364,162,259630,2,0,L|364:105,1,41.9999987182618
364,53,259891,2,0,L|364:3,1,41.9999987182618,0|0,3:0|0:0,0:0:0:0:
431,11,260151,1,0,0:0:0:0:
431,78,260282,2,0,L|431:133,1,41.9999987182618,0|8,0:0|0:0,0:0:0:0:
431,120,260673,2,0,L|431:176,1,41.9999987182618
496,162,260934,6,0,L|496:211,1,35.9999989013672,0|0,3:0|0:0,0:0:0:0:
449,244,261195,2,0,L|410:244,2,35.9999989013672,0|0|8,0:0|0:0|0:0,0:0:0:0:
356,151,261717,1,0,0:0:0:0:
264,242,261977,2,0,L|264:167,1,71.9999978027344,0|0,3:0|0:0,0:0:0:0:
198,170,262369,2,0,L|150:170,1,35.9999989013672,0|8,0:0|0:0,0:0:0:0:
32,170,262760,1,0,0:0:0:0:
140,170,263021,6,0,L|140:234,1,60,0|0,3:0|0:0,0:0:0:0:
67,230,263543,1,8,0:0:0:0:
16,280,263804,1,0,0:0:0:0:
66,330,264064,2,0,L|129:330,2,60,0|0|8,3:0|0:0|0:0,0:0:0:0:
16,280,264847,1,0,0:0:0:0:
176,280,265108,6,0,L|276:280,1,96,0|8,3:0|0:0,0:0:0:0:
319,232,265891,1,0,0:0:0:0:
366,279,266151,2,0,L|466:279,1,96,0|8,3:0|0:0,0:0:0:0:
509,232,266934,1,0,0:0:0:0:
462,279,267195,6,0,L|383:279,1,71.9999978027344,0|8,3:0|0:0,0:0:0:0:
274,279,268238,2,0,L|195:279,1,71.9999978027344,0|8,3:0|0:0,0:0:0:0:
202,279,269282,6,0,L|202:327,3,48,0|8|0|8,3:0|0:0|3:0|0:0,0:0:0:0:
137,327,271369,6,0,L|137:375,1,48,0|0,3:0|3:0,0:0:0:0:
