osu file format v14

[General]
AudioFilename: audio.mp3
AudioLeadIn: 0
PreviewTime: 88645
Countdown: 0
SampleSet: Soft
StackLeniency: 0.7
Mode: 2
LetterboxInBreaks: 0
WidescreenStoryboard: 1

[Editor]
Bookmarks: 153529
DistanceSpacing: 0.8
BeatDivisor: 4
GridSize: 8
TimelineZoom: 1.8

[Metadata]
Title:Komorebi no Ballad
TitleUnicode:木漏れ日のバラード
Artist:Anpo Sayuri
ArtistUnicode:安保 さゆり
Creator:-Luminate
Version:Salad
Source:私が好きなら「好き」って言って!
Tags:Chuable Sugar+Spice 3 If you love me just say you love me! SukiSuki 好き好き anporin ending eroge visual novel galgame
BeatmapID:1890826
BeatmapSetID:906035

[Difficulty]
HPDrainRate:4
CircleSize:3
OverallDifficulty:7
ApproachRate:7
SliderMultiplier:3.15
SliderTickRate:2

[Events]
//Background and Video events
0,0,"ayeee.jpg",0,0
//Break Periods
//Storyboard Layer 0 (Background)
//Storyboard Layer 1 (Fail)
//Storyboard Layer 2 (Pass)
//Storyboard Layer 3 (Foreground)
//Storyboard Sound Samples

[TimingPoints]
2832,697.674418604651,4,2,1,40,1,0
60041,-100,4,3,0,40,0,0
60564,-100,4,3,1,40,0,0
61262,-100,4,2,1,5,0,0
61436,-100,4,2,1,60,0,0
89343,-100,4,2,1,70,0,1
91959,-100,4,2,1,5,0,1
92134,-100,4,2,1,70,0,1
97541,-100,4,2,1,5,0,1
97716,-100,4,2,1,70,0,1
110971,-100,4,2,1,60,0,0
111669,-100,4,2,1,70,0,1
114285,-100,4,2,1,5,0,1
114460,-100,4,2,1,70,0,1
119866,-100,4,2,1,5,0,1
120041,-100,4,2,1,70,0,1
136785,-100,4,2,1,50,0,0
137831,-100,4,3,0,50,0,0
137890,-100,4,3,0,5,0,0
138529,-100,4,2,1,50,0,0
139576,-100,4,2,1,40,0,0
156320,750,4,2,1,35,1,0
157070,789.473684210526,4,2,1,30,1,0
157858,882.352941176471,4,2,1,20,1,0
158740,967.741935483871,4,2,1,15,1,0
159673,697.674418604651,4,2,1,10,1,0

[Colours]
Combo1 : 252,146,95
Combo2 : 43,94,170

[HitObjects]
344,248,2832,6,0,L|520:104,2,157.5,2|0|0,0:3|0:0|0:0,0:0:0:0:
200,248,3878,1,2,0:3:0:0:
416,288,5273,2,0,L|424:152,1,78.75,0|0,0:0|0:0,0:0:0:0:
240,200,5622,6,0,L|56:72,2,157.5,2|0|0,0:3|0:0|0:0,0:0:0:0:
368,232,6668,1,2,0:3:0:0:
56,312,8413,6,0,L|208:176,2,157.5,2|0|0,0:3|0:0|0:3,0:0:0:0:
216,320,9459,2,0,P|296:288|160:160,1,315,2|2,0:3|0:3,0:0:0:0:
72,208,10506,2,0,L|216:112,1,157.5,0|0,0:3|0:3,0:0:0:0:
456,144,11204,6,0,L|192:336,2,315,2|0|0,0:3|0:0|0:0,0:0:0:0:
208,144,13297,1,2,0:3:0:0:
360,160,13645,2,0,L|368:280,1,78.75,0|0,0:0|0:0,0:0:0:0:
168,248,13994,5,2,0:3:0:0:
456,232,15390,1,0,0:0:0:0:
104,312,16785,6,0,L|88:144,1,157.5,2|0,0:3|0:0,0:0:0:0:
248,240,17483,2,0,L|256:80,1,157.5,8|0,0:3|0:0,0:0:0:0:
432,280,18180,2,0,L|424:112,1,157.5,2|2,0:0|0:0,0:0:0:0:
248,104,18878,1,8,0:3:0:0:
432,72,19227,1,0,0:0:0:0:
104,64,19576,6,0,L|88:256,1,157.5,2|0,0:3|0:0,0:0:0:0:
272,264,20273,2,0,L|112:296,1,157.5,8|0,0:3|0:0,0:0:0:0:
296,216,20971,2,0,L|432:328,2,157.5,2|2|8,0:0|0:0|0:3,0:0:0:0:
120,208,22018,1,0,0:0:0:0:
424,264,22366,6,0,P|496:136|352:64,1,315,2|8,0:3|0:3,0:0:0:0:
112,240,23762,2,0,L|248:128,1,157.5,2|0,0:3|0:0,0:0:0:0:
400,216,24459,2,0,L|408:48,1,157.5,8|2,0:3|0:0,0:0:0:0:
120,312,25157,6,0,P|48:240|184:128,1,315,2|8,0:0|0:3,0:0:0:0:
440,248,26552,2,0,L|448:80,1,157.5,2|0,0:3|0:0,0:0:0:0:
288,64,27250,1,8,0:3:0:0:
448,48,27599,1,2,0:0:0:0:
160,280,27948,6,0,P|48:216|64:32,1,315,2|8,0:0|0:3,0:0:0:0:
184,48,28994,1,0,0:0:0:0:
472,80,29343,2,0,P|464:208|288:264,1,315,2|8,0:3|0:3,0:0:0:0:
448,320,30390,1,2,0:0:0:0:
160,264,30738,6,0,P|88:184|256:104,1,315,2|8,0:0|0:3,0:0:0:0:
464,72,32134,2,0,L|328:192,1,157.5,2|0,0:3|0:0,0:0:0:0:
216,184,32832,1,8,0:3:0:0:
344,248,33180,1,2,0:0:0:0:
48,328,33529,6,0,L|40:128,1,157.5,2|0,0:0|0:0,0:0:0:0:
208,224,34227,2,0,L|216:64,1,157.5,8|0,0:3|0:0,0:0:0:0:
392,208,34925,2,0,L|376:40,1,157.5,2|0,0:0|0:0,0:0:0:0:
208,48,35622,2,0,L|56:168,1,157.5,8|2,0:3|0:0,0:0:0:0:
360,328,36320,6,0,P|456:256|352:128,1,315,2|8,0:0|0:3,0:0:0:0:
184,128,37366,1,2,0:0:0:0:
32,256,37715,2,0,P|88:88|224:48,1,315,2|8,0:0|0:3,0:0:0:0:
352,48,38762,1,0,0:0:0:0:
56,304,39111,6,0,L|288:112,2,236.25,4|8|2,0:0|0:3|0:3,0:0:0:0:
208,320,40506,2,0,P|296:256|176:112,1,315,2|8,0:0|0:3,0:0:0:0:
64,112,41552,1,2,0:0:0:0:
352,304,41901,6,0,L|120:112,2,236.25,2|8|0,0:0|0:3|0:0,0:0:0:0:
200,320,43296,2,0,P|112:256|224:112,1,315,2|8,0:0|0:3,0:0:0:0:
352,104,44342,1,0,0:0:0:0:
56,328,44692,6,0,P|96:192|304:136,1,315,2|8,0:0|0:3,0:0:0:0:
472,128,46087,2,0,L|344:248,1,157.5,2|0,0:3|0:0,0:0:0:0:
224,232,46785,2,0,L|392:352,1,157.5,8|2,0:3|0:0,0:0:0:0:
80,320,47483,6,0,P|0:256|128:128,1,315,2|8,0:0|0:3,0:0:0:0:
320,112,48878,2,0,L|192:232,1,157.5,2|2,0:0|0:0,0:0:0:0:
72,216,49576,2,0,L|224:352,1,157.5,8|2,0:3|0:0,0:0:0:0:
472,288,50273,6,0,P|440:176|216:112,1,315,2|8,0:0|0:3,0:0:0:0:
112,96,51320,1,2,0:0:0:0:
400,304,51669,2,0,P|504:232|392:96,1,315,2|8,0:0|0:3,0:0:0:0:
280,96,52715,1,2,0:0:0:0:
16,256,53064,6,0,P|56:120|240:96,1,315,2|8,0:0|0:3,0:0:0:0:
424,168,54459,1,2,0:0:0:0:
288,192,54808,1,2,0:0:0:0:
288,304,55157,1,8,0:3:0:0:
424,328,55506,1,2,0:0:0:0:
144,312,55855,6,0,P|56:240|168:120,1,315,2|8,0:3|0:3,0:0:0:0:
392,248,57250,2,0,P|480:184|352:64,1,315,0|8,0:0|0:3,0:0:0:0:
216,56,58297,1,2,0:0:0:0:
472,144,58645,6,0,L|480:376,1,157.5,2|0,0:0|0:0,0:0:0:0:
336,320,59343,1,8,0:3:0:0:
480,328,59692,1,2,0:0:0:0:
200,320,60041,2,0,P|88:264|72:176,1,157.5,8|0,0:0|0:3,0:0:0:0:
152,224,60564,1,2,0:2:0:0:
216,192,60738,1,2,0:2:0:0:
216,120,60913,1,0,0:0:0:0:
144,104,61087,1,2,0:2:0:0:
400,88,61436,5,4,0:0:0:0:
464,144,61611,2,0,L|288:144,1,157.5,2|2,0:0|0:0,0:0:0:0:
208,152,62134,2,0,P|168:240|224:288,1,157.5,8|0,0:0|0:0,0:0:0:0:
304,280,62657,1,2,0:0:0:0:
464,200,63006,1,2,0:0:0:0:
296,136,63355,1,2,0:0:0:0:
104,144,63878,2,0,L|96:48,1,78.75,0|0,0:0|0:0,0:0:0:0:
256,56,64227,5,2,0:0:0:0:
328,64,64401,2,0,P|360:144|288:200,1,157.5,0|0,0:0|0:0,0:0:0:0:
224,208,64925,2,0,P|184:272|248:336,1,157.5,8|0,0:0|0:0,0:0:0:0:
400,336,65448,2,0,P|496:296|376:96,1,393.75,2|8,0:0|0:0,0:0:0:0:
80,72,67018,6,0,L|232:200,1,157.5,8|0,0:0|0:0,0:0:0:0:
384,200,67715,2,0,L|232:312,1,157.5,8|0,0:0|0:0,0:0:0:0:
96,320,68413,2,0,L|88:128,1,157.5,2|2,0:0|0:0,0:0:0:0:
232,136,69111,1,8,0:0:0:0:
88,104,69459,1,0,0:0:0:0:
376,304,69808,6,0,P|456:264|336:120,1,315,2|8,0:0|0:0,0:0:0:0:
168,64,70855,1,0,0:0:0:0:
96,72,71029,2,0,P|24:152|192:312,1,393.75,2|8,0:0|0:0,0:0:0:0:
360,304,72250,2,0,L|368:192,1,78.75,8|8,0:0|0:0,0:0:0:0:
184,88,72599,5,4,0:0:0:0:
112,144,72774,2,0,L|288:144,1,157.5,0|0,0:0|0:0,0:0:0:0:
368,152,73297,2,0,P|408:240|352:288,1,157.5,8|0,0:0|0:0,0:0:0:0:
272,280,73820,1,2,0:0:0:0:
112,200,74169,1,2,0:0:0:0:
280,136,74518,1,0,0:0:0:0:
472,144,75041,2,0,L|480:48,1,78.75,0|0,0:0|0:0,0:0:0:0:
296,48,75390,6,0,P|200:80|168:288,1,315,2|8,0:0|0:0,0:0:0:0:
336,264,76436,1,0,0:0:0:0:
400,256,76611,2,0,P|440:184|328:104,1,236.25,0|2,0:0|0:0,0:0:0:0:
152,192,77483,2,0,L|136:8,1,157.5,8|0,0:0|0:0,0:0:0:0:
432,80,78180,6,0,L|168:320,1,315,2|8,0:0|0:0,0:0:0:0:
416,320,79227,2,0,P|448:224|408:176,1,157.5,2|0,0:0|0:0,0:0:0:0:
264,168,79925,1,2,0:0:0:0:
416,128,80273,1,8,0:0:0:0:
144,296,80622,6,0,P|48:192|176:88,1,315,0|0,0:0|0:0,0:0:0:0:
296,80,81669,1,8,0:0:0:0:
456,80,82018,1,0,0:0:0:0:
296,240,82366,2,0,L|136:112,2,157.5,2|2|8,0:0|0:0|0:0,0:0:0:0:
456,304,83413,1,0,0:0:0:0:
184,296,83762,6,0,P|72:248|48:48,1,315,4|8,0:0|0:0,0:0:0:0:
240,128,85157,2,0,L|392:16,2,157.5,2|2|8,0:0|0:0|0:0,0:0:0:0:
64,192,86204,2,0,L|144:248,1,78.75,0|0,0:0|0:0,0:0:0:0:
296,264,86552,5,2,0:0:0:0:
440,240,86901,1,8,0:0:0:0:
296,152,87250,1,8,0:0:0:0:
440,120,87599,1,8,0:0:0:0:
160,112,87948,1,2,0:0:0:0:
440,144,88645,2,0,L|448:344,1,157.5,2|0,0:3|0:0,0:0:0:0:
152,320,89343,6,0,P|64:224|184:136,1,315,4|8,0:0|0:0,0:0:0:0:
336,144,90390,1,0,0:0:0:0:
184,160,90738,2,0,L|56:280,1,157.5,2|2,0:0|0:0,0:0:0:0:
224,336,91436,2,0,L|376:208,1,157.5,8|0,0:0|0:0,0:0:0:0:
56,216,92134,6,0,P|72:104|280:56,1,315,2|8,0:3|0:0,0:0:0:0:
392,40,93180,1,0,0:0:0:0:
240,104,93529,2,0,L|376:232,1,157.5,2|2,0:0|0:0,0:0:0:0:
208,240,94227,2,0,L|88:352,1,157.5,8|0,0:0|0:0,0:0:0:0:
392,336,94925,6,0,P|480:288|360:136,1,315,2|8,0:3|0:0,0:0:0:0:
248,144,95971,1,0,0:0:0:0:
96,256,96320,2,0,L|80:72,1,157.5,2|2,0:3|0:0,0:0:0:0:
336,40,97018,2,0,L|480:176,1,157.5,8|0,0:0|0:0,0:0:0:0:
160,336,97715,6,0,P|64:240|192:160,1,315,2|8,0:3|0:0,0:0:0:0:
336,224,98762,2,0,L|344:104,1,78.75,0|0,0:0|0:0,0:0:0:0:
232,264,99111,2,0,P|136:232|24:40,1,315,2|8,0:0|0:0,0:0:0:0:
288,144,100506,6,0,L|152:40,2,157.5,4|0|8,0:0|0:0|0:0,0:0:0:0:
432,176,101552,1,2,0:0:0:0:
272,160,101901,2,0,P|344:320|480:328,1,315,2|8,0:0|0:0,0:0:0:0:
96,336,103297,6,0,P|16:224|160:120,1,315,2|8,0:3|0:0,0:0:0:0:
272,120,104343,1,2,0:0:0:0:
432,296,104692,2,0,P|480:216|328:96,1,315,2|8,0:0|0:0,0:0:0:0:
488,80,105738,1,0,0:0:0:0:
208,272,106087,6,0,L|80:144,1,157.5,2|0,0:3|0:0,0:0:0:0:
272,192,106785,2,0,L|400:88,1,157.5,8|0,0:0|0:0,0:0:0:0:
224,328,107483,2,0,L|368:216,1,157.5,2|2,0:0|0:0,0:0:0:0:
176,200,108180,2,0,L|32:80,1,157.5,8|0,0:0|0:0,0:0:0:0:
352,304,108878,6,0,P|456:264|336:144,1,315,2|4,0:3|0:0,0:0:0:0:
192,128,109925,2,0,L|104:72,1,78.75,0|0,0:0|0:0,0:0:0:0:
216,264,110273,2,0,L|400:144,1,157.5,2|2,0:0|0:0,0:0:0:0:
160,160,110971,2,0,L|24:56,1,157.5,4|0,0:0|0:0,0:0:0:0:
360,320,111669,6,0,P|448:224|328:136,1,315,4|8,0:0|0:0,0:0:0:0:
176,144,112716,1,0,0:0:0:0:
328,160,113064,2,0,L|456:280,1,157.5,2|2,0:0|0:0,0:0:0:0:
288,336,113762,2,0,L|136:208,1,157.5,8|0,0:0|0:0,0:0:0:0:
456,216,114460,6,0,P|440:104|232:56,1,315,2|8,0:3|0:0,0:0:0:0:
120,40,115506,1,2,0:3:0:0:
272,104,115855,2,0,L|136:232,1,157.5,2|2,0:0|0:0,0:0:0:0:
304,240,116553,2,0,L|424:352,1,157.5,8|2,0:0|0:0,0:0:0:0:
120,336,117251,6,0,P|32:288|152:136,1,315,2|8,0:3|0:0,0:0:0:0:
264,144,118297,1,2,0:3:0:0:
416,256,118646,2,0,L|432:72,1,157.5,2|2,0:0|0:0,0:0:0:0:
176,40,119344,2,0,L|32:176,1,157.5,8|0,0:0|0:0,0:0:0:0:
352,336,120041,6,0,P|448:240|320:160,1,315,2|8,0:3|0:0,0:0:0:0:
176,160,121087,1,2,0:0:0:0:
352,136,121436,2,0,L|360:40,1,78.75,2|8,0:0|0:0,0:0:0:0:
272,48,121785,1,2,0:0:0:0:
120,64,122134,1,8,0:0:0:0:
272,112,122483,1,2,0:0:0:0:
16,288,122831,6,0,P|48:176|240:120,1,315,2|8,0:3|0:0,0:0:0:0:
400,320,123878,2,0,P|264:264|216:64,1,315,2|2,0:0|0:0,0:0:0:0:
368,200,124925,2,0,L|480:64,1,157.5,8|0,0:0|0:0,0:0:0:0:
160,168,125622,6,0,L|8:48,2,157.5,2|2|8,0:0|0:0|0:0,0:0:0:0:
424,336,126669,2,0,P|496:264|392:112,1,315,4|2,0:0|0:0,0:0:0:0:
256,96,127715,1,8,0:0:0:0:
416,64,128064,1,2,0:0:0:0:
120,280,128413,6,0,L|112:104,1,157.5,2|0,0:3|0:0,0:0:0:0:
272,120,129111,1,8,0:0:0:0:
112,64,129459,1,2,0:0:0:0:
392,328,129808,2,0,P|496:256|360:152,1,315,2|8,0:3|0:0,0:0:0:0:
112,232,130855,6,0,L|424:80,1,315,2|2,0:3|0:0,0:0:0:0:
224,128,131901,2,0,L|72:24,1,157.5,4|0,0:0|0:0,0:0:0:0:
392,320,132599,2,0,L|408:152,1,157.5,2|2,0:0|0:0,0:0:0:0:
248,144,133297,1,4,0:0:0:0:
408,120,133645,1,0,0:0:0:0:
112,320,133994,6,0,P|24:224|152:128,1,315,4|8,0:0|0:0,0:0:0:0:
304,120,135041,1,2,0:0:0:0:
136,256,135390,2,0,L|128:112,1,78.75,2|8,0:0|0:0,0:0:0:0:
216,176,135738,1,2,0:0:0:0:
400,176,136087,2,0,L|472:112,2,78.75,8|0|2,0:0|0:0|0:0,0:0:0:0:
120,176,136785,5,6,0:0:0:0:
456,240,137831,1,2,0:0:0:0:
104,256,138529,2,0,L|96:80,1,157.5,2|2,0:0|0:0,0:0:0:0:
408,312,139576,6,0,L|424:144,1,157.5,2|0,0:3|0:0,0:0:0:0:
264,240,140274,2,0,L|256:80,1,157.5,8|0,0:3|0:0,0:0:0:0:
80,280,140971,2,0,L|88:112,1,157.5,2|2,0:0|0:0,0:0:0:0:
264,104,141669,1,8,0:3:0:0:
80,72,142018,1,0,0:0:0:0:
408,64,142367,6,0,L|424:256,1,157.5,2|0,0:3|0:0,0:0:0:0:
240,264,143064,2,0,L|400:296,1,157.5,8|0,0:3|0:0,0:0:0:0:
216,216,143762,2,0,L|80:328,2,157.5,2|2|8,0:0|0:0|0:3,0:0:0:0:
392,208,144809,1,0,0:0:0:0:
88,264,145157,6,0,P|16:136|160:64,1,315,2|8,0:3|0:3,0:0:0:0:
400,240,146553,2,0,L|264:128,1,157.5,2|0,0:3|0:0,0:0:0:0:
112,216,147250,2,0,L|104:48,1,157.5,8|2,0:3|0:0,0:0:0:0:
392,312,147948,6,0,P|464:240|328:128,1,315,2|8,0:0|0:3,0:0:0:0:
72,248,149343,2,0,L|64:80,1,157.5,2|0,0:3|0:0,0:0:0:0:
224,64,150041,1,8,0:3:0:0:
64,48,150390,1,2,0:0:0:0:
352,280,150739,6,0,P|464:216|448:32,1,315,2|8,0:0|0:3,0:0:0:0:
328,48,151785,1,2,0:0:0:0:
40,80,152134,2,0,P|48:208|224:264,1,315,2|8,0:0|0:3,0:0:0:0:
64,320,153181,1,2,0:0:0:0:
352,264,153529,6,0,P|424:184|256:104,1,315,2|8,0:3|0:3,0:0:0:0:
136,80,154576,2,0,L|-16:216,2,157.5,0|2|0,0:0|0:3|0:0,0:0:0:0:
296,88,155622,2,0,L|464:232,1,157.5,8|0,0:3|0:0,0:0:0:0:
144,320,156320,6,0,L|136:136,1,157.5,2|0,0:3|0:0,0:0:0:0:
344,248,157070,2,0,L|360:72,1,157.5,8|0,0:3|0:0,0:0:0:0:
176,120,157858,2,0,L|368:80,1,157.5,2|0,0:3|0:0,0:0:0:0:
128,320,158740,6,0,P|72:232|144:152,1,157.5,8|0,0:3|0:0,0:0:0:0:
336,192,159673,1,0,0:3:0:0:
256,192,160021,12,0,164207,0:0:0:0:
