osu file format v14

[General]
AudioFilename: audio.mp3
AudioLeadIn: 0
PreviewTime: 88645
Countdown: 0
SampleSet: Soft
StackLeniency: 0.7
Mode: 2
LetterboxInBreaks: 0
WidescreenStoryboard: 1

[Editor]
Bookmarks: 153529
DistanceSpacing: 0.8
BeatDivisor: 4
GridSize: 8
TimelineZoom: 1.8

[Metadata]
Title:Komorebi no Ballad
TitleUnicode:木漏れ日のバラード
Artist:Anpo Sayuri
ArtistUnicode:安保 さゆり
Creator:-Luminate
Version:Cup
Source:私が好きなら「好き」って言って!
Tags:Chuable Sugar+Spice 3 If you love me just say you love me! SukiSuki 好き好き anporin ending eroge visual novel galgame
BeatmapID:1890825
BeatmapSetID:906035

[Difficulty]
HPDrainRate:3
CircleSize:2.5
OverallDifficulty:6
ApproachRate:6
SliderMultiplier:2.9
SliderTickRate:1

[Events]
//Background and Video events
0,0,"ayeee.jpg",0,0
//Break Periods
//Storyboard Layer 0 (Background)
//Storyboard Layer 1 (Fail)
//Storyboard Layer 2 (Pass)
//Storyboard Layer 3 (Foreground)
//Storyboard Sound Samples

[TimingPoints]
2832,697.674418604651,4,2,1,40,1,0
60041,-100,4,3,0,40,0,0
60564,-100,4,3,1,40,0,0
61262,-100,4,2,1,5,0,0
61436,-100,4,2,1,60,0,0
89343,-100,4,2,1,70,0,1
91959,-100,4,2,1,5,0,1
92134,-100,4,2,1,70,0,1
97541,-100,4,2,1,5,0,1
97716,-100,4,2,1,70,0,1
110971,-100,4,2,1,60,0,0
111669,-100,4,2,1,70,0,1
114285,-100,4,2,1,5,0,1
114460,-100,4,2,1,70,0,1
119866,-100,4,2,1,5,0,1
120041,-100,4,2,1,70,0,1
136785,-100,4,2,1,50,0,0
137831,-100,4,3,0,50,0,0
137890,-100,4,3,0,5,0,0
138529,-100,4,2,1,50,0,0
139576,-100,4,2,1,40,0,0
156320,750,4,2,1,35,1,0
157070,789.473684210526,4,2,1,30,1,0
157858,882.352941176471,4,2,1,20,1,0
158740,967.741935483871,4,2,1,15,1,0
159673,697.674418604651,4,2,1,10,1,0

[Colours]
Combo1 : 252,146,95
Combo2 : 43,94,170

[HitObjects]
144,176,2832,6,0,L|24:72,2,145,2|0|0,0:3|0:0|0:0,0:0:0:0:
256,176,3878,1,2,0:3:0:0:
448,168,5273,1,0,0:0:0:0:
304,304,5622,6,0,L|312:120,1,145,2|0,0:3|0:0,0:0:0:0:
456,160,6320,1,0,0:0:0:0:
288,160,6669,1,2,0:3:0:0:
64,176,8413,6,0,L|56:24,1,145,2|0,0:3|0:0,0:0:0:0:
184,32,9111,1,0,0:3:0:0:
312,32,9459,1,2,0:3:0:0:
96,288,10157,2,0,L|24:128,2,145,2|0|0,0:3|0:3|0:3,0:0:0:0:
224,288,11204,5,2,0:3:0:0:
440,288,11901,1,0,0:0:0:0:
224,192,12599,1,0,0:0:0:0:
448,192,13297,1,2,0:3:0:0:
128,136,13994,5,2,0:3:0:0:
464,144,15390,1,0,0:0:0:0:
160,240,16785,6,0,L|-8:64,2,217.5,2|0|0,0:3|0:0|0:0,0:0:0:0:
328,232,18180,2,0,P|248:96|96:64,1,290,2|8,0:0|0:3,0:0:0:0:
360,280,19576,6,0,L|528:104,2,217.5,2|0|0,0:3|0:0|0:0,0:0:0:0:
192,272,20971,2,0,P|256:136|424:96,1,290,2|8,0:0|0:3,0:0:0:0:
224,96,22018,1,0,0:0:0:0:
72,248,22366,6,0,P|24:160|144:24,1,290,2|8,0:3|0:3,0:0:0:0:
384,56,23762,2,0,L|120:272,1,290,2|8,0:3|0:3,0:0:0:0:
416,312,25157,6,0,P|488:240|344:104,1,290,2|8,0:0|0:3,0:0:0:0:
104,192,26552,1,2,0:3:0:0:
208,96,26901,1,0,0:0:0:0:
328,96,27250,1,8,0:3:0:0:
432,200,27599,1,2,0:0:0:0:
288,144,27948,6,0,P|200:192|320:312,1,290,2|8,0:0|0:3,0:0:0:0:
448,320,28994,1,0,0:0:0:0:
448,216,29343,2,0,P|416:104|224:64,1,290,2|8,0:3|0:3,0:0:0:0:
104,48,30390,1,2,0:0:0:0:
96,168,30738,6,0,P|152:304|312:312,1,290,2|8,0:0|0:3,0:0:0:0:
88,240,32134,2,0,L|40:48,2,145,2|0|8,0:3|0:0|0:3,0:0:0:0:
224,240,33180,1,2,0:0:0:0:
360,240,33529,6,0,P|448:160|328:64,1,290,2|8,0:0|0:3,0:0:0:0:
96,56,34925,2,0,P|136:216|264:248,1,290,2|8,0:0|0:3,0:0:0:0:
480,160,36320,6,0,P|464:280|264:336,1,290,2|8,0:0|0:3,0:0:0:0:
80,272,37715,2,0,P|72:144|216:64,1,290,2|8,0:0|0:3,0:0:0:0:
400,72,39111,6,0,L|232:224,2,217.5,4|8|2,0:0|0:3|0:3,0:0:0:0:
256,64,40506,2,0,P|128:136|128:272,1,290,2|8,0:0|0:3,0:0:0:0:
336,336,41901,6,0,L|488:168,2,217.5,2|8|0,0:0|0:3|0:0,0:0:0:0:
192,336,43297,2,0,P|128:320|80:120,1,290,2|8,0:0|0:3,0:0:0:0:
216,152,44343,1,0,0:0:0:0:
352,136,44692,6,0,P|448:232|320:328,1,290,2|8,0:0|0:3,0:0:0:0:
64,328,46087,2,0,L|304:136,2,290,2|8|2,0:3|0:3|0:0,0:0:0:0:
224,328,48180,1,8,0:3:0:0:
416,328,48878,6,0,L|424:160,1,145,2|2,0:0|0:0,0:0:0:0:
288,152,49576,1,8,0:3:0:0:
160,120,49925,1,2,0:0:0:0:
304,96,50273,6,0,P|376:192|224:304,1,290,2|8,0:0|0:3,0:0:0:0:
144,320,51320,1,2,0:0:0:0:
104,216,51669,2,0,P|136:104|328:64,1,290,2|8,0:0|0:3,0:0:0:0:
448,48,52716,1,2,0:0:0:0:
448,144,53064,6,0,P|400:304|240:312,1,290,2|8,0:0|0:3,0:0:0:0:
464,240,54460,2,0,L|512:48,2,145,2|2|8,0:0|0:0|0:3,0:0:0:0:
328,240,55506,1,2,0:0:0:0:
192,240,55855,6,0,P|104:160|224:64,1,290,2|8,0:3|0:3,0:0:0:0:
448,80,57250,2,0,P|392:240|248:272,1,290,0|8,0:0|0:3,0:0:0:0:
152,264,58297,1,2,0:0:0:0:
48,200,58645,6,0,P|48:104|224:48,1,290,2|8,0:0|0:3,0:0:0:0:
456,88,60041,2,0,L|248:232,1,217.5,8|2,0:0|0:2,0:0:0:0:
336,224,60738,2,0,L|432:224,2,72.5,2|0|2,0:2|0:0|0:2,0:0:0:0:
176,256,61436,5,4,0:0:0:0:
176,216,61611,2,0,P|224:136|296:128,1,145,2|2,0:0|0:0,0:0:0:0:
312,128,62134,1,8,0:0:0:0:
96,112,62657,2,0,L|64:288,2,145,2|2|2,0:0|0:0|0:0,0:0:0:0:
280,96,63878,1,0,0:0:0:0:
392,272,64227,6,0,L|400:192,1,72.5,2|0,0:0|0:0,0:0:0:0:
224,176,64750,2,0,L|216:88,1,72.5,0|8,0:0|0:0,0:0:0:0:
376,88,65273,1,0,0:0:0:0:
408,112,65448,2,0,P|472:160|312:336,1,362.5,2|8,0:0|0:0,0:0:0:0:
96,320,67018,6,0,L|88:160,1,145,8|0,0:0|0:0,0:0:0:0:
208,160,67715,1,8,0:0:0:0:
80,136,68064,1,0,0:0:0:0:
224,136,68413,2,0,L|360:24,2,145,2|2|8,0:0|0:0|0:0,0:0:0:0:
80,136,69459,1,0,0:0:0:0:
240,136,69808,6,0,P|368:184|368:352,1,290,2|8,0:0|0:0,0:0:0:0:
224,328,70855,1,0,0:0:0:0:
176,328,71029,2,0,P|88:304|88:56,1,362.5,2|8,0:0|0:0,0:0:0:0:
200,72,72250,1,8,0:0:0:0:
352,248,72599,5,4,0:0:0:0:
352,208,72774,2,0,P|304:128|232:120,1,145,0|0,0:0|0:0,0:0:0:0:
216,112,73297,1,8,0:0:0:0:
424,104,73820,2,0,L|456:280,2,145,2|2|0,0:0|0:0|0:0,0:0:0:0:
216,96,75041,1,0,0:0:0:0:
80,120,75390,6,0,P|32:264|144:272,1,290,2|8,0:0|0:0,0:0:0:0:
352,256,76785,2,0,L|472:144,2,145,2|2|8,0:0|0:0|0:0,0:0:0:0:
88,296,78180,6,0,P|104:192|272:112,1,290,2|8,0:0|0:0,0:0:0:0:
392,288,79227,2,0,P|376:184|208:104,1,290,2|2,0:0|0:0,0:0:0:0:
96,104,80273,1,8,0:0:0:0:
352,128,80971,6,0,P|424:168|328:296,1,290,2|8,0:0|0:0,0:0:0:0:
208,296,82018,2,0,L|88:184,2,145,0|2|2,0:0|0:0|0:0,0:0:0:0:
336,296,83064,1,8,0:0:0:0:
64,304,83762,6,0,P|40:208|184:96,1,290,4|8,0:0|0:0,0:0:0:0:
424,104,85157,2,0,P|416:256|248:312,1,290,2|8,0:0|0:0,0:0:0:0:
184,320,86204,1,0,0:0:0:0:
56,232,86552,5,2,0:0:0:0:
104,128,86901,1,8,0:0:0:0:
208,80,87250,1,8,0:0:0:0:
328,88,87599,1,8,0:0:0:0:
432,152,87948,1,2,0:0:0:0:
168,328,88645,2,0,L|152:136,1,145,2|0,0:3|0:0,0:0:0:0:
320,224,89343,6,0,P|400:168|296:48,1,290,4|8,0:0|0:0,0:0:0:0:
200,224,90390,1,0,0:0:0:0:
80,224,90738,1,2,0:0:0:0:
352,264,91436,1,8,0:0:0:0:
96,264,92134,6,0,P|16:176|144:72,1,290,2|8,0:3|0:0,0:0:0:0:
232,64,93180,1,0,0:0:0:0:
352,64,93529,1,2,0:0:0:0:
104,280,94227,2,0,L|96:136,1,145,8|0,0:0|0:0,0:0:0:0:
224,112,94925,6,0,P|344:136|384:320,1,290,2|8,0:3|0:0,0:0:0:0:
272,304,95971,1,0,0:0:0:0:
400,336,96320,1,2,0:3:0:0:
128,328,97018,1,8,0:0:0:0:
408,256,97715,6,0,P|480:192|352:104,1,290,2|8,0:3|0:0,0:0:0:0:
208,104,98762,2,0,L|120:176,2,72.5,0|0|2,0:0|0:0|0:0,0:0:0:0:
416,160,99808,2,0,L|304:256,1,145,8|0,0:0|0:0,0:0:0:0:
160,256,100506,6,0,P|88:192|208:80,1,290,4|8,0:0|0:0,0:0:0:0:
336,80,101552,1,2,0:0:0:0:
472,80,101901,1,2,0:0:0:0:
192,192,102599,1,8,0:0:0:0:
464,320,103297,6,0,P|440:208|264:136,1,290,2|8,0:3|0:0,0:0:0:0:
160,136,104343,1,2,0:0:0:0:
40,136,104692,1,2,0:0:0:0:
304,280,105390,1,8,0:0:0:0:
48,304,106087,6,0,P|80:184|248:128,1,290,2|8,0:3|0:0,0:0:0:0:
464,304,107483,2,0,P|432:184|264:128,1,290,2|8,0:0|0:0,0:0:0:0:
64,48,108878,6,0,P|112:192|256:256,1,290,2|4,0:3|0:0,0:0:0:0:
96,328,109925,2,0,L|24:264,2,72.5,0|0|2,0:0|0:0|0:0,0:0:0:0:
336,336,110971,2,0,L|344:160,1,145,4|0,0:0|0:0,0:0:0:0:
192,224,111669,6,0,P|112:168|216:48,1,290,4|8,0:0|0:0,0:0:0:0:
312,224,112716,1,0,0:0:0:0:
432,224,113064,1,2,0:0:0:0:
160,264,113762,1,8,0:0:0:0:
416,264,114460,6,0,P|496:176|368:72,1,290,2|8,0:3|0:0,0:0:0:0:
280,64,115506,1,2,0:3:0:0:
160,64,115855,1,2,0:0:0:0:
408,280,116553,2,0,L|416:136,1,145,8|2,0:0|0:0,0:0:0:0:
288,112,117251,6,0,P|168:136|128:320,1,290,2|8,0:3|0:0,0:0:0:0:
240,304,118297,1,2,0:3:0:0:
112,336,118646,1,2,0:0:0:0:
384,328,119344,1,8,0:0:0:0:
104,256,120041,6,0,P|32:192|160:104,1,290,2|8,0:3|0:0,0:0:0:0:
392,104,121436,2,0,L|504:8,2,145,2|2|8,0:0|0:0|0:0,0:0:0:0:
136,128,122831,6,0,P|184:240|368:280,1,290,2|8,0:3|0:0,0:0:0:0:
192,120,123878,2,0,P|80:152|40:320,1,290,2|2,0:0|0:0,0:0:0:0:
160,304,124925,1,8,0:0:0:0:
448,296,125622,6,0,L|464:144,1,145,2|2,0:0|0:0,0:0:0:0:
328,152,126320,1,8,0:0:0:0:
184,152,126669,2,0,P|88:240|208:312,1,290,4|2,0:0|0:0,0:0:0:0:
328,320,127715,6,0,L|456:224,2,145,8|2|2,0:0|0:0|0:3,0:0:0:0:
128,320,129111,2,0,L|8:200,2,145,8|2|2,0:0|0:0|0:3,0:0:0:0:
384,304,130506,1,8,0:0:0:0:
264,280,130855,6,0,P|176:200|296:112,1,290,2|2,0:3|0:0,0:0:0:0:
400,112,131901,1,4,0:0:0:0:
120,112,132599,1,2,0:0:0:0:
384,136,133297,2,0,L|392:280,1,145,4|0,0:0|0:0,0:0:0:0:
256,304,133994,6,0,P|136:272|72:104,1,290,4|8,0:0|0:0,0:0:0:0:
288,120,135390,2,0,L|392:32,2,72.5,2|8|2,0:0|0:0|0:0,0:0:0:0:
136,144,136087,2,0,L|128:296,1,145,8|2,0:0|0:0,0:0:0:0:
288,288,136785,5,6,0:0:0:0:
48,184,137831,1,2,0:0:0:0:
336,320,138529,2,0,L|328:176,1,145,2|2,0:0|0:0,0:0:0:0:
200,176,139227,1,2,0:3:0:0:
352,240,139576,6,0,L|520:64,2,217.5,2|0|0,0:3|0:0|0:0,0:0:0:0:
184,232,140971,2,0,P|264:96|416:64,1,290,2|8,0:0|0:3,0:0:0:0:
152,280,142367,6,0,L|-16:104,2,217.5,2|0|0,0:3|0:0|0:0,0:0:0:0:
320,272,143762,2,0,P|256:136|88:96,1,290,2|8,0:0|0:3,0:0:0:0:
288,96,144809,1,0,0:0:0:0:
440,248,145157,6,0,P|488:160|368:24,1,290,2|8,0:3|0:3,0:0:0:0:
128,56,146553,2,0,L|392:272,1,290,2|8,0:3|0:3,0:0:0:0:
96,312,147948,6,0,P|24:240|168:104,1,290,2|8,0:0|0:3,0:0:0:0:
408,192,149343,1,2,0:3:0:0:
304,96,149692,1,0,0:0:0:0:
184,96,150041,1,8,0:3:0:0:
80,200,150390,1,2,0:0:0:0:
224,144,150739,6,0,P|312:192|192:312,1,290,2|8,0:0|0:3,0:0:0:0:
64,320,151785,1,2,0:0:0:0:
64,216,152134,2,0,P|96:104|288:64,1,290,2|8,0:0|0:3,0:0:0:0:
408,48,153181,1,2,0:0:0:0:
416,168,153529,6,0,P|360:304|200:312,1,290,2|8,0:3|0:3,0:0:0:0:
104,264,154576,2,0,L|96:104,1,145,0|2,0:0|0:3,0:0:0:0:
232,128,155273,2,0,L|352:32,2,145,0|8|0,0:0|0:3|0:0,0:0:0:0:
88,128,156320,5,2,0:3:0:0:
352,136,157070,1,8,0:3:0:0:
80,232,157858,1,2,0:3:0:0:
376,288,158740,2,0,P|408:208|376:144,1,145,8|0,0:3|0:0,0:0:0:0:
176,160,159673,5,0,0:3:0:0:
256,192,160021,12,0,164207,0:0:0:0:
