osu file format v14

[General]
AudioFilename: audio.mp3
AudioLeadIn: 0
PreviewTime: 3587
Countdown: 0
SampleSet: None
StackLeniency: 0.7
Mode: 0
LetterboxInBreaks: 0
WidescreenStoryboard: 1

[Editor]
Bookmarks: 3643,33865
DistanceSpacing: 1.3
BeatDivisor: 4
GridSize: 4
TimelineZoom: 1.6

[Metadata]
Title:Driftmula Town
TitleUnicode:Driftmula Town
Artist:Anoyth
ArtistUnicode:Anoyth
Creator:Chompy
Version:Normal
Source:ポケットモンスターブラック・ホワイト
Tags:Driftveil City Accumula Town Pokemon pokémon pocket monsters Black White
BeatmapID:2170275
BeatmapSetID:1034317

[Difficulty]
HPDrainRate:3.6
CircleSize:3
OverallDifficulty:4
ApproachRate:4.5
SliderMultiplier:1.3
SliderTickRate:1

[Events]
//Background and Video events
0,0,"driftmula town.jpg",0,0
Video,-76,"Driftmula Town [Driftveil City + Accumula Town].mp4"
//Break Periods
//Storyboard Layer 0 (Background)
//Storyboard Layer 1 (Fail)
//Storyboard Layer 2 (Pass)
//Storyboard Layer 3 (Foreground)
//Storyboard Layer 4 (Overlay)
//Storyboard Sound Samples

[TimingPoints]
88,444.444444444444,4,2,0,100,1,0

[Colours]
Combo1 : 216,211,194
Combo2 : 255,45,50
Combo3 : 0,204,153
Combo4 : 23,191,221

[HitObjects]
90,56,88,6,0,P|79:106|82:129,1,65,2|0,0:0|0:0,0:0:0:0:
158,149,532,2,0,P|169:199|166:222,1,65,8|0,0:0|0:0,0:0:0:0:
220,278,976,2,0,P|270:289|293:286,1,65,2|0,0:0|0:0,0:0:0:0:
313,210,1420,2,8,P|363:199|386:202,1,65,8|0,0:0|0:0,0:0:0:0:
449,242,1865,6,0,L|464:328,2,65,4|4|4,0:0|0:0|0:0,0:0:0:0:
90,83,3643,6,0,P|158:64|219:109,1,130,2|8,0:0|0:0,0:0:0:0:
246,166,4310,1,0,0:0:0:0:
246,166,4532,2,0,P|314:185|375:140,1,130,2|8,0:0|0:0,0:0:0:0:
441,188,5199,1,0,0:0:0:0:
480,109,5421,6,0,L|479:-2,2,97.5,2|0|0,0:0|0:0|0:0,0:0:0:0:
400,79,6310,2,0,P|371:59|320:64,1,65,2|0,0:0|0:0,0:0:0:0:
297,127,6754,2,0,L|216:127,1,65,8|0,0:0|0:0,0:0:0:0:
173,65,7199,2,0,L|77:5,2,97.5,2|0|0,0:0|0:0|0:0,0:0:0:0:
43,174,8976,6,0,L|49:226,2,32.5,2|2|2,0:0|0:0|0:0,0:0:0:0:
109,121,9421,2,0,P|152:120|186:139,1,65,8|0,0:0|0:0,0:0:0:0:
215,200,9865,2,0,L|173:274,1,65,2|2,0:0|0:0,0:0:0:0:
239,319,10310,2,0,L|281:245,1,65,8|0,0:0|0:0,0:0:0:0:
344,220,10754,6,0,P|412:201|473:246,1,130,2|8,0:0|0:0,0:0:0:0:
400,288,11421,1,0,0:0:0:0:
400,288,11643,2,0,P|332:307|271:262,1,130,2|8,0:0|0:0,0:0:0:0:
228,344,12310,1,0,0:0:0:0:
150,310,12532,6,0,L|57:349,2,97.5,2|0|0,0:0|0:0|0:0,0:0:0:0:
192,236,13421,2,0,P|174:209|145:194,1,65,2|0,0:0|0:0,0:0:0:0:
60,199,13865,2,0,L|28:125,1,65,8|0,0:0|0:0,0:0:0:0:
25,55,14310,6,0,P|73:34|142:54,2,97.5,4|0|0,0:0|0:0|0:0,0:0:0:0:
86,192,16087,6,0,L|93:295,2,97.5,2|0|0,0:0|0:0|0:0,0:0:0:0:
202,263,17643,5,0,0:0:0:0:
263,204,17865,2,0,L|327:193,2,65,4|4|4,0:0|0:0|0:0,0:0:0:0:
226,28,19421,5,2,0:0:0:0:
302,62,19643,2,0,P|318:113|394:142,1,130,4|10,0:0|0:0,0:0:0:0:
455,98,20310,1,0,0:0:0:0:
506,164,20532,6,0,L|508:250,1,65,10|0,0:0|0:0,0:0:0:0:
452,292,20976,2,0,L|414:238,1,65,10|0,0:0|0:0,0:0:0:0:
352,296,21421,6,0,L|208:312,2,130,4|10|10,0:0|0:0|0:0,0:0:0:0:
149,143,22976,5,0,0:0:0:0:
95,208,23199,2,0,P|123:253|97:329,1,130,6|10,0:0|0:0,0:0:0:0:
36,273,23865,1,0,0:0:0:0:
77,346,24087,6,0,L|141:322,1,65,10|0,0:0|0:0,0:0:0:0:
196,262,24532,2,0,L|257:283,1,65,10|0,0:0|0:0,0:0:0:0:
315,346,24976,6,0,L|376:324,1,65,6|0,0:0|0:0,0:0:0:0:
436,264,25421,2,0,B|430:241|459:201|459:201|476:178|470:137,2,130,10|10|10,0:0|0:0|0:0,0:0:0:0:
271,222,26754,6,0,L|117:189,1,130,4|10,0:0|0:0,0:0:0:0:
87,131,27421,1,0,0:0:0:0:
143,67,27643,2,0,L|270:39,1,130,10|10,0:0|0:0,0:0:0:0:
340,87,28310,5,0,0:0:0:0:
394,22,28532,2,0,P|431:31|462:70,1,65,4|0,0:0|0:0,0:0:0:0:
487,124,28976,2,0,L|475:259,2,130,10|0|0,0:0|0:0|0:0,0:0:0:0:
405,148,30087,5,2,0:0:0:0:
405,148,30310,2,0,P|361:195|299:212,1,130,2|0,0:0|0:0,0:0:0:0:
232,263,30976,5,0,0:0:0:0:
232,263,31199,2,0,P|275:310|337:327,1,130,2|0,0:0|0:0,0:0:0:0:
505,337,32087,1,2,0:0:0:0:
256,192,32199,12,6,33865,0:0:0:0:
197,15,34976,5,0,0:0:0:0:
273,63,35199,2,0,L|345:51,1,65,8|0,0:0|0:0,0:0:0:0:
422,56,35643,6,0,P|433:106|430:129,1,65,2|0,0:0|0:0,0:0:0:0:
354,149,36087,2,0,P|343:199|346:222,1,65,8|0,0:0|0:0,0:0:0:0:
292,278,36531,2,0,P|242:289|219:286,1,65,2|0,0:0|0:0,0:0:0:0:
199,210,36976,2,0,P|149:199|123:200,1,65,8|0,0:0|0:0,0:0:0:0:
63,242,37421,6,0,L|48:328,1,65,2|0,0:0|0:0,0:0:0:0:
136,303,37865,2,0,L|192:369,1,65,2|2,0:0|0:0,0:0:0:0:
228,286,38310,2,0,L|315:287,1,65,0|2,0:0|0:0,0:0:0:0:
274,205,38754,2,0,L|332:140,1,65,8|0,0:0|0:0,0:0:0:0:
312,71,39199,6,0,P|352:70|390:98,1,65,4|0,0:0|0:0,0:0:0:0:
456,65,39643,1,10,0:0:0:0:
509,129,39865,2,0,L|516:206,2,65,0|2|0,0:0|0:0|0:0,0:0:0:0:
431,164,40532,1,8,0:0:0:0:
354,128,40754,1,0,0:0:0:0:
281,170,40976,6,0,L|201:154,2,65,6|6|6,0:0|0:0|0:0,0:0:0:0:
