osu file format v14

[General]
AudioFilename: audio.mp3
AudioLeadIn: 0
PreviewTime: 3587
Countdown: 0
SampleSet: Soft
StackLeniency: 0.4
Mode: 0
LetterboxInBreaks: 0
WidescreenStoryboard: 0

[Editor]
Bookmarks: 3643,33865
DistanceSpacing: 1.8
BeatDivisor: 8
GridSize: 4
TimelineZoom: 1.6

[Metadata]
Title:Driftmula Town
TitleUnicode:Driftmula Town
Artist:Anoyth
ArtistUnicode:Anoyth
Creator:Chompy
Version:Furret Dance
Source:ポケットモンスターブラック・ホワイト
Tags:Driftveil City Accumula Town Pokemon pokémon pocket monsters Black White
BeatmapID:2162533
BeatmapSetID:1034317

[Difficulty]
HPDrainRate:5
CircleSize:7
OverallDifficulty:8
ApproachRate:8.8
SliderMultiplier:1.5
SliderTickRate:1

[Events]
//Background and Video events
0,0,"driftmula town.jpg",0,0
Video,0,"Driftmula Town [Driftveil City + Accumula Town].mp4"
//Break Periods
//Storyboard Layer 0 (Background)
//Storyboard Layer 1 (Fail)
//Storyboard Layer 2 (Pass)
//Storyboard Layer 3 (Foreground)
//Storyboard Layer 4 (Overlay)
//Storyboard Sound Samples

[TimingPoints]
88,444.444444444444,4,2,0,100,1,0

[Colours]
Combo1 : 216,211,194
Combo2 : 255,45,50
Combo3 : 0,204,153
Combo4 : 23,191,221

[HitObjects]
168,146,88,5,2,0:0:0:0:
267,236,310,1,0,0:0:0:0:
148,263,532,5,8,0:0:0:0:
265,288,754,1,0,0:0:0:0:
265,288,810,1,0,0:0:0:0:
265,288,865,1,0,0:0:0:0:
171,347,976,5,2,0:0:0:0:
278,341,1198,1,0,0:0:0:0:
357,230,1421,5,8,0:0:0:0:
328,361,1643,1,0,0:0:0:0:
461,345,1865,5,4,0:0:0:0:
478,353,2087,1,4,0:0:0:0:
497,362,2310,1,4,0:0:0:0:
399,202,2532,6,0,P|377:169|389:122,2,75,0|2|0,0:0|0:0|0:0,0:0:0:0:
511,142,3199,1,8,0:0:0:0:
428,159,3421,1,0,0:0:0:0:
451,53,3643,6,0,L|477:89,2,37.5,2|0|0,0:0|0:0|0:0,0:0:0:0:
402,33,3976,1,0,0:0:0:0:
318,109,4310,1,0,0:0:0:0:
318,109,4532,2,0,P|327:154|261:118,1,150,2|8,0:0|0:0,0:0:0:0:
201,84,5199,1,0,0:0:0:0:
125,131,5421,5,2,0:0:0:0:
125,131,5754,1,0,0:0:0:0:
72,72,6087,1,0,0:0:0:0:
46,126,6310,6,0,P|21:178|38:200,1,75,2|0,0:0|0:0,0:0:0:0:
94,237,6754,2,0,P|104:202|80:176,1,75,8|0,0:0|0:0,0:0:0:0:
36,251,7199,2,0,P|46:303|107:331,2,112.5,2|0|0,0:0|0:0|0:0,0:0:0:0:
16,369,8976,5,2,0:0:0:0:
18,361,9087,1,2,0:0:0:0:
20,353,9199,1,2,0:0:0:0:
35,279,9421,1,8,0:0:0:0:
93,347,9643,1,0,0:0:0:0:
159,312,9865,2,0,P|194:318|244:313,1,75,2|2,0:0|0:0,0:0:0:0:
290,266,10310,1,8,0:0:0:0:
408,314,10532,5,0,0:0:0:0:
413,318,10643,1,0,2:0:0:0:
418,323,10754,2,0,L|465:333,2,37.5,2|0|0,0:0|0:0|2:0,2:0:0:0:
370,344,11087,1,0,0:0:0:0:
323,228,11421,1,0,0:0:0:0:
323,228,11643,2,0,P|332:183|266:218,1,150,2|8,0:0|0:0,0:0:0:0:
205,249,12310,1,0,0:0:0:0:
130,202,12532,5,2,0:0:0:0:
130,202,12865,1,0,0:0:0:0:
77,260,13199,1,0,0:0:0:0:
51,206,13421,6,0,P|26:154|43:132,1,75,2|0,0:0|0:0,0:0:0:0:
99,94,13865,2,0,P|109:129|85:156,1,75,8|0,0:0|0:0,0:0:0:0:
54,55,14310,2,0,L|198:27,2,112.5,4|0|0,0:0|0:0|0:0,0:0:0:0:
168,99,15976,5,0,0:0:0:0:
168,99,16032,1,0,0:0:0:0:
168,99,16087,2,0,P|152:168|93:173,2,112.5,2|0|0,0:0|0:0|0:0,0:0:0:0:
230,174,17643,5,0,0:0:0:0:
281,49,17865,5,4,0:0:0:0:
298,41,18087,1,4,0:0:0:0:
317,32,18310,1,4,0:0:0:0:
361,91,18976,5,2,0:0:0:0:
359,163,19199,1,8,0:0:0:0:
423,128,19421,1,2,0:0:0:0:
423,128,19643,6,0,P|466:149|476:189,1,75,4|0,0:0|0:0,0:0:0:0:
402,236,20087,1,10,0:0:0:0:
495,264,20310,1,0,0:0:0:0:
454,291,20421,2,0,P|425:314|376:306,1,75
356,275,20754,1,0,0:0:0:0:
268,316,20976,2,0,L|226:383,1,75,10|0,0:0|0:0,0:0:0:0:
180,294,21421,6,0,P|116:264|135:227,1,112.5,4|0,0:0|0:0,0:0:0:0:
93,190,21865,1,10,0:0:0:0:
201,162,22087,1,0,0:0:0:0:
154,124,22199,2,0,P|113:92|57:108,1,112.5
19,23,22976,5,0,0:0:0:0:
19,23,23199,2,0,P|67:62|76:32,1,112.5,6|0,0:0|0:0,0:0:0:0:
128,21,23643,1,10,0:0:0:0:
159,113,23865,1,0,0:0:0:0:
198,83,23976,2,0,P|226:59|275:65,1,75
296,96,24309,1,0,0:0:0:0:
351,15,24532,2,0,L|429:40,1,75,10|0,0:0|0:0,0:0:0:0:
462,126,24976,6,0,P|431:174|401:132,1,112.5,6|0,0:0|0:0,0:0:0:0:
359,120,25421,1,10,0:0:0:0:
278,174,25643,1,0,0:0:0:0:
230,164,25754,2,0,P|184:216|264:218,1,187.5,0|10,0:0|0:0,0:0:0:0:
464,229,26754,6,0,P|417:252|371:304,1,112.5,4|0,0:0|0:0,0:0:0:0:
331,279,27199,1,10,0:0:0:0:
322,181,27421,1,0,0:0:0:0:
272,191,27532,2,0,P|253:225|207:236,1,75
172,252,27865,1,0,0:0:0:0:
98,187,28087,1,10,0:0:0:0:
55,308,28310,1,0,0:0:0:0:
139,356,28532,6,0,L|226:365,2,75,4|0|10,0:0|0:0|0:0,0:0:0:0:
215,295,29199,1,0,0:0:0:0:
261,281,29310,2,8,P|329:258|263:209,1,187.5
169,191,30087,5,2,0:0:0:0:
169,191,30310,2,0,P|141:142|212:121,1,150,2|0,0:0|0:0,0:0:0:0:
303,147,30976,5,0,0:0:0:0:
303,146,31199,2,0,P|364:169|364:138,1,112.5,2|0,0:0|0:0,0:0:0:0:
401,117,31643,1,0,0:0:0:0:
255,192,32087,1,2,0:0:0:0:
256,192,32143,12,0,33754,0:0:0:0:
242,92,33865,5,6,0:0:0:0:
259,84,34087,1,6,0:0:0:0:
278,75,34310,1,6,0:0:0:0:
356,167,34976,6,0,P|378:134|366:87,2,75,0|8|0,0:0|0:0|0:0,0:0:0:0:
200,20,35643,5,2,0:0:0:0:
299,110,35865,1,0,0:0:0:0:
180,137,36087,5,8,0:0:0:0:
297,162,36309,1,0,0:0:0:0:
297,162,36365,1,0,0:0:0:0:
297,162,36420,1,0,0:0:0:0:
235,214,36531,5,2,0:0:0:0:
342,208,36753,1,0,0:0:0:0:
305,307,36976,1,8,0:0:0:0:
412,301,37198,1,0,0:0:0:0:
395,154,37421,5,2,0:0:0:0:
397,146,37532,1,0,0:0:0:0:
500,208,37754,5,0,0:0:0:0:
502,200,37865,1,2,0:0:0:0:
395,262,38087,5,2,0:0:0:0:
397,254,38198,1,2,0:0:0:0:
500,316,38421,5,2,0:0:0:0:
502,308,38532,1,2,0:0:0:0:
395,370,38754,5,8,0:0:0:0:
397,362,38865,1,0,0:0:0:0:
289,310,39087,5,0,0:0:0:0:
251,275,39199,2,0,L|168:270,2,75,4|0|10,0:0|0:0|0:0,0:0:0:0:
342,228,39865,1,0,0:0:0:0:
342,228,39921,1,0,0:0:0:0:
342,228,39976,1,0,0:0:0:0:
380,193,40087,2,0,L|463:188,2,75,2|0|8,0:0|0:0|0:0,0:0:0:0:
313,121,40754,1,0,0:0:0:0:
445,93,40976,5,6,0:0:0:0:
462,85,41198,1,6,0:0:0:0:
481,76,41421,1,6,0:0:0:0:
