osu file format v14

[General]
AudioFilename: audio.mp3
AudioLeadIn: 0
PreviewTime: 54928
Countdown: 0
SampleSet: Soft
StackLeniency: 0.7
Mode: 2
LetterboxInBreaks: 0
WidescreenStoryboard: 1

[Editor]
Bookmarks: 28629,45772
DistanceSpacing: 1.5
BeatDivisor: 8
GridSize: 16
TimelineZoom: 1.9

[Metadata]
Title:New Gravity
TitleUnicode:New Gravity
Artist:Another Infinity
ArtistUnicode:Another Infinity
Creator:Asahina Momoko
Version:yehahj
Source:Dance Dance Revolution 2013
Tags:DDR jubeat saucer Yusuke Ceo
BeatmapID:1055402
BeatmapSetID:494935

[Difficulty]
HPDrainRate:7.2
CircleSize:4.2
OverallDifficulty:9.2
ApproachRate:9.2
SliderMultiplier:1.93
SliderTickRate:2

[Events]
//Background and Video events
0,0,"asdf.png",0,0
//Break Periods
//Storyboard Layer 0 (Background)
//Storyboard Layer 1 (Fail)
//Storyboard Layer 2 (Pass)
//Storyboard Layer 3 (Foreground)
//Storyboard Sound Samples

[TimingPoints]
578,389.61038961039,4,2,0,70,1,0

[HitObjects]
392,106,578,6,0,P|267:129|251:185,1,193
468,332,1162,1,0,0:0:0:0:
226,259,1552,1,0,0:0:0:0:
455,232,1941,1,0,0:0:0:0:
279,174,2331,1,0,0:0:0:0:
445,129,2720,1,0,0:0:0:0:
338,92,3110,1,0,0:0:0:0:
190,270,3305,2,0,L|292:258,1,96.5
120,106,3694,6,0,P|245:129|261:185,1,193
44,332,4278,1,0,0:0:0:0:
286,259,4668,1,0,0:0:0:0:
57,232,5057,1,0,0:0:0:0:
233,174,5447,1,0,0:0:0:0:
67,129,5836,1,0,0:0:0:0:
174,92,6226,1,0,0:0:0:0:
278,59,6616,1,0,0:0:0:0:
467,295,6811,6,0,L|344:278,1,96.5
233,329,7103,2,0,L|287:321,1,48.25
467,295,7396,1,0,0:0:0:0:
153,328,7785,1,0,0:0:0:0:
141,324,7882,1,0,0:0:0:0:
130,320,7979,1,0,0:0:0:0:
118,316,8077,1,0,0:0:0:0:
107,312,8174,1,0,0:0:0:0:
224,250,8370,5,0,0:0:0:0:
39,205,8565,2,0,L|33:147,1,48.25
209,91,8759,1,0,0:0:0:0:
111,180,8954,1,0,0:0:0:0:
404,269,9344,1,0,0:0:0:0:
416,265,9441,1,0,0:0:0:0:
427,261,9538,1,0,0:0:0:0:
439,257,9636,1,0,0:0:0:0:
450,253,9733,1,0,0:0:0:0:
228,247,9928,6,0,P|272:269|322:271,1,96.5
450,253,10318,1,0,0:0:0:0:
299,174,10513,1,0,0:0:0:0:
347,170,10610,1,0,0:0:0:0:
395,168,10707,2,0,L|181:150,1,193
311,275,11292,6,0,L|202:263,1,96.5
405,77,11681,2,0,L|296:65,1,96.5
498,245,12071,1,0,0:0:0:0:
311,275,12266,5,0,0:0:0:0:
509,331,12461,1,0,0:0:0:0:
212,247,12655,5,0,0:0:0:0:
410,303,12850,1,0,0:0:0:0:
119,221,13045,6,0,L|239:208,1,96.5
363,122,13435,2,0,L|285:110,1,48.25
434,322,13727,1,0,0:0:0:0:
185,183,13824,6,0,L|305:170,1,96.5
429,84,14214,2,0,L|351:72,1,48.25
500,284,14506,1,0,0:0:0:0:
311,63,14603,5,0,0:0:0:0:
263,54,14700,1,0,0:0:0:0:
375,198,14798,5,0,0:0:0:0:
423,189,14895,1,0,0:0:0:0:
246,89,14993,5,0,0:0:0:0:
198,80,15090,1,0,0:0:0:0:
362,245,15188,5,0,0:0:0:0:
410,236,15285,1,0,0:0:0:0:
169,114,15383,5,0,0:0:0:0:
121,105,15480,1,0,0:0:0:0:
349,291,15578,5,0,0:0:0:0:
363,293,15626,1,0,0:0:0:0:
377,295,15675,1,0,0:0:0:0:
391,297,15724,1,0,0:0:0:0:
405,299,15772,1,0,0:0:0:0:
334,315,15870,1,0,0:0:0:0:
263,331,15967,1,0,0:0:0:0:
192,347,16065,1,0,0:0:0:0:
64,253,16162,6,0,P|111:231|177:247,1,96.5
263,182,16454,1,0,0:0:0:0:
226,168,16552,1,0,0:0:0:0:
383,276,16746,5,0,0:0:0:0:
123,311,16941,1,0,0:0:0:0:
419,266,17136,5,0,0:0:0:0:
208,220,17331,1,0,0:0:0:0:
457,279,17526,5,0,0:0:0:0:
305,196,17720,1,0,0:0:0:0:
483,313,17915,5,0,0:0:0:0:
396,214,18110,1,0,0:0:0:0:
495,351,18305,5,0,0:0:0:0:
256,306,18500,1,0,0:0:0:0:
307,297,18597,1,0,0:0:0:0:
357,290,18694,1,0,0:0:0:0:
128,324,18889,1,0,0:0:0:0:
388,211,19084,1,0,0:0:0:0:
255,48,19279,6,0,P|233:95|249:161,1,96.5
280,258,19571,1,0,0:0:0:0:
326,249,19669,1,0,0:0:0:0:
128,176,19863,5,0,0:0:0:0:
388,211,20058,1,0,0:0:0:0:
153,254,20253,5,0,0:0:0:0:
337,283,20448,1,0,0:0:0:0:
177,330,20643,5,0,0:0:0:0:
282,350,20837,5,0,0:0:0:0:
297,347,20934,1,0,0:0:0:0:
313,345,21031,1,0,0:0:0:0:
329,342,21129,1,0,0:0:0:0:
201,262,21227,5,0,0:0:0:0:
185,259,21324,1,0,0:0:0:0:
169,257,21421,1,0,0:0:0:0:
153,254,21519,1,0,0:0:0:0:
314,211,21616,6,0,L|363:205,1,48.25
180,164,21811,2,0,L|131:158,1,48.25
348,129,22006,2,0,L|397:123,1,48.25
154,78,22201,2,0,L|105:72,1,48.25
272,66,22396,6,0,P|250:113|266:179,1,96.5
356,220,22688,1,0,0:0:0:0:
393,206,22786,1,0,0:0:0:0:
129,276,22980,5,0,0:0:0:0:
389,311,23175,1,0,0:0:0:0:
93,266,23370,5,0,0:0:0:0:
304,220,23565,1,0,0:0:0:0:
55,279,23760,5,0,0:0:0:0:
207,196,23954,1,0,0:0:0:0:
29,313,24149,5,0,0:0:0:0:
116,214,24344,1,0,0:0:0:0:
17,351,24539,5,0,0:0:0:0:
256,306,24734,1,0,0:0:0:0:
205,297,24831,1,0,0:0:0:0:
155,290,24928,1,0,0:0:0:0:
384,324,25123,1,0,0:0:0:0:
116,214,25318,1,0,0:0:0:0:
316,187,25513,5,0,0:0:0:0:
332,170,25610,1,0,0:0:0:0:
339,147,25707,1,0,0:0:0:0:
332,124,25805,1,0,0:0:0:0:
316,107,25902,2,0,L|245:112,1,48.25
187,115,26097,2,0,L|116:120,1,48.25
67,290,26292,5,0,0:0:0:0:
50,273,26389,1,0,0:0:0:0:
43,250,26486,1,0,0:0:0:0:
50,227,26584,1,0,0:0:0:0:
67,210,26681,2,0,L|138:215,1,48.25
196,218,26876,2,0,L|267:223,1,48.25
82,337,27071,5,0,0:0:0:0:
78,324,27168,1,0,0:0:0:0:
74,312,27265,1,0,0:0:0:0:
70,301,27363,1,0,0:0:0:0:
116,293,27460,1,0,0:0:0:0:
382,249,27655,5,0,0:0:0:0:
336,241,27752,1,0,0:0:0:0:
107,166,27948,1,0,0:0:0:0:
153,158,28045,1,0,0:0:0:0:
320,84,28240,5,0,0:0:0:0:
304,81,28337,1,0,0:0:0:0:
288,78,28434,1,0,0:0:0:0:
272,76,28532,1,0,0:0:0:0:
431,66,28629,5,0,0:0:0:0:
155,84,28824,1,0,0:0:0:0:
332,147,29214,5,0,0:0:0:0:
92,138,29603,1,0,0:0:0:0:
234,216,29993,5,0,0:0:0:0:
32,193,30382,1,0,0:0:0:0:
132,281,30772,5,0,0:0:0:0:
43,326,30967,5,0,0:0:0:0:
299,356,31162,1,0,0:0:0:0:
61,333,31357,5,0,0:0:0:0:
317,363,31552,1,0,0:0:0:0:
188,287,31746,5,0,0:0:0:0:
464,269,31941,1,0,0:0:0:0:
180,237,32331,5,0,0:0:0:0:
420,246,32720,1,0,0:0:0:0:
278,168,33110,5,0,0:0:0:0:
480,191,33499,1,0,0:0:0:0:
380,103,33889,5,0,0:0:0:0:
469,58,34084,5,0,0:0:0:0:
213,28,34279,1,0,0:0:0:0:
451,51,34474,5,0,0:0:0:0:
195,21,34669,1,0,0:0:0:0:
318,120,34863,5,0,0:0:0:0:
133,196,35058,2,0,L|86:188,1,48.25
18,176,35253,1,0,0:0:0:0:
238,214,35448,1,0,0:0:0:0:
133,196,35642,5,0,0:0:0:0:
318,272,35837,2,0,L|365:264,1,48.25
433,252,36032,1,0,0:0:0:0:
213,290,36227,1,0,0:0:0:0:
318,272,36422,5,0,0:0:0:0:
133,348,36617,2,0,L|86:340,1,48.25
18,328,36812,1,0,0:0:0:0:
238,366,37007,1,0,0:0:0:0:
142,260,37201,1,0,0:0:0:0:
135,258,37298,1,0,0:0:0:0:
128,257,37395,1,0,0:0:0:0:
121,256,37493,1,0,0:0:0:0:
114,255,37590,1,0,0:0:0:0:
108,254,37688,1,0,0:0:0:0:
101,253,37785,1,0,0:0:0:0:
94,251,37882,1,0,0:0:0:0:
41,323,37980,6,0,L|49:266,1,48.25
132,291,38175,2,0,L|140:234,1,48.25
223,261,38370,6,0,L|231:204,1,48.25
314,229,38565,2,0,L|322:172,1,48.25
464,324,38759,6,0,L|456:267,1,48.25
373,292,38954,2,0,L|365:235,1,48.25
282,262,39149,6,0,L|274:205,1,48.25
191,230,39344,2,0,L|183:173,1,48.25
45,333,39539,6,0,L|67:285,4,48.25
363,251,40123,1,0,0:0:0:0:
316,241,40220,1,0,0:0:0:0:
122,187,40415,1,0,0:0:0:0:
169,177,40512,1,0,0:0:0:0:
342,82,40707,5,0,0:0:0:0:
314,73,40805,1,0,0:0:0:0:
286,64,40902,1,0,0:0:0:0:
313,55,41000,1,0,0:0:0:0:
211,48,41097,5,0,0:0:0:0:
206,132,41194,1,0,0:0:0:0:
424,122,41389,5,0,0:0:0:0:
419,38,41486,1,0,0:0:0:0:
206,132,41681,2,0,L|143:137,1,48.25
294,167,41876,5,0,0:0:0:0:
289,83,41973,1,0,0:0:0:0:
81,88,42168,5,0,0:0:0:0:
76,172,42265,1,0,0:0:0:0:
306,242,42461,2,0,L|369:247,1,48.25
221,280,42656,5,0,0:0:0:0:
226,196,42753,1,0,0:0:0:0:
431,198,42948,5,0,0:0:0:0:
436,282,43045,1,0,0:0:0:0:
195,303,43240,2,0,L|132:308,1,48.25
271,342,43435,5,0,0:0:0:0:
266,258,43532,1,0,0:0:0:0:
70,259,43727,5,0,0:0:0:0:
65,343,43824,1,0,0:0:0:0:
343,295,44019,1,0,0:0:0:0:
90,52,44214,6,0,L|154:46,1,48.25
401,111,44506,2,0,L|337:105,1,48.25
251,175,44798,2,0,L|315:169,1,48.25
401,111,44993,6,0,L|337:105,1,48.25
90,170,45285,2,0,L|154:164,1,48.25
240,234,45577,2,0,L|176:228,1,48.25
90,170,45772,6,0,L|154:164,1,48.25
401,229,46064,2,0,L|337:223,1,48.25
251,293,46356,2,0,L|315:287,1,48.25
469,346,46552,5,0,0:0:0:0:
445,343,46649,1,0,0:0:0:0:
421,340,46746,1,0,0:0:0:0:
397,337,46844,1,0,0:0:0:0:
373,335,46941,1,0,0:0:0:0:
481,266,47136,1,0,0:0:0:0:
292,325,47331,5,0,0:0:0:0:
272,322,47428,1,0,0:0:0:0:
252,319,47526,1,0,0:0:0:0:
176,217,47623,1,0,0:0:0:0:
156,214,47720,1,0,0:0:0:0:
136,211,47818,1,0,0:0:0:0:
59,297,47915,1,0,0:0:0:0:
40,292,48013,1,0,0:0:0:0:
141,305,48110,5,0,0:0:0:0:
161,302,48207,1,0,0:0:0:0:
181,299,48305,1,0,0:0:0:0:
257,197,48402,1,0,0:0:0:0:
277,194,48499,1,0,0:0:0:0:
297,191,48597,1,0,0:0:0:0:
374,277,48694,1,0,0:0:0:0:
393,272,48792,1,0,0:0:0:0:
299,285,48889,5,0,0:0:0:0:
279,282,48986,1,0,0:0:0:0:
259,279,49084,1,0,0:0:0:0:
183,177,49181,1,0,0:0:0:0:
163,174,49278,1,0,0:0:0:0:
143,171,49376,1,0,0:0:0:0:
66,257,49473,1,0,0:0:0:0:
47,252,49571,1,0,0:0:0:0:
147,267,49668,5,0,0:0:0:0:
219,259,49766,1,0,0:0:0:0:
290,251,49863,1,0,0:0:0:0:
362,244,49961,1,0,0:0:0:0:
433,237,50058,1,0,0:0:0:0:
261,177,50253,1,0,0:0:0:0:
466,53,50448,5,0,0:0:0:0:
125,33,50642,1,0,0:0:0:0:
48,139,50837,5,0,0:0:0:0:
389,119,51032,1,0,0:0:0:0:
464,189,51227,5,0,0:0:0:0:
123,169,51421,1,0,0:0:0:0:
46,275,51616,5,0,0:0:0:0:
387,255,51811,1,0,0:0:0:0:
161,359,52006,5,0,0:0:0:0:
148,353,52103,1,0,0:0:0:0:
142,341,52200,1,0,0:0:0:0:
143,327,52298,1,0,0:0:0:0:
152,317,52395,1,0,0:0:0:0:
165,314,52493,1,0,0:0:0:0:
178,319,52590,1,0,0:0:0:0:
185,331,52687,1,0,0:0:0:0:
330,291,52785,6,0,L|379:285,1,48.25
162,241,52980,2,0,L|113:235,1,48.25
357,203,53175,2,0,L|406:197,1,48.25
135,146,53370,2,0,L|86:140,1,48.25
383,115,53565,5,0,0:0:0:0:
260,139,53954,2,0,P|177:158|135:96,1,144.75
130,72,54344,2,0,L|126:44,7,24.125
50,182,54733,1,0,0:0:0:0:
356,188,55123,6,0,P|287:179|242:232,1,144.75
432,340,55513,1,0,0:0:0:0:
