osu file format v14

[General]
AudioFilename: audio.mp3
AudioLeadIn: 0
PreviewTime: 7629
Countdown: 0
SampleSet: None
StackLeniency: 0.7
Mode: 0
LetterboxInBreaks: 0
WidescreenStoryboard: 1

[Editor]
DistanceSpacing: 0.8
BeatDivisor: 4
GridSize: 32
TimelineZoom: 1

[Metadata]
Title:Ali Project
TitleUnicode:Ali Project
Artist:Another
ArtistUnicode:Another
Creator:-_f a k e_-
Version:you can not
Source:Kyoumu Densen
Tags:anime Another
BeatmapID:1814309
BeatmapSetID:866344

[Difficulty]
HPDrainRate:6
CircleSize:5
OverallDifficulty:5
ApproachRate:5.6
SliderMultiplier:1.4
SliderTickRate:1

[Events]
//Background and Video events
0,0,"3.jpg",0,0
//Break Periods
//Storyboard Layer 0 (Background)
//Storyboard Layer 1 (Fail)
//Storyboard Layer 2 (Pass)
//Storyboard Layer 3 (Foreground)
//Storyboard Sound Samples

[TimingPoints]
12391.1919984444,190.47619047619,4,1,0,100,1,0

[HitObjects]
254,189,10,5,0,0:0:0:0:
257,68,57,1,0,0:0:0:0:
481,372,200,2,0,L|28:175,1,490
31,176,962,2,0,L|502:24,1,490
502,27,1724,2,0,L|121:352,1,490
129,345,2391,2,0,L|23:-7,1,350
28,10,2915,2,0,L|366:158,1,350
131,207,3438,2,0,L|498:26,1,385
255,27,4057,2,0,L|22:343,1,385
26,337,4629,2,0,L|484:284,1,455
478,284,5343,2,0,L|24:38,1,490
50,57,6010,2,0,L|45:295,1,210
114,87,6391,2,4,P|369:60|120:339,1,875
30,34,9153,5,0,0:0:0:0:
478,371,9343,1,0,0:0:0:0:
16,192,9534,1,0,0:0:0:0:
505,192,9724,1,0,0:0:0:0:
258,28,9915,1,0,0:0:0:0:
286,29,9962,1,0,0:0:0:0:
319,28,10010,1,4,0:0:0:0:
24,369,10295,6,0,L|478:37,1,560
27,33,11248,2,0,L|488:359,1,560
257,193,12962,5,0,0:0:0:0:
25,37,13010,1,0,0:0:0:0:
483,32,13105,1,0,0:0:0:0:
36,369,13153,1,0,0:0:0:0:
476,368,13200,1,0,0:0:0:0:
19,193,13248,1,0,0:0:0:0:
496,193,13343,1,0,0:0:0:0:
259,31,13391,1,0,0:0:0:0:
256,364,13438,1,0,0:0:0:0:
25,37,13486,1,0,0:0:0:0:
483,32,13534,1,0,0:0:0:0:
257,193,13581,1,0,0:0:0:0:
36,369,13629,1,0,0:0:0:0:
476,368,13676,1,0,0:0:0:0:
19,193,13724,1,0,0:0:0:0:
496,193,13772,1,0,0:0:0:0:
25,37,13819,1,0,0:0:0:0:
475,28,13867,1,0,0:0:0:0:
36,369,13962,1,0,0:0:0:0:
260,196,14010,1,0,0:0:0:0:
496,193,14057,1,0,0:0:0:0:
260,365,14153,1,0,0:0:0:0:
25,37,14200,1,0,0:0:0:0:
19,193,14248,1,0,0:0:0:0:
476,27,14343,1,0,0:0:0:0:
259,31,14391,1,0,0:0:0:0:
476,368,14438,1,0,0:0:0:0:
254,197,14486,1,0,0:0:0:0:
496,193,14581,1,0,0:0:0:0:
19,193,14629,1,0,0:0:0:0:
476,368,14676,1,0,0:0:0:0:
17,360,14772,1,0,0:0:0:0:
475,28,14819,1,0,0:0:0:0:
25,37,14867,1,0,0:0:0:0:
260,365,14915,1,0,0:0:0:0:
254,197,15248,1,4,0:0:0:0:
474,196,16200,6,0,P|97:60|23:213,1,665
483,196,17534,2,0,P|193:379|4:180,1,665
210,190,18819,1,0,0:0:0:0:
227,189,18867,1,0,0:0:0:0:
249,188,18915,1,0,0:0:0:0:
266,186,19010,1,0,0:0:0:0:
291,187,19057,1,4,0:0:0:0:
258,56,19629,5,0,0:0:0:0:
11,195,20010,1,0,0:0:0:0:
500,193,20391,1,0,0:0:0:0:
252,40,20772,1,0,0:0:0:0:
256,317,21153,1,0,0:0:0:0:
26,46,21534,2,4,P|217:238|476:58,1,630
7,192,23057,1,0,0:0:0:0:
510,189,23819,1,0,0:0:0:0:
257,27,24581,1,0,0:0:0:0:
257,362,25343,2,0,P|252:86|61:231,1,630
18,198,27581,2,0,B|249:81|511:63|181:325,1,560
478,339,28867,2,0,L|25:60,1,525
253,191,29915,1,0,0:0:0:0:
381,84,30295,1,0,0:0:0:0:
91,92,30486,1,0,0:0:0:0:
17,220,32200,2,0,P|59:39|488:243,1,840
253,194,33724,1,0,0:0:0:0:
259,192,35057,1,0,0:0:0:0:
216,194,35248,1,4,0:0:0:0:
33,52,35343,2,0,L|452:346,1,490
37,37,36772,5,0,0:0:0:0:
468,362,37534,1,0,0:0:0:0:
470,41,38295,1,0,0:0:0:0:
283,191,38676,1,0,0:0:0:0:
236,193,38867,1,4,0:0:0:0:
35,63,39819,2,0,P|377:300|440:291,1,490
259,191,41343,1,4,0:0:0:0:
474,373,42057,2,0,L|32:45,1,525
38,330,43153,2,0,P|222:102|443:324,1,665
438,300,44391,2,0,P|197:74|12:329,1,700
255,189,45915,5,0,0:0:0:0:
497,10,45962,1,0,0:0:0:0:
20,19,46010,1,0,0:0:0:0:
16,377,46057,1,0,0:0:0:0:
480,193,46105,1,0,0:0:0:0:
490,378,46153,1,0,0:0:0:0:
14,189,46200,1,0,0:0:0:0:
405,192,46248,1,0,0:0:0:0:
255,50,46295,1,0,0:0:0:0:
99,192,46343,1,0,0:0:0:0:
257,285,46391,1,0,0:0:0:0:
20,19,46438,1,0,0:0:0:0:
497,10,46486,1,0,0:0:0:0:
489,372,46534,1,0,0:0:0:0:
16,377,46581,1,0,0:0:0:0:
103,76,46676,1,0,0:0:0:0:
400,84,46724,1,0,0:0:0:0:
97,312,46772,1,0,0:0:0:0:
412,301,46819,1,0,0:0:0:0:
255,189,46867,1,0,0:0:0:0:
20,19,46915,1,0,0:0:0:0:
497,10,46962,1,0,0:0:0:0:
16,377,47010,1,0,0:0:0:0:
488,363,47057,1,0,0:0:0:0:
0,189,47105,1,0,0:0:0:0:
503,192,47153,1,0,0:0:0:0:
255,18,47200,1,0,0:0:0:0:
255,377,47248,1,0,0:0:0:0:
20,19,47295,1,0,0:0:0:0:
497,10,47391,1,0,0:0:0:0:
255,189,47438,1,0,0:0:0:0:
485,275,47629,2,4,P|291:60|-5:301,1,735
256,192,48819,5,0,0:0:0:0:
18,29,48867,1,0,0:0:0:0:
486,31,48915,1,0,0:0:0:0:
255,372,48962,1,0,0:0:0:0:
3,192,49010,1,0,0:0:0:0:
507,192,49057,1,0,0:0:0:0:
505,377,49105,1,0,0:0:0:0:
3,381,49153,1,0,0:0:0:0:
257,40,49200,1,0,0:0:0:0:
18,29,49248,1,0,0:0:0:0:
256,192,49295,1,0,0:0:0:0:
3,192,49343,1,0,0:0:0:0:
491,32,49391,1,0,0:0:0:0:
255,372,49438,1,0,0:0:0:0:
3,381,49486,1,0,0:0:0:0:
256,192,49581,1,0,0:0:0:0:
507,192,49629,1,0,0:0:0:0:
89,106,49676,1,0,0:0:0:0:
377,104,49724,1,0,0:0:0:0:
382,308,49772,1,0,0:0:0:0:
98,313,49819,1,0,0:0:0:0:
89,106,49867,1,0,0:0:0:0:
382,308,49915,1,0,0:0:0:0:
3,381,49962,1,0,0:0:0:0:
98,313,50010,1,0,0:0:0:0:
377,104,50057,1,0,0:0:0:0:
19,23,50105,1,0,0:0:0:0:
491,32,50153,1,0,0:0:0:0:
500,375,50200,1,0,0:0:0:0:
3,381,50248,1,0,0:0:0:0:
3,192,50295,1,0,0:0:0:0:
507,192,50391,1,0,0:0:0:0:
254,24,50438,1,0,0:0:0:0:
256,323,50486,1,0,0:0:0:0:
3,192,50581,1,0,0:0:0:0:
507,192,50629,1,0,0:0:0:0:
19,23,50676,1,0,0:0:0:0:
491,32,50724,1,0,0:0:0:0:
3,381,50772,1,0,0:0:0:0:
500,375,50819,1,0,0:0:0:0:
253,191,50867,1,0,0:0:0:0:
254,24,50915,1,0,0:0:0:0:
3,192,50962,1,0,0:0:0:0:
507,192,51010,1,0,0:0:0:0:
254,90,51057,1,0,0:0:0:0:
65,292,51105,1,0,0:0:0:0:
254,358,51153,1,0,0:0:0:0:
397,198,51200,1,4,0:0:0:0:
27,214,52010,6,0,L|485:38,1,490
484,38,52867,2,0,L|479:376,1,315
479,353,53534,2,0,P|12:357|-7:367,1,490
58,313,55057,2,0,L|463:62,1,455
458,346,55819,2,0,L|63:50,1,490
59,193,56772,5,0,0:0:0:0:
183,198,56962,1,0,0:0:0:0:
321,230,57343,1,0,0:0:0:0:
322,182,57391,1,0,0:0:0:0:
322,137,57438,1,0,0:0:0:0:
278,138,57486,1,0,0:0:0:0:
237,139,57534,1,0,0:0:0:0:
193,139,57581,1,0,0:0:0:0:
194,177,57629,1,0,0:0:0:0:
195,223,57676,1,0,0:0:0:0:
230,226,57724,1,0,0:0:0:0:
269,228,57772,1,0,0:0:0:0:
321,230,57819,1,0,0:0:0:0:
297,186,57867,1,0,0:0:0:0:
268,188,57915,1,0,0:0:0:0:
231,186,57962,1,0,0:0:0:0:
199,146,58010,1,0,0:0:0:0:
322,137,58057,1,4,0:0:0:0:
1,193,58867,2,0,L|527:189,1,525
443,347,60391,2,0,L|29:45,1,490
47,58,61057,2,0,L|37:384,1,315
133,355,61629,2,0,L|457:60,1,420
449,232,62867,2,0,P|113:102|36:260,1,595
41,237,64200,2,0,P|166:364|469:206,1,560
423,211,65343,1,0,0:0:0:0:
380,213,65391,1,0,0:0:0:0:
341,213,65438,1,0,0:0:0:0:
306,214,65486,1,0,0:0:0:0:
267,215,65534,1,0,0:0:0:0:
228,175,65581,1,0,0:0:0:0:
225,134,65629,1,0,0:0:0:0:
271,131,65676,1,0,0:0:0:0:
307,132,65724,1,0,0:0:0:0:
339,131,65819,1,0,0:0:0:0:
369,130,65867,1,0,0:0:0:0:
405,126,65915,1,0,0:0:0:0:
404,84,65962,1,0,0:0:0:0:
399,41,66010,1,0,0:0:0:0:
43,325,66057,1,4,0:0:0:0:
44,62,67200,6,0,B|411:337|382:67,1,455
108,63,68724,2,0,P|336:303|430:159,1,595
257,194,70153,1,0,0:0:0:0:
160,193,70295,1,4,0:0:0:0:
56,53,71057,2,0,P|193:325|422:57,1,770
320,288,72248,5,0,0:0:0:0:
288,288,72295,1,0,0:0:0:0:
256,288,72343,1,0,0:0:0:0:
224,288,72391,1,0,0:0:0:0:
192,288,72438,1,0,0:0:0:0:
160,256,72534,1,0,0:0:0:0:
160,224,72581,1,0,0:0:0:0:
192,192,72629,1,0,0:0:0:0:
224,192,72676,1,0,0:0:0:0:
256,192,72724,1,0,0:0:0:0:
288,192,72772,1,0,0:0:0:0:
320,192,72819,1,0,0:0:0:0:
320,160,72867,1,0,0:0:0:0:
288,160,72915,1,0,0:0:0:0:
256,160,72962,1,0,0:0:0:0:
224,160,73010,1,0,0:0:0:0:
192,160,73057,1,0,0:0:0:0:
192,128,73105,1,0,0:0:0:0:
224,128,73153,1,0,0:0:0:0:
256,128,73200,1,0,0:0:0:0:
288,128,73248,1,0,0:0:0:0:
320,128,73295,1,0,0:0:0:0:
256,96,73343,1,0,0:0:0:0:
36,44,74057,6,0,B|416:359|423:83,1,490
417,116,75438,2,0,P|481:331|257:198,1,630
255,194,77153,2,0,P|157:104|214:286,1,525
257,192,79915,5,0,0:0:0:0:
19,32,79962,1,0,0:0:0:0:
483,31,80010,1,0,0:0:0:0:
491,368,80057,1,0,0:0:0:0:
18,374,80105,1,0,0:0:0:0:
19,32,80153,1,0,0:0:0:0:
145,193,80200,1,0,0:0:0:0:
376,189,80248,1,0,0:0:0:0:
255,101,80295,1,0,0:0:0:0:
259,281,80343,1,0,0:0:0:0:
8,194,80391,1,0,0:0:0:0:
509,190,80438,1,0,0:0:0:0:
252,15,80486,1,0,0:0:0:0:
18,374,80534,1,0,0:0:0:0:
491,368,80581,1,0,0:0:0:0:
483,31,80629,1,0,0:0:0:0:
19,32,80676,1,0,0:0:0:0:
8,194,80724,1,0,0:0:0:0:
257,192,80772,1,0,0:0:0:0:
132,95,80819,1,0,0:0:0:0:
365,91,80867,1,0,0:0:0:0:
369,278,80915,1,0,0:0:0:0:
132,289,80962,1,0,0:0:0:0:
120,193,81057,1,0,0:0:0:0:
369,193,81105,1,0,0:0:0:0:
128,27,81153,1,0,0:0:0:0:
368,22,81200,1,0,0:0:0:0:
489,361,81248,1,0,0:0:0:0:
18,374,81295,1,0,0:0:0:0:
19,32,81343,1,0,0:0:0:0:
483,31,81391,1,0,0:0:0:0:
492,195,81438,1,0,0:0:0:0:
8,194,81486,1,0,0:0:0:0:
257,192,81534,1,0,0:0:0:0:
257,28,81629,1,0,0:0:0:0:
120,193,81676,1,0,0:0:0:0:
369,193,81724,1,0,0:0:0:0:
256,373,81772,1,0,0:0:0:0:
128,27,81819,1,0,0:0:0:0:
368,22,81867,1,4,0:0:0:0:
256,192,83391,12,0,89262,0:0:0:0:
