osu file format v14

[General]
AudioFilename: audio.mp3
AudioLeadIn: 0
PreviewTime: 7629
Countdown: 0
SampleSet: None
StackLeniency: 0.7
Mode: 0
LetterboxInBreaks: 0
WidescreenStoryboard: 1

[Editor]
DistanceSpacing: 0.8
BeatDivisor: 1
GridSize: 32
TimelineZoom: 1

[Metadata]
Title:Ali Project
TitleUnicode:Ali Project
Artist:Another
ArtistUnicode:Another
Creator:-_f a k e_-
Version:Normal
Source:Kyoumu Densen
Tags:anime аниме Another иная
BeatmapID:1818968
BeatmapSetID:866344

[Difficulty]
HPDrainRate:6
CircleSize:5
OverallDifficulty:5
ApproachRate:5.6
SliderMultiplier:0.400000005960464
SliderTickRate:1

[Events]
//Background and Video events
0,0,"3.jpg",0,0
//Break Periods
2,22900,24273
2,84132,85979
//Storyboard Layer 0 (Background)
//Storyboard Layer 1 (Fail)
//Storyboard Layer 2 (Pass)
//Storyboard Layer 3 (Foreground)
//Storyboard Sound Samples

[TimingPoints]
15915.1099243547,157.814079242462,4,1,0,100,1,0

[HitObjects]
454,196,133,5,4,0:0:0:0:
448,67,764,2,0,L|94:279,1,400.000005960464
157,351,3289,2,0,L|504:125,1,400.000005960464
292,120,5815,1,0,0:0:0:0:
35,44,6446,2,4,L|261:262,1,280.000004172325
228,130,7866,5,0,0:0:0:0:
315,130,8182,1,0,0:0:0:0:
70,166,8497,6,0,P|458:315|511:278,1,520.000007748603
67,66,11338,2,4,L|247:196,1,200.000002980232
105,176,12758,5,0,0:0:0:0:
205,177,13074,1,0,0:0:0:0:
320,181,13390,1,0,0:0:0:0:
438,185,13705,1,0,0:0:0:0:
20,207,14021,1,0,0:0:0:0:
21,102,14336,2,0,B|341:315|94:266,1,320.000004768371
142,104,15915,5,0,0:0:0:0:
279,104,16546,1,0,0:0:0:0:
203,235,17177,1,0,0:0:0:0:
343,125,17651,1,4,0:0:0:0:
355,308,18282,1,0,0:0:0:0:
36,66,18913,6,0,L|418:307,1,440.00000655651
457,326,20807,2,4,P|448:134|176:112,1,480.000007152557
62,324,25383,6,0,L|369:145,1,320.000004768371
189,165,27277,1,0,0:0:0:0:
391,160,27908,1,0,0:0:0:0:
120,241,28540,2,0,P|214:34|344:136,1,440.00000655651
138,291,30591,2,0,P|410:174|418:142,1,360.000005364418
410,69,32327,6,0,P|117:126|29:97,1,400.000005960464
178,137,34694,1,0,0:0:0:0:
278,134,35010,1,0,0:0:0:0:
46,191,35484,2,4,P|355:274|397:176,1,480.000007152557
188,125,38482,5,0,0:0:0:0:
282,120,38798,1,4,0:0:0:0:
382,71,39745,2,0,L|383:291,1,200.000002980232
187,191,41165,1,0,0:0:0:0:
43,166,41638,2,0,P|236:71|441:207,1,480.000007152557
352,214,43532,2,4,P|317:341|142:216,1,400.000005960464
420,256,45426,5,0,0:0:0:0:
305,226,45741,1,0,0:0:0:0:
260,174,46057,1,0,0:0:0:0:
140,66,46373,1,0,0:0:0:0:
74,144,46688,1,0,0:0:0:0:
175,243,47004,1,0,0:0:0:0:
212,118,47320,1,0,0:0:0:0:
64,104,47635,1,0,0:0:0:0:
58,184,47951,6,0,B|326:318|288:312,1,240.000003576278
256,187,49056,5,0,0:0:0:0:
360,80,49371,1,0,0:0:0:0:
117,90,49687,1,0,0:0:0:0:
123,264,50002,1,0,0:0:0:0:
361,237,50318,1,0,0:0:0:0:
186,163,50634,1,0,0:0:0:0:
357,89,50949,1,0,0:0:0:0:
317,229,51265,1,0,0:0:0:0:
76,125,51738,6,0,P|359:303|397:221,1,560.00000834465
303,122,55526,6,0,P|391:261|260:229,1,360.000005364418
78,191,57420,1,0,0:0:0:0:
216,192,57735,1,0,0:0:0:0:
344,192,58051,1,0,0:0:0:0:
462,194,58367,1,0,0:0:0:0:
435,100,58682,6,0,B|283:292|311:252,1,200.000002980232
123,204,59945,2,0,B|289:26|273:61,1,200.000002980232
360,135,61207,2,0,L|237:297,1,200.000002980232
49,215,62628,2,0,P|191:324|204:331,1,160.000002384186
40,115,63732,2,0,L|470:311,1,440.00000655651
83,297,65626,5,0,0:0:0:0:
161,296,65942,1,0,0:0:0:0:
247,294,66257,1,4,0:0:0:0:
71,261,66889,6,0,L|408:96,1,360.000005364418
383,166,68625,2,0,P|344:297|133:284,1,360.000005364418
139,221,70360,5,0,0:0:0:0:
230,221,70676,1,0,0:0:0:0:
57,220,70834,6,0,P|366:84|420:237,1,600.000008940696
343,221,73517,2,0,L|116:220,1,200.000002980232
143,148,75095,2,4,L|376:150,1,200.000002980232
257,132,76989,5,0,0:0:0:0:
256,237,77304,1,0,0:0:0:0:
180,190,77620,1,0,0:0:0:0:
321,184,77936,1,0,0:0:0:0:
256,289,78251,1,0,0:0:0:0:
41,49,80145,6,0,L|452:346,1,480.000007152557
457,269,82197,2,0,P|289:43|211:103,1,440.00000655651
137,117,87089,5,0,0:0:0:0:
256,192,87247,12,0,89262,0:0:0:0:
