osu file format v14

[General]
AudioFilename: audio.mp3
AudioLeadIn: 0
PreviewTime: 63270
Countdown: 1
SampleSet: Normal
StackLeniency: 0.7
Mode: 1
LetterboxInBreaks: 0
WidescreenStoryboard: 1

[Editor]
DistanceSpacing: 1
BeatDivisor: 4
GridSize: 32
TimelineZoom: 5.399997

[Metadata]
Title:Extratone Pirates
TitleUnicode:Extratone Pirates
Artist:Annoying Ringtones
ArtistUnicode:Annoying Ringtones
Creator:Shirai-
Version:Pirate God
Source:
Tags:alestorm keelhaul speedcore mew104
BeatmapID:1522947
BeatmapSetID:721203

[Difficulty]
HPDrainRate:1
CircleSize:5
OverallDifficulty:7
ApproachRate:10
SliderMultiplier:1.40383973668099
SliderTickRate:1

[Events]
//Background and Video events
0,0,"ueAI7zG.jpg",0,0
//Break Periods
//Storyboard Layer 0 (Background)
//Storyboard Layer 1 (Fail)
//Storyboard Layer 2 (Pass)
//Storyboard Layer 3 (Foreground)
//Storyboard Sound Samples

[TimingPoints]
90,120,4,1,0,100,1,0
90,-111.111111111111,4,1,0,100,0,0
7590,-108.108108108108,4,1,0,100,0,0
7650,-105.263157894737,4,1,0,100,0,0
7710,-102.564102564103,4,1,0,100,0,0
7770,-100,4,1,0,100,0,0
23130,-100,4,1,0,100,0,1
36810,-100,4,1,0,100,0,0
63450,-100,4,1,0,100,0,1
76890,-100,4,1,0,100,0,0
78810,-100,4,1,0,100,0,1
94170,-100,4,1,0,100,0,0
109530,-100,4,1,0,100,0,0
124890,-100,4,1,0,100,0,0

[HitObjects]
256,160,90,5,0,0:0:0:0:
256,160,210,1,8,0:0:0:0:
218,72,270,1,8,0:0:0:0:
224,96,330,1,0,0:0:0:0:
212,40,390,1,0,0:0:0:0:
256,96,450,1,8,0:0:0:0:
224,64,570,1,0,0:0:0:0:
274,95,630,1,0,0:0:0:0:
224,64,690,1,8,0:0:0:0:
240,70,750,1,0,0:0:0:0:
224,128,810,1,8,0:0:0:0:
158,99,870,1,8,0:0:0:0:
192,128,930,1,0,0:0:0:0:
192,128,1050,1,8,0:0:0:0:
187,113,1110,1,0,0:0:0:0:
256,160,1170,1,8,0:0:0:0:
195,106,1230,1,8,0:0:0:0:
224,96,1290,1,0,0:0:0:0:
235,67,1350,1,0,0:0:0:0:
256,96,1410,1,8,0:0:0:0:
224,64,1530,1,0,0:0:0:0:
309,216,1590,1,0,0:0:0:0:
224,64,1650,1,8,0:0:0:0:
261,210,1710,1,8,0:0:0:0:
224,128,1770,1,0,0:0:0:0:
192,128,1890,1,8,0:0:0:0:
297,223,1950,1,8,0:0:0:0:
192,128,2010,1,8,0:0:0:0:
256,160,2130,1,0,0:0:0:0:
128,146,2190,1,0,0:0:0:0:
224,96,2250,1,0,0:0:0:0:
310,160,2310,1,0,0:0:0:0:
256,96,2370,1,8,0:0:0:0:
224,64,2490,1,0,0:0:0:0:
271,108,2550,1,0,0:0:0:0:
224,64,2610,1,8,0:0:0:0:
224,128,2730,1,8,0:0:0:0:
272,100,2790,1,8,0:0:0:0:
192,128,2850,1,8,0:0:0:0:
192,128,2970,1,8,0:0:0:0:
292,127,3030,1,8,0:0:0:0:
256,160,3090,1,8,0:0:0:0:
285,125,3150,1,8,0:0:0:0:
224,96,3210,1,0,0:0:0:0:
285,125,3270,1,0,0:0:0:0:
256,96,3330,1,8,0:0:0:0:
279,125,3390,1,8,0:0:0:0:
224,64,3450,1,0,0:0:0:0:
224,64,3570,1,8,0:0:0:0:
192,64,3690,1,8,0:0:0:0:
224,96,3750,1,8,0:0:0:0:
224,96,3810,1,8,0:0:0:0:
224,96,3870,1,8,0:0:0:0:
224,96,3930,1,0,0:0:0:0:
256,160,4050,1,8,0:0:0:0:
224,96,4170,1,0,0:0:0:0:
341,176,4230,1,0,0:0:0:0:
256,96,4290,1,8,0:0:0:0:
314,177,4350,1,8,0:0:0:0:
224,64,4410,1,0,0:0:0:0:
224,64,4530,1,8,0:0:0:0:
192,64,4620,1,0,0:0:0:0:
224,128,4650,1,8,0:0:0:0:
192,64,4740,1,0,0:0:0:0:
192,128,4770,1,8,0:0:0:0:
64,128,4860,1,0,0:0:0:0:
192,128,4890,1,8,0:0:0:0:
256,160,5010,1,8,0:0:0:0:
251,109,5070,1,8,0:0:0:0:
224,96,5130,1,0,0:0:0:0:
279,122,5190,1,0,0:0:0:0:
256,96,5250,1,8,0:0:0:0:
224,64,5370,1,0,0:0:0:0:
224,64,5490,1,8,0:0:0:0:
192,64,5580,1,0,0:0:0:0:
224,128,5610,1,8,0:0:0:0:
192,64,5700,1,0,0:0:0:0:
192,128,5730,1,8,0:0:0:0:
64,128,5820,1,0,0:0:0:0:
192,128,5850,1,8,0:0:0:0:
256,160,5970,1,8,0:0:0:0:
256,160,6030,1,8,0:0:0:0:
224,96,6090,1,0,0:0:0:0:
264,155,6150,1,0,0:0:0:0:
256,96,6210,1,8,0:0:0:0:
224,64,6330,1,0,0:0:0:0:
337,105,6390,1,0,0:0:0:0:
224,64,6450,1,8,0:0:0:0:
192,64,6540,1,0,0:0:0:0:
224,128,6570,1,8,0:0:0:0:
192,64,6660,1,0,0:0:0:0:
192,128,6690,1,8,0:0:0:0:
64,128,6780,1,0,0:0:0:0:
192,128,6810,1,8,0:0:0:0:
256,160,6930,1,8,0:0:0:0:
228,146,6990,1,8,0:0:0:0:
224,96,7050,1,0,0:0:0:0:
233,91,7110,1,0,0:0:0:0:
256,96,7170,1,8,0:0:0:0:
224,64,7290,1,0,0:0:0:0:
183,66,7350,1,0,0:0:0:0:
183,66,7410,1,0,0:0:0:0:
183,66,7470,1,0,0:0:0:0:
192,128,7530,1,8,0:0:0:0:
192,128,7570,1,8,0:0:0:0:
192,128,7610,1,8,0:0:0:0:
192,128,7650,1,8,0:0:0:0:
192,128,7690,1,8,0:0:0:0:
192,128,7730,1,8,0:0:0:0:
224,96,7770,1,0,0:0:0:0:
224,192,7890,1,0,0:0:0:0:
224,160,7980,1,8,0:0:0:0:
432,200,8010,1,0,0:0:0:0:
192,64,8130,1,0,0:0:0:0:
224,96,8220,1,8,0:0:0:0:
327,134,8250,1,0,0:0:0:0:
256,128,8370,1,0,0:0:0:0:
224,128,8460,1,8,0:0:0:0:
224,128,8580,1,8,0:0:0:0:
224,128,8700,1,8,0:0:0:0:
224,128,8730,1,0,0:0:0:0:
256,160,8850,1,0,0:0:0:0:
256,192,8940,1,8,0:0:0:0:
323,101,8970,1,0,0:0:0:0:
256,160,9090,1,0,0:0:0:0:
256,192,9180,1,8,0:0:0:0:
269,103,9210,1,0,0:0:0:0:
256,160,9330,1,0,0:0:0:0:
256,160,9420,1,8,0:0:0:0:
256,160,9540,1,8,0:0:0:0:
256,160,9660,1,8,0:0:0:0:
256,160,9690,1,0,0:0:0:0:
288,128,9810,1,0,0:0:0:0:
256,192,9930,1,8,0:0:0:0:
256,192,9960,1,0,0:0:0:0:
288,128,10050,1,0,0:0:0:0:
256,192,10170,1,8,0:0:0:0:
256,192,10200,1,0,0:0:0:0:
288,128,10290,1,0,0:0:0:0:
256,160,10410,1,8,0:0:0:0:
256,160,10530,1,8,0:0:0:0:
256,160,10650,1,8,0:0:0:0:
256,160,10680,1,0,0:0:0:0:
288,96,10770,1,0,0:0:0:0:
256,192,10890,1,8,0:0:0:0:
256,192,10920,1,0,0:0:0:0:
288,96,11010,1,0,0:0:0:0:
256,192,11130,1,8,0:0:0:0:
256,192,11160,1,0,0:0:0:0:
288,96,11250,1,0,0:0:0:0:
224,160,11310,1,0,0:0:0:0:
160,128,11370,1,8,0:0:0:0:
221,171,11430,1,0,0:0:0:0:
160,128,11490,1,8,0:0:0:0:
242,150,11520,1,8,0:0:0:0:
256,192,11550,1,8,0:0:0:0:
233,150,11580,1,8,0:0:0:0:
192,128,11610,1,0,0:0:0:0:
256,160,11730,1,0,0:0:0:0:
256,192,11820,1,8,0:0:0:0:
256,192,11850,1,0,0:0:0:0:
256,160,11970,1,0,0:0:0:0:
256,192,12060,1,8,0:0:0:0:
256,192,12090,1,0,0:0:0:0:
256,160,12210,1,0,0:0:0:0:
256,160,12300,1,8,0:0:0:0:
256,160,12420,1,8,0:0:0:0:
256,160,12540,1,8,0:0:0:0:
256,160,12570,1,0,0:0:0:0:
288,128,12690,1,0,0:0:0:0:
256,192,12810,1,8,0:0:0:0:
256,192,12840,1,0,0:0:0:0:
288,128,12930,1,0,0:0:0:0:
256,192,13050,1,8,0:0:0:0:
256,192,13080,1,0,0:0:0:0:
288,128,13170,1,0,0:0:0:0:
160,128,13260,1,8,0:0:0:0:
192,96,13380,1,8,0:0:0:0:
192,96,13500,1,8,0:0:0:0:
192,96,13530,1,0,0:0:0:0:
160,96,13650,1,0,0:0:0:0:
224,160,13740,1,8,0:0:0:0:
224,160,13770,1,0,0:0:0:0:
224,160,13890,1,0,0:0:0:0:
288,128,13980,1,8,0:0:0:0:
288,128,14010,1,0,0:0:0:0:
256,128,14130,1,0,0:0:0:0:
256,128,14220,1,8,0:0:0:0:
256,128,14250,1,0,0:0:0:0:
256,96,14370,1,0,0:0:0:0:
128,32,14460,1,8,0:0:0:0:
128,32,14490,1,8,0:0:0:0:
128,32,14580,1,8,0:0:0:0:
128,32,14610,1,8,0:0:0:0:
128,32,14700,1,8,0:0:0:0:
128,32,14730,1,8,0:0:0:0:
160,32,14820,1,8,0:0:0:0:
160,32,14850,1,8,0:0:0:0:
160,32,14940,1,0,0:0:0:0:
160,32,14970,1,0,0:0:0:0:
192,32,15030,1,0,0:0:0:0:
192,32,15090,1,0,0:0:0:0:
192,32,15150,1,0,0:0:0:0:
192,128,15210,1,8,0:0:0:0:
256,96,15250,1,8,0:0:0:0:
256,96,15290,1,8,0:0:0:0:
256,96,15330,1,8,0:0:0:0:
256,96,15370,1,8,0:0:0:0:
256,96,15410,1,8,0:0:0:0:
256,96,15450,1,0,0:0:0:0:
256,160,15570,1,0,0:0:0:0:
256,192,15660,1,8,0:0:0:0:
256,192,15690,1,0,0:0:0:0:
256,160,15810,1,0,0:0:0:0:
256,192,15900,1,8,0:0:0:0:
256,192,15930,1,0,0:0:0:0:
256,160,16050,1,0,0:0:0:0:
256,160,16140,1,8,0:0:0:0:
256,160,16170,1,0,0:0:0:0:
256,160,16260,1,8,0:0:0:0:
256,160,16290,1,0,0:0:0:0:
256,160,16380,1,8,0:0:0:0:
256,160,16410,1,0,0:0:0:0:
256,160,16530,1,0,0:0:0:0:
256,192,16620,1,8,0:0:0:0:
256,192,16650,1,0,0:0:0:0:
256,160,16770,1,0,0:0:0:0:
256,192,16860,1,8,0:0:0:0:
256,192,16890,1,0,0:0:0:0:
256,160,17010,1,0,0:0:0:0:
256,160,17100,1,8,0:0:0:0:
256,160,17130,1,0,0:0:0:0:
256,160,17220,1,8,0:0:0:0:
256,160,17250,1,0,0:0:0:0:
256,160,17340,1,8,0:0:0:0:
256,160,17370,1,0,0:0:0:0:
256,160,17490,1,0,0:0:0:0:
256,192,17580,1,8,0:0:0:0:
256,192,17610,1,0,0:0:0:0:
256,160,17730,1,0,0:0:0:0:
256,192,17820,1,8,0:0:0:0:
256,192,17850,1,0,0:0:0:0:
256,160,17970,1,0,0:0:0:0:
256,160,18060,1,8,0:0:0:0:
256,160,18090,1,0,0:0:0:0:
256,160,18180,1,8,0:0:0:0:
256,160,18210,1,0,0:0:0:0:
256,160,18300,1,8,0:0:0:0:
256,160,18330,1,0,0:0:0:0:
256,160,18450,1,0,0:0:0:0:
256,192,18540,1,8,0:0:0:0:
256,192,18570,1,0,0:0:0:0:
256,160,18690,1,0,0:0:0:0:
256,192,18780,1,8,0:0:0:0:
256,192,18810,1,0,0:0:0:0:
224,32,18870,1,0,0:0:0:0:
224,128,18930,1,0,0:0:0:0:
256,64,18990,1,0,0:0:0:0:
224,128,19050,1,8,0:0:0:0:
144,193,19080,1,8,0:0:0:0:
103,157,19110,1,0,0:0:0:0:
224,128,19140,1,0,0:0:0:0:
224,128,19170,1,8,0:0:0:0:
224,128,19230,1,8,0:0:0:0:
224,128,19290,1,0,0:0:0:0:
256,160,19410,1,0,0:0:0:0:
256,192,19500,1,8,0:0:0:0:
256,192,19530,1,0,0:0:0:0:
256,160,19650,1,0,0:0:0:0:
256,192,19740,1,8,0:0:0:0:
256,192,19770,1,0,0:0:0:0:
256,160,19890,1,0,0:0:0:0:
256,160,19980,1,8,0:0:0:0:
256,160,20010,1,0,0:0:0:0:
256,160,20100,1,8,0:0:0:0:
256,160,20130,1,0,0:0:0:0:
256,160,20220,1,8,0:0:0:0:
256,160,20250,1,0,0:0:0:0:
256,160,20370,1,0,0:0:0:0:
256,192,20460,1,8,0:0:0:0:
256,192,20490,1,0,0:0:0:0:
256,160,20610,1,0,0:0:0:0:
256,192,20700,1,8,0:0:0:0:
256,192,20730,1,0,0:0:0:0:
256,160,20850,1,0,0:0:0:0:
256,160,20940,1,8,0:0:0:0:
256,160,20970,1,0,0:0:0:0:
256,160,21060,1,8,0:0:0:0:
256,160,21090,1,0,0:0:0:0:
256,160,21180,1,8,0:0:0:0:
256,160,21210,1,0,0:0:0:0:
256,160,21330,1,0,0:0:0:0:
256,192,21420,1,8,0:0:0:0:
256,192,21450,1,0,0:0:0:0:
256,160,21570,1,0,0:0:0:0:
256,192,21660,1,8,0:0:0:0:
256,192,21690,1,0,0:0:0:0:
288,64,21810,1,0,0:0:0:0:
288,64,21900,1,8,0:0:0:0:
288,64,21930,1,0,0:0:0:0:
288,64,22020,1,8,0:0:0:0:
288,64,22050,1,0,0:0:0:0:
256,64,22110,1,0,0:0:0:0:
256,128,22170,1,8,0:0:0:0:
256,128,22200,1,8,0:0:0:0:
160,96,22245,1,0,0:0:0:0:
256,64,22290,1,8,0:0:0:0:
256,64,22320,1,8,0:0:0:0:
224,32,22365,1,0,0:0:0:0:
224,64,22410,1,8,0:0:0:0:
224,64,22440,1,8,0:0:0:0:
224,32,22485,1,0,0:0:0:0:
224,64,22530,1,8,0:0:0:0:
224,64,22560,1,8,0:0:0:0:
192,128,22605,1,0,0:0:0:0:
192,96,22650,1,0,0:0:0:0:
256,128,22680,1,0,0:0:0:0:
256,128,22710,1,0,0:0:0:0:
256,128,22740,1,0,0:0:0:0:
256,128,22770,1,0,0:0:0:0:
256,128,22800,1,0,0:0:0:0:
256,128,22830,1,0,0:0:0:0:
256,128,22860,1,0,0:0:0:0:
256,160,22890,1,8,0:0:0:0:
154,98,22920,1,8,0:0:0:0:
256,160,22950,1,8,0:0:0:0:
192,96,22980,1,8,0:0:0:0:
192,96,23010,1,8,0:0:0:0:
192,96,23040,1,8,0:0:0:0:
192,96,23070,1,8,0:0:0:0:
256,160,23100,1,8,0:0:0:0:
288,96,23130,1,0,0:0:0:0:
256,64,23190,1,0,0:0:0:0:
256,64,23220,1,0,0:0:0:0:
256,64,23250,1,8,0:0:0:0:
320,128,23310,1,0,0:0:0:0:
320,128,23370,1,8,0:0:0:0:
192,64,23430,1,0,0:0:0:0:
256,96,23460,1,0,0:0:0:0:
224,96,23490,1,8,0:0:0:0:
224,96,23550,1,0,0:0:0:0:
224,96,23610,1,8,0:0:0:0:
160,128,23640,1,8,0:0:0:0:
128,96,23670,1,0,0:0:0:0:
128,96,23730,1,8,0:0:0:0:
160,64,23790,1,0,0:0:0:0:
160,64,23820,1,0,0:0:0:0:
160,96,23850,1,8,0:0:0:0:
224,32,23910,1,0,0:0:0:0:
160,96,23970,1,8,0:0:0:0:
128,96,24000,1,8,0:0:0:0:
224,64,24030,1,8,0:0:0:0:
160,64,24090,1,0,0:0:0:0:
224,96,24150,1,0,0:0:0:0:
224,64,24180,1,0,0:0:0:0:
224,96,24210,1,8,0:0:0:0:
192,128,24270,1,0,0:0:0:0:
224,96,24330,1,8,0:0:0:0:
224,128,24360,1,8,0:0:0:0:
224,128,24390,1,8,0:0:0:0:
224,128,24420,1,8,0:0:0:0:
224,96,24450,1,0,0:0:0:0:
128,64,24480,1,0,0:0:0:0:
224,128,24510,1,0,0:0:0:0:
160,64,24540,1,0,0:0:0:0:
224,96,24570,1,8,0:0:0:0:
224,96,24630,1,0,0:0:0:0:
256,96,24690,1,8,0:0:0:0:
192,96,24750,1,8,0:0:0:0:
192,96,24780,1,8,0:0:0:0:
256,64,24810,1,0,0:0:0:0:
160,96,24840,1,8,0:0:0:0:
192,96,24870,1,0,0:0:0:0:
160,96,24900,1,0,0:0:0:0:
256,64,24930,1,8,0:0:0:0:
192,96,24960,1,8,0:0:0:0:
192,96,24990,1,8,0:0:0:0:
192,96,25020,1,8,0:0:0:0:
256,64,25050,1,0,0:0:0:0:
224,160,25110,1,0,0:0:0:0:
128,128,25170,1,8,0:0:0:0:
128,128,25230,1,0,0:0:0:0:
128,128,25260,1,0,0:0:0:0:
128,128,25290,1,8,0:0:0:0:
128,128,25350,1,0,0:0:0:0:
128,128,25410,1,8,0:0:0:0:
128,128,25440,1,8,0:0:0:0:
128,128,25470,1,0,0:0:0:0:
128,64,25500,1,0,0:0:0:0:
128,128,25530,1,8,0:0:0:0:
192,32,25590,1,0,0:0:0:0:
192,32,25650,1,8,0:0:0:0:
192,32,25710,1,0,0:0:0:0:
192,32,25740,1,0,0:0:0:0:
192,32,25770,1,8,0:0:0:0:
192,192,25830,1,0,0:0:0:0:
160,192,25890,1,8,0:0:0:0:
160,192,25920,1,8,0:0:0:0:
160,192,25950,1,0,0:0:0:0:
128,96,26010,1,8,0:0:0:0:
224,96,26070,1,0,0:0:0:0:
128,128,26100,1,0,0:0:0:0:
256,96,26130,1,8,0:0:0:0:
256,96,26190,1,0,0:0:0:0:
256,96,26250,1,8,0:0:0:0:
224,32,26310,1,0,0:0:0:0:
224,96,26340,1,0,0:0:0:0:
224,32,26370,1,8,0:0:0:0:
192,32,26400,1,0,0:0:0:0:
224,32,26430,1,8,0:0:0:0:
192,32,26460,1,8,0:0:0:0:
224,32,26490,1,0,0:0:0:0:
192,0,26550,1,0,0:0:0:0:
192,0,26610,1,0,0:0:0:0:
256,96,26640,1,0,0:0:0:0:
192,0,26670,1,0,0:0:0:0:
224,96,26700,1,0,0:0:0:0:
160,0,26730,1,8,0:0:0:0:
224,96,26760,1,8,0:0:0:0:
192,0,26790,1,0,0:0:0:0:
224,64,26820,1,0,0:0:0:0:
160,32,26850,1,8,0:0:0:0:
224,64,26880,1,0,0:0:0:0:
160,32,26910,1,8,0:0:0:0:
224,64,26940,1,8,0:0:0:0:
224,64,26970,1,0,0:0:0:0:
128,96,27030,1,0,0:0:0:0:
128,96,27090,1,8,0:0:0:0:
192,96,27150,1,0,0:0:0:0:
192,96,27180,1,0,0:0:0:0:
192,96,27210,1,8,0:0:0:0:
192,96,27270,1,0,0:0:0:0:
192,96,27330,1,8,0:0:0:0:
160,96,27360,1,8,0:0:0:0:
160,96,27390,1,0,0:0:0:0:
160,96,27450,1,8,0:0:0:0:
160,96,27510,1,0,0:0:0:0:
160,96,27540,1,0,0:0:0:0:
160,96,27570,1,8,0:0:0:0:
288,128,27630,1,0,0:0:0:0:
288,128,27690,1,8,0:0:0:0:
288,128,27720,1,8,0:0:0:0:
288,128,27750,1,8,0:0:0:0:
288,128,27810,1,0,0:0:0:0:
288,128,27870,1,0,0:0:0:0:
288,128,27930,1,8,0:0:0:0:
128,128,27960,1,0,0:0:0:0:
128,128,27990,1,0,0:0:0:0:
128,128,28020,1,0,0:0:0:0:
128,128,28050,1,8,0:0:0:0:
128,128,28080,1,8,0:0:0:0:
128,128,28110,1,8,0:0:0:0:
128,128,28140,1,8,0:0:0:0:
128,128,28170,1,0,0:0:0:0:
192,128,28230,1,0,0:0:0:0:
192,128,28290,1,8,0:0:0:0:
192,128,28320,1,8,0:0:0:0:
192,128,28350,1,0,0:0:0:0:
192,128,28380,1,0,0:0:0:0:
192,128,28410,1,0,0:0:0:0:
288,96,28470,1,0,0:0:0:0:
320,64,28530,1,8,0:0:0:0:
192,64,28590,1,0,0:0:0:0:
192,64,28620,1,0,0:0:0:0:
192,64,28650,1,8,0:0:0:0:
160,64,28710,1,0,0:0:0:0:
160,64,28770,1,8,0:0:0:0:
192,64,28800,1,8,0:0:0:0:
192,64,28830,1,0,0:0:0:0:
192,64,28890,1,8,0:0:0:0:
192,64,28950,1,0,0:0:0:0:
160,32,28980,1,0,0:0:0:0:
160,32,29010,1,8,0:0:0:0:
128,128,29070,1,0,0:0:0:0:
128,128,29130,1,8,0:0:0:0:
128,128,29160,1,8,0:0:0:0:
128,128,29190,1,0,0:0:0:0:
128,128,29250,1,8,0:0:0:0:
224,224,29310,1,0,0:0:0:0:
224,224,29370,1,8,0:0:0:0:
224,224,29400,1,8,0:0:0:0:
192,128,29430,1,0,0:0:0:0:
160,96,29460,1,0,0:0:0:0:
256,96,29490,1,8,0:0:0:0:
192,96,29550,1,0,0:0:0:0:
192,96,29610,1,8,0:0:0:0:
192,96,29640,1,8,0:0:0:0:
192,96,29670,1,0,0:0:0:0:
85,135,29700,1,0,0:0:0:0:
192,128,29730,1,8,0:0:0:0:
192,128,29790,1,0,0:0:0:0:
224,96,29850,1,8,0:0:0:0:
224,96,29880,1,8,0:0:0:0:
224,96,29910,1,8,0:0:0:0:
192,96,29940,1,8,0:0:0:0:
224,96,29970,1,0,0:0:0:0:
224,96,30030,1,8,0:0:0:0:
224,96,30090,1,0,0:0:0:0:
192,32,30120,1,0,0:0:0:0:
224,96,30150,1,0,0:0:0:0:
245,61,30180,1,0,0:0:0:0:
224,96,30210,1,8,0:0:0:0:
224,96,30270,1,0,0:0:0:0:
256,96,30330,1,8,0:0:0:0:
256,64,30360,1,8,0:0:0:0:
256,64,30390,1,8,0:0:0:0:
256,64,30420,1,8,0:0:0:0:
256,64,30450,1,8,0:0:0:0:
256,64,30480,1,8,0:0:0:0:
256,64,30510,1,8,0:0:0:0:
256,64,30540,1,8,0:0:0:0:
256,64,30570,1,8,0:0:0:0:
256,64,30600,1,8,0:0:0:0:
256,64,30630,1,8,0:0:0:0:
256,64,30660,1,8,0:0:0:0:
256,64,30690,1,8,0:0:0:0:
256,64,30720,1,8,0:0:0:0:
256,64,30750,1,8,0:0:0:0:
105,108,30780,1,8,0:0:0:0:
224,96,30810,1,0,0:0:0:0:
192,96,30870,1,8,0:0:0:0:
192,96,30900,1,8,0:0:0:0:
192,96,30930,1,0,0:0:0:0:
192,32,30990,1,8,0:0:0:0:
192,32,31050,1,0,0:0:0:0:
192,32,31110,1,8,0:0:0:0:
192,32,31140,1,8,0:0:0:0:
192,32,31170,1,0,0:0:0:0:
224,96,31230,1,8,0:0:0:0:
224,96,31290,1,0,0:0:0:0:
224,96,31350,1,8,0:0:0:0:
224,96,31380,1,8,0:0:0:0:
224,96,31410,1,0,0:0:0:0:
224,96,31470,1,8,0:0:0:0:
224,96,31530,1,0,0:0:0:0:
224,96,31590,1,8,0:0:0:0:
224,96,31620,1,8,0:0:0:0:
224,96,31650,1,0,0:0:0:0:
224,96,31710,1,8,0:0:0:0:
224,96,31770,1,0,0:0:0:0:
256,128,31830,1,8,0:0:0:0:
256,128,31860,1,8,0:0:0:0:
256,128,31890,1,0,0:0:0:0:
256,128,31950,1,8,0:0:0:0:
256,128,32010,1,0,0:0:0:0:
256,128,32070,1,8,0:0:0:0:
256,128,32100,1,8,0:0:0:0:
256,128,32130,1,0,0:0:0:0:
256,128,32190,1,8,0:0:0:0:
256,128,32250,1,0,0:0:0:0:
192,128,32310,1,8,0:0:0:0:
192,96,32340,1,8,0:0:0:0:
192,96,32370,1,0,0:0:0:0:
192,96,32430,1,8,0:0:0:0:
192,96,32490,1,0,0:0:0:0:
192,96,32550,1,8,0:0:0:0:
192,96,32580,1,8,0:0:0:0:
192,96,32610,1,0,0:0:0:0:
192,96,32670,1,8,0:0:0:0:
192,96,32730,1,0,0:0:0:0:
192,96,32790,1,8,0:0:0:0:
192,96,32820,1,8,0:0:0:0:
192,96,32850,1,0,0:0:0:0:
192,96,32910,1,8,0:0:0:0:
192,96,32970,1,0,0:0:0:0:
192,96,33030,1,8,0:0:0:0:
192,96,33060,1,8,0:0:0:0:
192,96,33090,1,0,0:0:0:0:
192,96,33150,1,8,0:0:0:0:
192,96,33210,1,0,0:0:0:0:
192,96,33270,1,8,0:0:0:0:
192,96,33300,1,8,0:0:0:0:
192,96,33330,1,0,0:0:0:0:
192,96,33390,1,8,0:0:0:0:
192,96,33450,1,0,0:0:0:0:
192,96,33510,1,8,0:0:0:0:
192,96,33540,1,8,0:0:0:0:
192,96,33570,1,0,0:0:0:0:
192,96,33630,1,8,0:0:0:0:
192,128,33690,1,0,0:0:0:0:
224,64,33720,1,0,0:0:0:0:
224,64,33750,1,0,0:0:0:0:
224,64,33780,1,0,0:0:0:0:
224,64,33810,1,0,0:0:0:0:
224,64,33840,1,0,0:0:0:0:
224,64,33870,1,0,0:0:0:0:
224,64,33900,1,0,0:0:0:0:
192,96,33930,1,8,0:0:0:0:
192,64,33960,1,8,0:0:0:0:
192,64,33990,1,8,0:0:0:0:
192,64,34020,1,8,0:0:0:0:
192,64,34050,1,8,0:0:0:0:
192,64,34080,1,8,0:0:0:0:
192,64,34110,1,8,0:0:0:0:
192,64,34140,1,8,0:0:0:0:
192,96,34170,1,0,0:0:0:0:
192,64,34230,1,0,0:0:0:0:
160,64,34290,1,8,0:0:0:0:
160,64,34320,1,8,0:0:0:0:
160,64,34350,1,0,0:0:0:0:
160,64,34380,1,0,0:0:0:0:
160,64,34410,1,8,0:0:0:0:
160,64,34470,1,0,0:0:0:0:
256,128,34530,1,8,0:0:0:0:
256,128,34560,1,8,0:0:0:0:
256,128,34590,1,8,0:0:0:0:
256,128,34620,1,8,0:0:0:0:
256,128,34650,1,0,0:0:0:0:
288,96,34680,1,0,0:0:0:0:
288,96,34710,1,8,0:0:0:0:
288,96,34770,1,0,0:0:0:0:
288,96,34800,1,0,0:0:0:0:
288,96,34830,1,8,0:0:0:0:
288,96,34890,1,0,0:0:0:0:
288,96,34920,1,0,0:0:0:0:
288,96,34950,1,8,0:0:0:0:
288,96,35010,1,0,0:0:0:0:
288,96,35040,1,0,0:0:0:0:
288,96,35070,1,8,0:0:0:0:
288,96,35130,1,0,0:0:0:0:
288,96,35160,1,0,0:0:0:0:
288,96,35190,1,8,0:0:0:0:
288,96,35250,1,0,0:0:0:0:
288,96,35280,1,0,0:0:0:0:
288,96,35310,1,8,0:0:0:0:
288,96,35370,1,0,0:0:0:0:
288,96,35400,1,0,0:0:0:0:
288,96,35430,1,8,0:0:0:0:
288,96,35460,1,8,0:0:0:0:
288,96,35490,1,0,0:0:0:0:
288,96,35550,1,8,0:0:0:0:
192,64,35610,1,0,0:0:0:0:
192,64,35640,1,0,0:0:0:0:
192,64,35670,1,0,0:0:0:0:
192,64,35700,1,0,0:0:0:0:
192,64,35730,1,0,0:0:0:0:
192,64,35760,1,0,0:0:0:0:
192,64,35790,1,0,0:0:0:0:
192,64,35820,1,0,0:0:0:0:
192,64,35850,1,0,0:0:0:0:
192,64,35880,1,0,0:0:0:0:
192,64,35910,1,0,0:0:0:0:
192,64,35940,1,0,0:0:0:0:
192,64,35970,1,0,0:0:0:0:
192,64,36000,1,0,0:0:0:0:
192,64,36030,1,0,0:0:0:0:
192,64,36060,1,0,0:0:0:0:
256,32,36090,1,8,0:0:0:0:
320,64,36120,1,8,0:0:0:0:
320,64,36150,1,8,0:0:0:0:
320,64,36180,1,8,0:0:0:0:
320,64,36210,1,8,0:0:0:0:
320,64,36240,1,8,0:0:0:0:
320,64,36270,1,8,0:0:0:0:
320,64,36300,1,8,0:0:0:0:
320,64,36330,1,8,0:0:0:0:
320,64,36360,1,8,0:0:0:0:
320,64,36390,1,8,0:0:0:0:
320,64,36420,1,8,0:0:0:0:
320,64,36450,1,8,0:0:0:0:
320,64,36480,1,8,0:0:0:0:
320,64,36510,1,8,0:0:0:0:
320,64,36540,1,8,0:0:0:0:
224,32,36570,1,0,0:0:0:0:
288,96,36610,1,0,0:0:0:0:
288,96,36650,1,0,0:0:0:0:
288,96,36690,1,8,0:0:0:0:
288,96,36730,1,0,0:0:0:0:
192,64,36770,1,0,0:0:0:0:
192,64,36810,1,8,0:0:0:0:
224,64,36850,1,0,0:0:0:0:
224,64,36890,1,0,0:0:0:0:
224,64,36930,1,8,0:0:0:0:
224,64,36970,1,8,0:0:0:0:
224,64,37010,1,8,0:0:0:0:
224,64,37050,1,0,0:0:0:0:
192,128,37090,1,0,0:0:0:0:
192,128,37130,1,8,0:0:0:0:
192,128,37170,1,0,0:0:0:0:
192,128,37210,1,0,0:0:0:0:
192,128,37250,1,8,0:0:0:0:
224,128,37290,1,0,0:0:0:0:
224,128,37330,1,8,0:0:0:0:
224,128,37370,1,8,0:0:0:0:
224,128,37410,1,0,0:0:0:0:
192,128,37450,1,0,0:0:0:0:
192,128,37490,1,0,0:0:0:0:
160,128,37530,1,8,0:0:0:0:
288,192,37570,1,8,0:0:0:0:
256,192,37610,1,8,0:0:0:0:
256,192,37650,1,8,0:0:0:0:
256,192,37690,1,8,0:0:0:0:
256,192,37730,1,8,0:0:0:0:
256,192,37770,1,0,0:0:0:0:
288,160,37810,1,0,0:0:0:0:
288,160,37850,1,0,0:0:0:0:
288,160,37890,1,0,0:0:0:0:
288,160,37930,1,0,0:0:0:0:
288,160,37970,1,0,0:0:0:0:
256,192,38010,1,8,0:0:0:0:
352,160,38040,1,8,0:0:0:0:
352,160,38070,1,8,0:0:0:0:
352,160,38100,1,8,0:0:0:0:
352,160,38130,1,8,0:0:0:0:
352,160,38160,1,8,0:0:0:0:
352,160,38190,1,8,0:0:0:0:
352,160,38220,1,8,0:0:0:0:
352,160,38250,1,8,0:0:0:0:
352,160,38280,1,8,0:0:0:0:
352,160,38310,1,8,0:0:0:0:
352,160,38340,1,8,0:0:0:0:
352,160,38370,1,8,0:0:0:0:
352,160,38400,1,8,0:0:0:0:
352,160,38430,1,8,0:0:0:0:
352,160,38460,1,8,0:0:0:0:
320,192,38490,1,4,0:0:0:0:
256,96,40410,1,4,0:0:0:0:
256,96,42330,1,4,0:0:0:0:
256,96,43290,1,4,0:0:0:0:
288,96,44250,1,4,0:0:0:0:
192,64,44730,1,4,0:0:0:0:
224,64,45210,1,0,0:0:0:0:
256,96,45240,1,0,0:0:0:0:
256,96,45270,1,0,0:0:0:0:
256,96,45300,1,0,0:0:0:0:
256,32,45330,1,0,0:0:0:0:
256,32,45360,1,0,0:0:0:0:
256,32,45390,1,0,0:0:0:0:
256,32,45420,1,0,0:0:0:0:
160,32,45450,1,8,0:0:0:0:
256,32,45480,1,8,0:0:0:0:
256,32,45510,1,8,0:0:0:0:
256,32,45540,1,8,0:0:0:0:
256,32,45570,1,8,0:0:0:0:
256,32,45600,1,8,0:0:0:0:
256,32,45630,1,8,0:0:0:0:
256,32,45660,1,8,0:0:0:0:
256,96,45690,1,0,0:0:0:0:
224,32,45720,1,0,0:0:0:0:
224,32,45750,1,0,0:0:0:0:
224,32,45780,1,0,0:0:0:0:
224,32,45810,1,0,0:0:0:0:
224,32,45840,1,0,0:0:0:0:
224,32,45870,1,0,0:0:0:0:
224,32,45900,1,0,0:0:0:0:
256,96,45930,1,8,0:0:0:0:
282,91,45990,1,0,0:0:0:0:
128,128,46050,1,8,0:0:0:0:
256,96,46110,1,8,0:0:0:0:
256,96,46170,1,0,0:0:0:0:
224,96,46230,1,0,0:0:0:0:
160,96,46290,1,0,0:0:0:0:
256,96,46350,1,0,0:0:0:0:
224,224,46410,1,8,0:0:0:0:
229,77,46470,1,0,0:0:0:0:
224,224,46530,1,8,0:0:0:0:
224,128,46590,1,0,0:0:0:0:
224,128,46650,1,8,0:0:0:0:
213,135,46710,1,8,0:0:0:0:
192,128,46770,1,0,0:0:0:0:
161,74,46830,1,0,0:0:0:0:
192,128,46890,1,8,0:0:0:0:
298,130,46950,1,0,0:0:0:0:
192,128,47010,1,8,0:0:0:0:
192,128,47070,1,8,0:0:0:0:
192,128,47130,1,0,0:0:0:0:
74,100,47190,1,0,0:0:0:0:
224,96,47250,1,8,0:0:0:0:
313,139,47310,1,0,0:0:0:0:
224,96,47370,1,8,0:0:0:0:
224,96,47430,1,0,0:0:0:0:
224,96,47490,1,0,0:0:0:0:
224,96,47550,1,0,0:0:0:0:
224,96,47610,1,8,0:0:0:0:
224,96,47670,1,0,0:0:0:0:
224,96,47730,1,0,0:0:0:0:
224,96,47790,1,0,0:0:0:0:
224,96,47850,1,8,0:0:0:0:
289,107,47910,1,8,0:0:0:0:
224,96,47970,1,0,0:0:0:0:
279,100,48030,1,0,0:0:0:0:
224,96,48090,1,8,0:0:0:0:
224,64,48150,1,8,0:0:0:0:
224,64,48210,1,0,0:0:0:0:
304,88,48270,1,0,0:0:0:0:
224,64,48330,1,8,0:0:0:0:
282,88,48390,1,0,0:0:0:0:
224,64,48450,1,8,0:0:0:0:
192,32,48510,1,0,0:0:0:0:
192,32,48570,1,8,0:0:0:0:
224,128,48630,1,8,0:0:0:0:
192,32,48690,1,0,0:0:0:0:
254,125,48750,1,0,0:0:0:0:
224,128,48810,1,8,0:0:0:0:
232,30,48870,1,0,0:0:0:0:
224,128,48930,1,8,0:0:0:0:
224,128,48990,1,0,0:0:0:0:
224,128,49050,1,8,0:0:0:0:
288,96,49110,1,8,0:0:0:0:
288,96,49170,1,0,0:0:0:0:
288,96,49230,1,0,0:0:0:0:
288,96,49290,1,8,0:0:0:0:
288,96,49350,1,0,0:0:0:0:
288,96,49410,1,8,0:0:0:0:
192,128,49470,1,8,0:0:0:0:
192,128,49530,1,0,0:0:0:0:
192,128,49590,1,8,0:0:0:0:
192,128,49650,1,0,0:0:0:0:
192,128,49710,1,0,0:0:0:0:
192,128,49770,1,8,0:0:0:0:
320,160,49800,1,8,0:0:0:0:
320,160,49830,1,8,0:0:0:0:
320,160,49860,1,8,0:0:0:0:
320,160,49890,1,8,0:0:0:0:
320,160,49920,1,8,0:0:0:0:
320,160,49950,1,8,0:0:0:0:
320,160,49980,1,8,0:0:0:0:
192,128,50010,1,0,0:0:0:0:
224,131,50070,1,8,0:0:0:0:
288,192,50130,1,0,0:0:0:0:
192,96,50190,1,8,0:0:0:0:
224,224,50250,1,8,0:0:0:0:
228,137,50310,1,0,0:0:0:0:
224,224,50370,1,8,0:0:0:0:
337,131,50430,1,0,0:0:0:0:
224,224,50490,1,0,0:0:0:0:
224,224,50550,1,0,0:0:0:0:
224,224,50610,1,8,0:0:0:0:
170,98,50670,1,0,0:0:0:0:
192,160,50730,1,8,0:0:0:0:
210,38,50790,1,8,0:0:0:0:
192,160,50850,1,0,0:0:0:0:
138,121,50910,1,0,0:0:0:0:
192,160,50970,1,0,0:0:0:0:
192,160,51030,1,0,0:0:0:0:
192,160,51090,1,8,0:0:0:0:
192,224,51150,1,8,0:0:0:0:
192,224,51210,1,8,0:0:0:0:
150,70,51270,1,8,0:0:0:0:
192,192,51330,1,0,0:0:0:0:
171,109,51390,1,0,0:0:0:0:
256,160,51450,1,0,0:0:0:0:
224,160,51510,1,0,0:0:0:0:
192,160,51570,1,8,0:0:0:0:
192,160,51630,1,8,0:0:0:0:
192,160,51690,1,0,0:0:0:0:
192,160,51750,1,0,0:0:0:0:
192,160,51810,1,8,0:0:0:0:
192,160,51870,1,8,0:0:0:0:
192,160,51930,1,0,0:0:0:0:
215,80,51990,1,0,0:0:0:0:
224,192,52050,1,8,0:0:0:0:
210,77,52110,1,0,0:0:0:0:
288,192,52170,1,8,0:0:0:0:
288,192,52230,1,0,0:0:0:0:
288,192,52290,1,8,0:0:0:0:
288,192,52350,1,8,0:0:0:0:
288,192,52410,1,0,0:0:0:0:
288,192,52470,1,0,0:0:0:0:
288,192,52530,1,8,0:0:0:0:
224,160,52590,1,8,0:0:0:0:
224,160,52650,1,0,0:0:0:0:
224,128,52710,1,0,0:0:0:0:
224,128,52770,1,0,0:0:0:0:
224,160,52830,1,0,0:0:0:0:
224,160,52890,1,8,0:0:0:0:
224,160,52950,1,0,0:0:0:0:
224,160,53010,1,8,0:0:0:0:
256,160,53070,1,8,0:0:0:0:
224,160,53130,1,0,0:0:0:0:
256,96,53190,1,0,0:0:0:0:
256,96,53250,1,0,0:0:0:0:
256,96,53310,1,0,0:0:0:0:
192,128,53370,1,8,0:0:0:0:
224,96,53400,1,8,0:0:0:0:
224,96,53430,1,8,0:0:0:0:
224,96,53460,1,8,0:0:0:0:
224,96,53490,1,8,0:0:0:0:
224,96,53520,1,8,0:0:0:0:
224,96,53550,1,8,0:0:0:0:
224,96,53580,1,8,0:0:0:0:
224,96,53610,1,8,0:0:0:0:
224,96,53640,1,8,0:0:0:0:
224,96,53670,1,8,0:0:0:0:
224,96,53700,1,8,0:0:0:0:
224,96,53730,1,8,0:0:0:0:
224,96,53760,1,8,0:0:0:0:
224,96,53790,1,8,0:0:0:0:
224,96,53820,1,8,0:0:0:0:
224,96,53850,1,0,0:0:0:0:
229,74,53910,1,0,0:0:0:0:
192,128,53970,1,8,0:0:0:0:
198,106,54030,1,0,0:0:0:0:
192,128,54090,1,0,0:0:0:0:
32,160,54150,1,0,0:0:0:0:
192,128,54210,1,8,0:0:0:0:
244,100,54270,1,8,0:0:0:0:
224,96,54330,1,0,0:0:0:0:
242,95,54390,1,0,0:0:0:0:
224,96,54450,1,8,0:0:0:0:
215,92,54510,1,0,0:0:0:0:
256,64,54570,1,0,0:0:0:0:
320,128,54630,1,0,0:0:0:0:
192,64,54690,1,8,0:0:0:0:
138,106,54750,1,0,0:0:0:0:
320,128,54810,1,8,0:0:0:0:
251,74,54870,1,0,0:0:0:0:
128,96,54930,1,8,0:0:0:0:
263,50,54990,1,8,0:0:0:0:
128,96,55050,1,0,0:0:0:0:
128,96,55110,1,0,0:0:0:0:
128,96,55170,1,8,0:0:0:0:
208,125,55230,1,8,0:0:0:0:
128,96,55290,1,0,0:0:0:0:
229,77,55350,1,0,0:0:0:0:
192,160,55410,1,8,0:0:0:0:
192,160,55470,1,0,0:0:0:0:
192,160,55530,1,8,0:0:0:0:
192,160,55590,1,0,0:0:0:0:
192,160,55650,1,8,0:0:0:0:
165,141,55710,1,8,0:0:0:0:
320,128,55770,1,0,0:0:0:0:
199,95,55830,1,0,0:0:0:0:
256,128,55890,1,8,0:0:0:0:
202,90,55950,1,0,0:0:0:0:
256,128,56010,1,8,0:0:0:0:
256,128,56070,1,0,0:0:0:0:
256,128,56130,1,8,0:0:0:0:
272,203,56190,1,8,0:0:0:0:
224,160,56250,1,0,0:0:0:0:
218,120,56310,1,0,0:0:0:0:
256,224,56370,1,8,0:0:0:0:
256,224,56430,1,0,0:0:0:0:
224,224,56490,1,0,0:0:0:0:
224,224,56550,1,0,0:0:0:0:
224,224,56610,1,8,0:0:0:0:
224,224,56670,1,0,0:0:0:0:
192,224,56730,1,8,0:0:0:0:
192,224,56790,1,0,0:0:0:0:
192,224,56850,1,8,0:0:0:0:
256,256,56910,1,8,0:0:0:0:
256,256,56970,1,0,0:0:0:0:
256,256,57030,1,0,0:0:0:0:
256,256,57090,1,8,0:0:0:0:
160,160,57150,1,8,0:0:0:0:
160,160,57210,1,0,0:0:0:0:
341,72,57270,1,0,0:0:0:0:
160,160,57330,1,8,0:0:0:0:
186,61,57390,1,0,0:0:0:0:
160,32,57450,1,8,0:0:0:0:
192,96,57510,1,0,0:0:0:0:
192,96,57570,1,8,0:0:0:0:
256,96,57630,1,8,0:0:0:0:
352,160,57690,1,0,0:0:0:0:
256,96,57750,1,0,0:0:0:0:
352,160,57810,1,8,0:0:0:0:
256,64,57870,1,8,0:0:0:0:
256,96,57930,1,0,0:0:0:0:
224,96,57990,1,8,0:0:0:0:
288,96,58050,1,0,0:0:0:0:
224,96,58110,1,8,0:0:0:0:
192,96,58170,1,8,0:0:0:0:
224,128,58230,1,0,0:0:0:0:
160,128,58290,1,8,0:0:0:0:
192,128,58350,1,8,0:0:0:0:
128,32,58410,1,0,0:0:0:0:
288,160,58470,1,8,0:0:0:0:
224,192,58530,1,0,0:0:0:0:
256,160,58590,1,0,0:0:0:0:
224,192,58650,1,8,0:0:0:0:
256,160,58710,1,0,0:0:0:0:
256,192,58770,1,8,0:0:0:0:
224,128,58830,1,8,0:0:0:0:
224,64,58890,1,0,0:0:0:0:
224,96,58950,1,0,0:0:0:0:
192,192,59010,1,8,0:0:0:0:
192,192,59040,1,8,0:0:0:0:
192,192,59070,1,8,0:0:0:0:
192,192,59100,1,8,0:0:0:0:
192,160,59130,1,0,0:0:0:0:
224,64,59190,1,0,0:0:0:0:
192,160,59250,1,8,0:0:0:0:
192,160,59280,1,8,0:0:0:0:
192,160,59310,1,8,0:0:0:0:
192,160,59340,1,8,0:0:0:0:
192,160,59370,1,0,0:0:0:0:
192,128,59430,1,0,0:0:0:0:
160,128,59490,1,8,0:0:0:0:
224,128,59550,1,8,0:0:0:0:
256,96,59610,1,0,0:0:0:0:
256,96,59670,1,0,0:0:0:0:
256,96,59730,1,8,0:0:0:0:
273,116,59790,1,0,0:0:0:0:
224,64,59850,1,0,0:0:0:0:
266,116,59910,1,0,0:0:0:0:
224,128,59970,1,8,0:0:0:0:
224,128,60030,1,8,0:0:0:0:
224,128,60090,1,0,0:0:0:0:
224,128,60150,1,0,0:0:0:0:
224,128,60210,1,8,0:0:0:0:
222,100,60270,1,0,0:0:0:0:
192,192,60330,1,0,0:0:0:0:
238,72,60390,1,0,0:0:0:0:
288,128,60450,1,8,0:0:0:0:
288,128,60510,1,0,0:0:0:0:
288,128,60570,1,8,0:0:0:0:
192,96,60630,1,0,0:0:0:0:
224,96,60690,1,8,0:0:0:0:
224,96,60750,1,8,0:0:0:0:
224,96,60810,1,0,0:0:0:0:
224,96,60870,1,0,0:0:0:0:
224,96,60930,1,8,0:0:0:0:
254,114,60990,1,8,0:0:0:0:
192,64,61050,1,0,0:0:0:0:
192,64,61110,1,0,0:0:0:0:
192,64,61170,1,8,0:0:0:0:
305,77,61230,1,0,0:0:0:0:
224,64,61290,1,8,0:0:0:0:
192,96,61350,1,0,0:0:0:0:
224,64,61410,1,8,0:0:0:0:
192,96,61470,1,8,0:0:0:0:
256,160,61530,1,0,0:0:0:0:
256,160,61590,1,0,0:0:0:0:
256,64,61650,1,8,0:0:0:0:
288,160,61710,1,0,0:0:0:0:
256,64,61770,1,8,0:0:0:0:
256,128,61830,1,0,0:0:0:0:
256,64,61890,1,8,0:0:0:0:
256,96,61950,1,8,0:0:0:0:
256,96,62010,1,0,0:0:0:0:
288,160,62070,1,8,0:0:0:0:
288,128,62130,1,0,0:0:0:0:
270,130,62190,1,0,0:0:0:0:
288,128,62250,1,8,0:0:0:0:
277,114,62310,1,8,0:0:0:0:
256,128,62370,1,0,0:0:0:0:
224,128,62430,1,0,0:0:0:0:
224,128,62490,1,8,0:0:0:0:
256,128,62550,1,8,0:0:0:0:
288,128,62610,1,8,0:0:0:0:
288,128,62670,1,8,0:0:0:0:
288,128,62730,1,8,0:0:0:0:
288,128,62790,1,8,0:0:0:0:
288,128,62850,1,8,0:0:0:0:
288,128,62910,1,8,0:0:0:0:
288,96,62970,1,0,0:0:0:0:
224,128,63030,1,8,0:0:0:0:
256,96,63090,1,0,0:0:0:0:
192,128,63150,1,0,0:0:0:0:
224,64,63210,1,8,0:0:0:0:
224,128,63270,1,0,0:0:0:0:
224,64,63330,1,8,0:0:0:0:
224,96,63390,1,8,0:0:0:0:
224,32,63450,1,0,0:0:0:0:
192,128,63480,1,0,0:0:0:0:
224,96,63510,1,8,0:0:0:0:
192,96,63570,1,0,0:0:0:0:
192,128,63600,1,0,0:0:0:0:
224,96,63630,1,8,0:0:0:0:
192,64,63690,1,0,0:0:0:0:
192,128,63720,1,0,0:0:0:0:
224,96,63750,1,8,0:0:0:0:
192,64,63810,1,0,0:0:0:0:
192,128,63840,1,0,0:0:0:0:
224,96,63870,1,8,0:0:0:0:
192,64,63930,1,0,0:0:0:0:
192,128,63960,1,0,0:0:0:0:
224,96,63990,1,8,0:0:0:0:
192,96,64020,1,0,0:0:0:0:
256,96,64050,1,8,0:0:0:0:
192,96,64080,1,8,0:0:0:0:
192,96,64110,1,0,0:0:0:0:
256,128,64170,1,0,0:0:0:0:
256,128,64230,1,0,0:0:0:0:
160,160,64290,1,8,0:0:0:0:
224,96,64320,1,8,0:0:0:0:
160,160,64350,1,8,0:0:0:0:
224,96,64380,1,8,0:0:0:0:
256,128,64410,1,0,0:0:0:0:
224,96,64440,1,0,0:0:0:0:
64,256,64470,1,8,0:0:0:0:
256,96,64530,1,0,0:0:0:0:
224,96,64560,1,0,0:0:0:0:
64,256,64590,1,8,0:0:0:0:
256,96,64650,1,0,0:0:0:0:
224,64,64680,1,0,0:0:0:0:
64,256,64710,1,8,0:0:0:0:
256,96,64770,1,0,0:0:0:0:
192,64,64800,1,0,0:0:0:0:
160,224,64830,1,8,0:0:0:0:
128,96,64890,1,0,0:0:0:0:
192,64,64920,1,0,0:0:0:0:
192,192,64950,1,8,0:0:0:0:
192,160,64980,1,0,0:0:0:0:
192,160,65010,1,8,0:0:0:0:
192,160,65040,1,8,0:0:0:0:
192,160,65070,1,8,0:0:0:0:
192,160,65100,1,8,0:0:0:0:
224,128,65130,1,0,0:0:0:0:
192,128,65160,1,0,0:0:0:0:
192,128,65190,1,0,0:0:0:0:
192,128,65220,1,0,0:0:0:0:
160,160,65250,1,8,0:0:0:0:
192,160,65280,1,8,0:0:0:0:
192,160,65310,1,8,0:0:0:0:
192,160,65340,1,8,0:0:0:0:
192,128,65370,1,0,0:0:0:0:
256,96,65430,1,8,0:0:0:0:
256,96,65490,1,0,0:0:0:0:
256,96,65520,1,0,0:0:0:0:
256,96,65550,1,8,0:0:0:0:
256,96,65610,1,0,0:0:0:0:
256,96,65640,1,0,0:0:0:0:
256,96,65670,1,8,0:0:0:0:
256,96,65730,1,0,0:0:0:0:
256,96,65760,1,0,0:0:0:0:
256,96,65790,1,8,0:0:0:0:
256,64,65820,1,0,0:0:0:0:
256,64,65850,1,8,0:0:0:0:
320,96,65890,1,8,0:0:0:0:
320,96,65930,1,8,0:0:0:0:
320,96,65970,1,8,0:0:0:0:
320,96,66010,1,8,0:0:0:0:
320,96,66050,1,8,0:0:0:0:
320,96,66090,1,8,0:0:0:0:
320,96,66130,1,8,0:0:0:0:
320,96,66170,1,8,0:0:0:0:
256,96,66210,1,8,0:0:0:0:
256,96,66240,1,8,0:0:0:0:
256,96,66270,1,8,0:0:0:0:
256,96,66300,1,8,0:0:0:0:
256,64,66330,1,0,0:0:0:0:
160,96,66390,1,8,0:0:0:0:
160,64,66450,1,0,0:0:0:0:
160,64,66480,1,0,0:0:0:0:
160,64,66510,1,8,0:0:0:0:
160,64,66570,1,0,0:0:0:0:
160,64,66600,1,0,0:0:0:0:
160,64,66630,1,8,0:0:0:0:
160,64,66690,1,0,0:0:0:0:
160,64,66720,1,0,0:0:0:0:
160,64,66750,1,8,0:0:0:0:
224,128,66780,1,0,0:0:0:0:
160,64,66810,1,8,0:0:0:0:
224,128,66840,1,8,0:0:0:0:
224,128,66870,1,0,0:0:0:0:
224,32,66900,1,0,0:0:0:0:
192,128,66930,1,8,0:0:0:0:
256,64,66960,1,8,0:0:0:0:
256,64,66990,1,0,0:0:0:0:
256,64,67020,1,0,0:0:0:0:
128,128,67050,1,8,0:0:0:0:
128,128,67080,1,8,0:0:0:0:
128,128,67110,1,8,0:0:0:0:
128,128,67140,1,8,0:0:0:0:
128,128,67170,1,8,0:0:0:0:
128,128,67200,1,8,0:0:0:0:
128,128,67230,1,8,0:0:0:0:
128,128,67260,1,8,0:0:0:0:
128,128,67290,1,0,0:0:0:0:
256,192,67350,1,8,0:0:0:0:
256,192,67410,1,0,0:0:0:0:
256,192,67440,1,0,0:0:0:0:
256,192,67470,1,8,0:0:0:0:
256,192,67530,1,0,0:0:0:0:
256,192,67560,1,0,0:0:0:0:
256,192,67590,1,8,0:0:0:0:
256,192,67650,1,0,0:0:0:0:
256,192,67680,1,0,0:0:0:0:
256,192,67710,1,8,0:0:0:0:
224,64,67740,1,0,0:0:0:0:
256,96,67770,1,8,0:0:0:0:
384,0,67810,1,8,0:0:0:0:
384,0,67850,1,8,0:0:0:0:
384,0,67890,1,0,0:0:0:0:
256,128,67950,1,0,0:0:0:0:
384,32,68010,1,8,0:0:0:0:
224,64,68040,1,8,0:0:0:0:
256,128,68070,1,0,0:0:0:0:
192,64,68130,1,8,0:0:0:0:
224,32,68190,1,0,0:0:0:0:
224,32,68220,1,0,0:0:0:0:
224,32,68250,1,8,0:0:0:0:
224,64,68310,1,0,0:0:0:0:
224,96,68370,1,8,0:0:0:0:
224,96,68400,1,8,0:0:0:0:
224,96,68430,1,0,0:0:0:0:
224,64,68490,1,8,0:0:0:0:
224,64,68550,1,0,0:0:0:0:
224,64,68580,1,0,0:0:0:0:
224,64,68610,1,8,0:0:0:0:
224,64,68640,1,8,0:0:0:0:
224,64,68670,1,0,0:0:0:0:
96,96,68700,1,0,0:0:0:0:
224,64,68730,1,8,0:0:0:0:
224,64,68760,1,0,0:0:0:0:
192,64,68790,1,8,0:0:0:0:
192,64,68820,1,8,0:0:0:0:
288,160,68850,1,8,0:0:0:0:
288,160,68880,1,8,0:0:0:0:
288,160,68910,1,8,0:0:0:0:
288,160,68940,1,8,0:0:0:0:
288,160,68970,1,0,0:0:0:0:
160,128,69010,1,0,0:0:0:0:
160,128,69050,1,0,0:0:0:0:
288,160,69090,1,8,0:0:0:0:
288,160,69120,1,8,0:0:0:0:
288,160,69150,1,8,0:0:0:0:
288,160,69180,1,8,0:0:0:0:
288,160,69210,1,0,0:0:0:0:
288,192,69270,1,8,0:0:0:0:
256,192,69330,1,0,0:0:0:0:
256,192,69360,1,0,0:0:0:0:
256,192,69390,1,8,0:0:0:0:
256,192,69450,1,0,0:0:0:0:
256,192,69480,1,0,0:0:0:0:
256,192,69510,1,8,0:0:0:0:
256,192,69570,1,0,0:0:0:0:
256,192,69600,1,0,0:0:0:0:
256,192,69630,1,8,0:0:0:0:
288,192,69690,1,0,0:0:0:0:
288,192,69720,1,0,0:0:0:0:
288,192,69750,1,8,0:0:0:0:
288,192,69780,1,8,0:0:0:0:
288,192,69810,1,0,0:0:0:0:
256,128,69870,1,8,0:0:0:0:
288,128,69930,1,0,0:0:0:0:
320,128,69960,1,0,0:0:0:0:
320,128,69990,1,8,0:0:0:0:
320,128,70020,1,0,0:0:0:0:
320,128,70050,1,8,0:0:0:0:
320,128,70080,1,8,0:0:0:0:
320,128,70110,1,0,0:0:0:0:
320,128,70140,1,0,0:0:0:0:
256,128,70170,1,8,0:0:0:0:
256,160,70200,1,8,0:0:0:0:
256,160,70230,1,8,0:0:0:0:
256,160,70260,1,8,0:0:0:0:
256,160,70290,1,8,0:0:0:0:
256,160,70320,1,8,0:0:0:0:
256,160,70350,1,8,0:0:0:0:
256,160,70380,1,8,0:0:0:0:
256,160,70410,1,8,0:0:0:0:
256,160,70440,1,8,0:0:0:0:
256,160,70470,1,8,0:0:0:0:
256,160,70500,1,8,0:0:0:0:
256,160,70530,1,8,0:0:0:0:
256,160,70560,1,8,0:0:0:0:
256,160,70590,1,8,0:0:0:0:
256,160,70620,1,8,0:0:0:0:
256,160,70650,1,8,0:0:0:0:
256,160,70680,1,8,0:0:0:0:
256,160,70710,1,8,0:0:0:0:
256,160,70740,1,8,0:0:0:0:
256,160,70770,1,8,0:0:0:0:
256,160,70800,1,8,0:0:0:0:
256,160,70830,1,8,0:0:0:0:
256,160,70860,1,8,0:0:0:0:
256,160,70890,1,8,0:0:0:0:
256,160,70920,1,8,0:0:0:0:
256,160,70950,1,8,0:0:0:0:
256,160,70980,1,8,0:0:0:0:
288,160,71010,1,8,0:0:0:0:
288,160,71040,1,8,0:0:0:0:
288,160,71070,1,8,0:0:0:0:
288,160,71100,1,8,0:0:0:0:
288,160,71130,1,0,0:0:0:0:
256,160,71190,1,8,0:0:0:0:
256,160,71250,1,0,0:0:0:0:
256,160,71280,1,0,0:0:0:0:
256,160,71310,1,8,0:0:0:0:
256,160,71370,1,0,0:0:0:0:
256,160,71400,1,0,0:0:0:0:
256,160,71430,1,8,0:0:0:0:
256,160,71490,1,0,0:0:0:0:
256,160,71520,1,0,0:0:0:0:
256,160,71550,1,8,0:0:0:0:
256,160,71610,1,0,0:0:0:0:
256,160,71640,1,0,0:0:0:0:
256,160,71670,1,8,0:0:0:0:
224,160,71700,1,0,0:0:0:0:
224,160,71730,1,8,0:0:0:0:
224,160,71760,1,8,0:0:0:0:
224,160,71790,1,0,0:0:0:0:
224,160,71850,1,0,0:0:0:0:
256,128,71910,1,0,0:0:0:0:
288,192,71970,1,0,0:0:0:0:
256,96,72000,1,0,0:0:0:0:
256,96,72030,1,8,0:0:0:0:
256,96,72090,1,0,0:0:0:0:
256,96,72120,1,0,0:0:0:0:
256,96,72150,1,8,0:0:0:0:
128,128,72210,1,0,0:0:0:0:
192,96,72240,1,0,0:0:0:0:
192,96,72270,1,8,0:0:0:0:
160,96,72330,1,0,0:0:0:0:
160,96,72360,1,0,0:0:0:0:
160,96,72390,1,0,0:0:0:0:
160,96,72420,1,0,0:0:0:0:
160,96,72450,1,8,0:0:0:0:
160,96,72480,1,8,0:0:0:0:
160,96,72510,1,8,0:0:0:0:
160,96,72540,1,8,0:0:0:0:
160,96,72570,1,0,0:0:0:0:
192,128,72630,1,8,0:0:0:0:
192,128,72690,1,0,0:0:0:0:
192,128,72720,1,0,0:0:0:0:
192,128,72750,1,8,0:0:0:0:
192,128,72780,1,8,0:0:0:0:
192,128,72810,1,0,0:0:0:0:
192,128,72840,1,0,0:0:0:0:
192,128,72870,1,0,0:0:0:0:
192,128,72900,1,0,0:0:0:0:
288,160,72930,1,8,0:0:0:0:
288,160,72960,1,8,0:0:0:0:
288,160,72990,1,8,0:0:0:0:
288,160,73020,1,8,0:0:0:0:
288,160,73050,1,0,0:0:0:0:
224,224,73110,1,8,0:0:0:0:
224,224,73170,1,0,0:0:0:0:
224,224,73200,1,0,0:0:0:0:
224,224,73230,1,8,0:0:0:0:
224,224,73290,1,0,0:0:0:0:
224,224,73320,1,0,0:0:0:0:
224,224,73350,1,8,0:0:0:0:
224,224,73410,1,0,0:0:0:0:
224,224,73440,1,0,0:0:0:0:
224,224,73470,1,8,0:0:0:0:
224,224,73530,1,0,0:0:0:0:
224,224,73560,1,0,0:0:0:0:
224,224,73590,1,8,0:0:0:0:
224,224,73620,1,8,0:0:0:0:
224,224,73650,1,0,0:0:0:0:
224,224,73710,1,8,0:0:0:0:
224,224,73770,1,0,0:0:0:0:
224,224,73800,1,0,0:0:0:0:
224,224,73830,1,8,0:0:0:0:
224,192,73860,1,0,0:0:0:0:
224,192,73890,1,0,0:0:0:0:
224,192,73920,1,0,0:0:0:0:
224,192,73950,1,8,0:0:0:0:
256,160,73980,1,8,0:0:0:0:
256,160,74010,1,0,0:0:0:0:
256,160,74070,1,8,0:0:0:0:
256,160,74130,1,0,0:0:0:0:
256,160,74160,1,0,0:0:0:0:
256,160,74190,1,8,0:0:0:0:
256,192,74250,1,0,0:0:0:0:
256,192,74280,1,0,0:0:0:0:
256,192,74310,1,8,0:0:0:0:
256,192,74340,1,8,0:0:0:0:
256,192,74370,1,0,0:0:0:0:
256,192,74400,1,8,0:0:0:0:
256,192,74430,1,0,0:0:0:0:
256,192,74460,1,0,0:0:0:0:
256,192,74490,1,8,0:0:0:0:
256,192,74520,1,0,0:0:0:0:
256,192,74550,1,8,0:0:0:0:
256,192,74580,1,8,0:0:0:0:
256,192,74610,1,0,0:0:0:0:
320,224,74670,1,8,0:0:0:0:
224,192,74700,1,0,0:0:0:0:
320,192,74730,1,0,0:0:0:0:
320,192,74760,1,0,0:0:0:0:
320,192,74790,1,0,0:0:0:0:
320,192,74820,1,0,0:0:0:0:
288,160,74850,1,8,0:0:0:0:
288,160,74880,1,8,0:0:0:0:
288,160,74910,1,8,0:0:0:0:
288,160,74940,1,8,0:0:0:0:
288,160,74970,1,0,0:0:0:0:
352,224,75030,1,8,0:0:0:0:
352,224,75090,1,0,0:0:0:0:
352,224,75120,1,0,0:0:0:0:
352,224,75150,1,8,0:0:0:0:
352,224,75210,1,0,0:0:0:0:
352,224,75240,1,0,0:0:0:0:
352,224,75270,1,8,0:0:0:0:
352,224,75330,1,0,0:0:0:0:
352,224,75360,1,0,0:0:0:0:
352,224,75390,1,8,0:0:0:0:
352,224,75450,1,0,0:0:0:0:
288,224,75480,1,0,0:0:0:0:
288,224,75510,1,8,0:0:0:0:
288,224,75540,1,0,0:0:0:0:
288,224,75570,1,8,0:0:0:0:
288,224,75600,1,8,0:0:0:0:
288,224,75630,1,0,0:0:0:0:
320,192,75660,1,0,0:0:0:0:
320,192,75690,1,8,0:0:0:0:
320,192,75720,1,0,0:0:0:0:
320,192,75750,1,8,0:0:0:0:
320,192,75780,1,8,0:0:0:0:
320,192,75810,1,0,0:0:0:0:
69,120,75840,1,0,0:0:0:0:
320,192,75870,1,8,0:0:0:0:
224,128,75900,1,8,0:0:0:0:
320,192,75930,1,0,0:0:0:0:
320,192,75960,1,0,0:0:0:0:
320,192,75990,1,8,0:0:0:0:
192,64,76020,1,0,0:0:0:0:
192,64,76050,1,8,0:0:0:0:
192,64,76080,1,8,0:0:0:0:
192,64,76110,1,0,0:0:0:0:
192,64,76140,1,0,0:0:0:0:
192,64,76170,1,8,0:0:0:0:
224,128,76200,1,0,0:0:0:0:
224,128,76230,1,8,0:0:0:0:
224,128,76260,1,8,0:0:0:0:
224,128,76290,1,0,0:0:0:0:
192,64,76350,1,8,0:0:0:0:
192,64,76410,1,0,0:0:0:0:
192,64,76440,1,0,0:0:0:0:
192,64,76470,1,8,0:0:0:0:
192,64,76530,1,0,0:0:0:0:
192,64,76560,1,0,0:0:0:0:
192,64,76590,1,8,0:0:0:0:
192,64,76650,1,0,0:0:0:0:
192,64,76680,1,0,0:0:0:0:
192,64,76710,1,8,0:0:0:0:
192,64,76770,1,0,0:0:0:0:
192,64,76800,1,0,0:0:0:0:
192,64,76830,1,8,0:0:0:0:
204,83,76860,1,8,0:0:0:0:
192,64,76890,1,0,0:0:0:0:
160,64,76920,1,0,0:0:0:0:
160,64,76950,1,8,0:0:0:0:
160,64,76980,1,8,0:0:0:0:
160,64,77010,1,0,0:0:0:0:
288,160,77050,1,0,0:0:0:0:
288,160,77090,1,0,0:0:0:0:
288,160,77130,1,0,0:0:0:0:
288,160,77170,1,0,0:0:0:0:
288,160,77210,1,0,0:0:0:0:
288,160,77250,1,0,0:0:0:0:
288,160,77290,1,0,0:0:0:0:
288,160,77330,1,0,0:0:0:0:
288,128,77370,1,8,0:0:0:0:
288,128,77410,1,8,0:0:0:0:
288,128,77450,1,8,0:0:0:0:
288,128,77490,1,8,0:0:0:0:
288,128,77530,1,8,0:0:0:0:
288,128,77570,1,8,0:0:0:0:
288,128,77610,1,0,0:0:0:0:
288,128,77650,1,0,0:0:0:0:
288,128,77690,1,0,0:0:0:0:
288,128,77730,1,8,0:0:0:0:
288,128,77770,1,8,0:0:0:0:
288,128,77810,1,8,0:0:0:0:
192,128,77850,1,0,0:0:0:0:
293,142,77880,1,0,0:0:0:0:
192,128,77910,1,0,0:0:0:0:
192,128,77940,1,0,0:0:0:0:
192,128,77970,1,8,0:0:0:0:
192,96,78000,1,0,0:0:0:0:
224,160,78030,1,0,0:0:0:0:
224,160,78060,1,0,0:0:0:0:
224,160,78090,1,8,0:0:0:0:
192,96,78120,1,8,0:0:0:0:
192,96,78150,1,0,0:0:0:0:
192,96,78180,1,0,0:0:0:0:
192,96,78210,1,8,0:0:0:0:
256,96,78240,1,0,0:0:0:0:
256,96,78270,1,0,0:0:0:0:
256,96,78300,1,0,0:0:0:0:
256,96,78330,1,8,0:0:0:0:
256,96,78360,1,8,0:0:0:0:
256,96,78390,1,0,0:0:0:0:
256,96,78420,1,0,0:0:0:0:
288,160,78450,1,8,0:0:0:0:
288,160,78480,1,8,0:0:0:0:
288,160,78510,1,8,0:0:0:0:
288,160,78540,1,8,0:0:0:0:
288,160,78570,1,0,0:0:0:0:
256,64,78600,1,8,0:0:0:0:
256,64,78630,1,0,0:0:0:0:
256,64,78660,1,0,0:0:0:0:
288,160,78690,1,8,0:0:0:0:
288,160,78720,1,8,0:0:0:0:
288,160,78750,1,8,0:0:0:0:
288,160,78780,1,8,0:0:0:0:
288,96,78810,1,0,0:0:0:0:
256,64,78870,1,0,0:0:0:0:
256,64,78900,1,0,0:0:0:0:
256,64,78930,1,8,0:0:0:0:
320,128,78990,1,0,0:0:0:0:
320,128,79050,1,8,0:0:0:0:
192,64,79110,1,0,0:0:0:0:
256,96,79140,1,0,0:0:0:0:
224,96,79170,1,8,0:0:0:0:
224,96,79230,1,0,0:0:0:0:
224,96,79290,1,8,0:0:0:0:
160,128,79320,1,8,0:0:0:0:
128,96,79350,1,0,0:0:0:0:
128,96,79410,1,8,0:0:0:0:
160,64,79470,1,0,0:0:0:0:
160,64,79500,1,0,0:0:0:0:
160,96,79530,1,8,0:0:0:0:
224,32,79590,1,0,0:0:0:0:
160,96,79650,1,8,0:0:0:0:
128,96,79680,1,8,0:0:0:0:
224,64,79710,1,8,0:0:0:0:
160,64,79770,1,0,0:0:0:0:
224,96,79830,1,0,0:0:0:0:
224,64,79860,1,0,0:0:0:0:
224,96,79890,1,8,0:0:0:0:
192,128,79950,1,0,0:0:0:0:
224,96,80010,1,8,0:0:0:0:
224,128,80040,1,8,0:0:0:0:
224,128,80070,1,8,0:0:0:0:
224,128,80100,1,8,0:0:0:0:
224,96,80130,1,0,0:0:0:0:
128,64,80160,1,0,0:0:0:0:
224,128,80190,1,0,0:0:0:0:
160,64,80220,1,0,0:0:0:0:
224,96,80250,1,8,0:0:0:0:
224,96,80310,1,0,0:0:0:0:
256,96,80370,1,8,0:0:0:0:
192,96,80430,1,8,0:0:0:0:
192,96,80460,1,8,0:0:0:0:
256,64,80490,1,0,0:0:0:0:
160,96,80520,1,8,0:0:0:0:
192,96,80550,1,0,0:0:0:0:
160,96,80580,1,0,0:0:0:0:
256,64,80610,1,8,0:0:0:0:
192,96,80640,1,8,0:0:0:0:
192,96,80670,1,8,0:0:0:0:
192,96,80700,1,8,0:0:0:0:
256,64,80730,1,0,0:0:0:0:
224,160,80790,1,0,0:0:0:0:
128,128,80850,1,8,0:0:0:0:
128,128,80910,1,0,0:0:0:0:
128,128,80940,1,0,0:0:0:0:
128,128,80970,1,8,0:0:0:0:
128,128,81030,1,0,0:0:0:0:
128,128,81090,1,8,0:0:0:0:
128,128,81120,1,8,0:0:0:0:
128,128,81150,1,0,0:0:0:0:
128,64,81180,1,0,0:0:0:0:
128,128,81210,1,8,0:0:0:0:
192,32,81270,1,0,0:0:0:0:
192,32,81330,1,8,0:0:0:0:
192,32,81390,1,0,0:0:0:0:
192,32,81420,1,0,0:0:0:0:
192,32,81450,1,8,0:0:0:0:
192,192,81510,1,0,0:0:0:0:
160,192,81570,1,8,0:0:0:0:
160,192,81600,1,8,0:0:0:0:
160,192,81630,1,0,0:0:0:0:
128,96,81690,1,8,0:0:0:0:
224,96,81750,1,0,0:0:0:0:
128,128,81780,1,0,0:0:0:0:
256,96,81810,1,8,0:0:0:0:
256,96,81870,1,0,0:0:0:0:
256,96,81930,1,8,0:0:0:0:
224,32,81990,1,0,0:0:0:0:
224,96,82020,1,0,0:0:0:0:
224,32,82050,1,8,0:0:0:0:
192,32,82080,1,0,0:0:0:0:
224,32,82110,1,8,0:0:0:0:
192,32,82140,1,8,0:0:0:0:
224,32,82170,1,0,0:0:0:0:
192,0,82230,1,0,0:0:0:0:
192,0,82290,1,0,0:0:0:0:
256,96,82320,1,0,0:0:0:0:
192,0,82350,1,0,0:0:0:0:
224,96,82380,1,0,0:0:0:0:
160,0,82410,1,8,0:0:0:0:
224,96,82440,1,8,0:0:0:0:
192,0,82470,1,0,0:0:0:0:
224,64,82500,1,0,0:0:0:0:
160,32,82530,1,8,0:0:0:0:
224,64,82560,1,0,0:0:0:0:
160,32,82590,1,8,0:0:0:0:
224,64,82620,1,8,0:0:0:0:
224,64,82650,1,0,0:0:0:0:
128,96,82710,1,0,0:0:0:0:
128,96,82770,1,8,0:0:0:0:
192,96,82830,1,0,0:0:0:0:
192,96,82860,1,0,0:0:0:0:
192,96,82890,1,8,0:0:0:0:
192,96,82950,1,0,0:0:0:0:
192,96,83010,1,8,0:0:0:0:
160,96,83040,1,8,0:0:0:0:
160,96,83070,1,0,0:0:0:0:
160,96,83130,1,8,0:0:0:0:
160,96,83190,1,0,0:0:0:0:
160,96,83220,1,0,0:0:0:0:
160,96,83250,1,8,0:0:0:0:
288,128,83310,1,0,0:0:0:0:
288,128,83370,1,8,0:0:0:0:
288,128,83400,1,8,0:0:0:0:
288,128,83430,1,8,0:0:0:0:
288,128,83490,1,0,0:0:0:0:
288,128,83550,1,0,0:0:0:0:
288,128,83610,1,8,0:0:0:0:
128,128,83640,1,0,0:0:0:0:
128,128,83670,1,0,0:0:0:0:
128,128,83700,1,0,0:0:0:0:
128,128,83730,1,8,0:0:0:0:
128,128,83760,1,8,0:0:0:0:
128,128,83790,1,8,0:0:0:0:
128,128,83820,1,8,0:0:0:0:
128,128,83850,1,0,0:0:0:0:
192,128,83910,1,0,0:0:0:0:
192,128,83970,1,8,0:0:0:0:
192,128,84000,1,8,0:0:0:0:
192,128,84030,1,0,0:0:0:0:
192,128,84060,1,0,0:0:0:0:
192,128,84090,1,0,0:0:0:0:
288,96,84150,1,0,0:0:0:0:
320,64,84210,1,8,0:0:0:0:
192,64,84270,1,0,0:0:0:0:
192,64,84300,1,0,0:0:0:0:
192,64,84330,1,8,0:0:0:0:
160,64,84390,1,0,0:0:0:0:
160,64,84450,1,8,0:0:0:0:
192,64,84480,1,8,0:0:0:0:
192,64,84510,1,0,0:0:0:0:
192,64,84570,1,8,0:0:0:0:
192,64,84630,1,0,0:0:0:0:
160,32,84660,1,0,0:0:0:0:
160,32,84690,1,8,0:0:0:0:
128,128,84750,1,0,0:0:0:0:
128,128,84810,1,8,0:0:0:0:
128,128,84840,1,8,0:0:0:0:
128,128,84870,1,0,0:0:0:0:
128,128,84930,1,8,0:0:0:0:
224,224,84990,1,0,0:0:0:0:
224,224,85050,1,8,0:0:0:0:
224,224,85080,1,8,0:0:0:0:
192,128,85110,1,0,0:0:0:0:
160,96,85140,1,0,0:0:0:0:
256,96,85170,1,8,0:0:0:0:
192,96,85230,1,0,0:0:0:0:
192,96,85290,1,8,0:0:0:0:
192,96,85320,1,8,0:0:0:0:
192,96,85350,1,0,0:0:0:0:
192,96,85380,1,0,0:0:0:0:
192,128,85410,1,8,0:0:0:0:
192,128,85470,1,0,0:0:0:0:
224,96,85530,1,0,0:0:0:0:
224,96,85560,1,0,0:0:0:0:
224,96,85590,1,8,0:0:0:0:
192,32,85620,1,0,0:0:0:0:
224,96,85650,1,0,0:0:0:0:
224,96,85680,1,0,0:0:0:0:
224,96,85710,1,8,0:0:0:0:
224,32,85740,1,0,0:0:0:0:
224,96,85770,1,0,0:0:0:0:
224,96,85800,1,0,0:0:0:0:
224,96,85830,1,8,0:0:0:0:
192,32,85860,1,0,0:0:0:0:
224,96,85890,1,0,0:0:0:0:
224,96,85920,1,0,0:0:0:0:
224,96,85950,1,8,0:0:0:0:
288,128,85980,1,0,0:0:0:0:
256,96,86010,1,8,0:0:0:0:
256,64,86040,1,8,0:0:0:0:
256,64,86070,1,8,0:0:0:0:
256,64,86100,1,8,0:0:0:0:
256,64,86130,1,8,0:0:0:0:
256,64,86160,1,8,0:0:0:0:
256,64,86190,1,8,0:0:0:0:
256,64,86220,1,8,0:0:0:0:
256,64,86250,1,8,0:0:0:0:
256,64,86280,1,8,0:0:0:0:
256,64,86310,1,8,0:0:0:0:
256,64,86340,1,8,0:0:0:0:
256,64,86370,1,8,0:0:0:0:
256,64,86400,1,8,0:0:0:0:
256,64,86430,1,8,0:0:0:0:
256,64,86460,1,8,0:0:0:0:
224,96,86490,1,0,0:0:0:0:
192,96,86550,1,8,0:0:0:0:
192,96,86580,1,8,0:0:0:0:
192,96,86610,1,0,0:0:0:0:
192,32,86670,1,8,0:0:0:0:
192,32,86730,1,0,0:0:0:0:
192,32,86790,1,8,0:0:0:0:
192,32,86820,1,8,0:0:0:0:
192,32,86850,1,0,0:0:0:0:
224,96,86910,1,8,0:0:0:0:
224,96,86970,1,0,0:0:0:0:
224,96,87030,1,8,0:0:0:0:
224,96,87060,1,8,0:0:0:0:
224,96,87090,1,0,0:0:0:0:
224,96,87150,1,8,0:0:0:0:
224,96,87210,1,0,0:0:0:0:
224,96,87270,1,8,0:0:0:0:
224,96,87300,1,8,0:0:0:0:
224,96,87330,1,0,0:0:0:0:
224,96,87390,1,8,0:0:0:0:
224,96,87450,1,0,0:0:0:0:
256,128,87510,1,8,0:0:0:0:
256,128,87540,1,8,0:0:0:0:
256,128,87570,1,0,0:0:0:0:
256,128,87630,1,8,0:0:0:0:
256,128,87690,1,0,0:0:0:0:
256,128,87750,1,8,0:0:0:0:
256,128,87780,1,8,0:0:0:0:
256,128,87810,1,0,0:0:0:0:
256,128,87870,1,8,0:0:0:0:
256,128,87930,1,0,0:0:0:0:
192,128,87990,1,8,0:0:0:0:
192,96,88020,1,8,0:0:0:0:
192,96,88050,1,0,0:0:0:0:
192,96,88110,1,8,0:0:0:0:
192,96,88170,1,0,0:0:0:0:
192,96,88230,1,8,0:0:0:0:
192,96,88260,1,8,0:0:0:0:
192,96,88290,1,0,0:0:0:0:
192,96,88350,1,8,0:0:0:0:
192,96,88410,1,0,0:0:0:0:
192,96,88470,1,8,0:0:0:0:
192,96,88500,1,8,0:0:0:0:
192,96,88530,1,0,0:0:0:0:
192,96,88590,1,8,0:0:0:0:
192,96,88650,1,0,0:0:0:0:
192,96,88710,1,8,0:0:0:0:
192,96,88740,1,8,0:0:0:0:
192,96,88770,1,0,0:0:0:0:
192,96,88830,1,8,0:0:0:0:
192,96,88890,1,0,0:0:0:0:
192,96,88950,1,8,0:0:0:0:
192,96,88980,1,8,0:0:0:0:
192,96,89010,1,0,0:0:0:0:
192,96,89070,1,8,0:0:0:0:
192,96,89130,1,0,0:0:0:0:
192,96,89190,1,8,0:0:0:0:
192,96,89220,1,8,0:0:0:0:
192,96,89250,1,0,0:0:0:0:
192,96,89310,1,8,0:0:0:0:
192,128,89370,1,0,0:0:0:0:
224,64,89400,1,0,0:0:0:0:
224,64,89430,1,0,0:0:0:0:
224,64,89460,1,0,0:0:0:0:
224,64,89490,1,0,0:0:0:0:
224,64,89520,1,0,0:0:0:0:
224,64,89550,1,0,0:0:0:0:
224,64,89580,1,0,0:0:0:0:
192,96,89610,1,8,0:0:0:0:
192,64,89640,1,8,0:0:0:0:
192,64,89670,1,8,0:0:0:0:
192,64,89700,1,8,0:0:0:0:
192,64,89730,1,8,0:0:0:0:
192,64,89760,1,8,0:0:0:0:
192,64,89790,1,8,0:0:0:0:
192,64,89820,1,8,0:0:0:0:
192,96,89850,1,0,0:0:0:0:
192,64,89910,1,0,0:0:0:0:
160,64,89970,1,8,0:0:0:0:
160,64,90000,1,8,0:0:0:0:
160,64,90030,1,0,0:0:0:0:
160,64,90060,1,0,0:0:0:0:
160,64,90090,1,8,0:0:0:0:
160,64,90150,1,0,0:0:0:0:
256,128,90210,1,8,0:0:0:0:
256,128,90240,1,8,0:0:0:0:
256,128,90270,1,8,0:0:0:0:
256,128,90300,1,8,0:0:0:0:
256,128,90330,1,0,0:0:0:0:
288,96,90360,1,0,0:0:0:0:
288,96,90390,1,8,0:0:0:0:
251,114,90420,1,0,0:0:0:0:
288,96,90450,1,0,0:0:0:0:
288,96,90480,1,0,0:0:0:0:
288,96,90510,1,8,0:0:0:0:
288,96,90570,1,0,0:0:0:0:
288,96,90600,1,0,0:0:0:0:
288,96,90630,1,8,0:0:0:0:
288,96,90690,1,0,0:0:0:0:
288,96,90720,1,0,0:0:0:0:
288,96,90750,1,8,0:0:0:0:
288,96,90810,1,0,0:0:0:0:
288,96,90840,1,0,0:0:0:0:
288,96,90870,1,8,0:0:0:0:
288,96,90930,1,0,0:0:0:0:
288,96,90960,1,0,0:0:0:0:
288,96,90990,1,8,0:0:0:0:
288,96,91050,1,0,0:0:0:0:
288,96,91080,1,0,0:0:0:0:
288,96,91110,1,8,0:0:0:0:
288,96,91140,1,8,0:0:0:0:
288,96,91170,1,0,0:0:0:0:
288,96,91230,1,8,0:0:0:0:
192,64,91290,1,0,0:0:0:0:
192,64,91320,1,0,0:0:0:0:
192,64,91350,1,0,0:0:0:0:
192,64,91380,1,0,0:0:0:0:
192,64,91410,1,0,0:0:0:0:
192,64,91440,1,0,0:0:0:0:
192,64,91470,1,0,0:0:0:0:
192,64,91500,1,0,0:0:0:0:
192,64,91530,1,0,0:0:0:0:
192,64,91560,1,0,0:0:0:0:
192,64,91590,1,0,0:0:0:0:
192,64,91620,1,0,0:0:0:0:
192,64,91650,1,0,0:0:0:0:
192,64,91680,1,0,0:0:0:0:
192,64,91710,1,0,0:0:0:0:
192,64,91740,1,0,0:0:0:0:
256,32,91770,1,8,0:0:0:0:
320,64,91800,1,8,0:0:0:0:
320,64,91830,1,8,0:0:0:0:
320,64,91860,1,8,0:0:0:0:
320,64,91890,1,8,0:0:0:0:
320,64,91920,1,8,0:0:0:0:
320,64,91950,1,8,0:0:0:0:
320,64,91980,1,8,0:0:0:0:
320,64,92010,1,8,0:0:0:0:
320,64,92040,1,8,0:0:0:0:
320,64,92070,1,8,0:0:0:0:
320,64,92100,1,8,0:0:0:0:
320,64,92130,1,8,0:0:0:0:
320,64,92160,1,8,0:0:0:0:
320,64,92190,1,8,0:0:0:0:
320,64,92220,1,8,0:0:0:0:
224,32,92250,1,0,0:0:0:0:
128,128,92290,1,0,0:0:0:0:
160,96,92330,1,0,0:0:0:0:
256,160,92370,1,8,0:0:0:0:
256,160,92410,1,0,0:0:0:0:
128,96,92450,1,0,0:0:0:0:
256,160,92490,1,0,0:0:0:0:
256,160,92530,1,8,0:0:0:0:
128,96,92570,1,8,0:0:0:0:
256,160,92610,1,0,0:0:0:0:
224,160,92650,1,8,0:0:0:0:
192,128,92690,1,8,0:0:0:0:
64,128,92730,1,0,0:0:0:0:
192,96,92770,1,8,0:0:0:0:
128,96,92810,1,0,0:0:0:0:
160,96,92850,1,0,0:0:0:0:
192,96,92890,1,8,0:0:0:0:
192,96,92930,1,8,0:0:0:0:
192,96,92970,1,0,0:0:0:0:
192,96,93030,1,8,0:0:0:0:
192,96,93090,1,8,0:0:0:0:
192,96,93150,1,8,0:0:0:0:
160,96,93210,1,0,0:0:0:0:
192,96,93270,1,0,0:0:0:0:
192,96,93330,1,8,0:0:0:0:
192,96,93390,1,8,0:0:0:0:
192,96,93450,1,0,0:0:0:0:
192,96,93510,1,8,0:0:0:0:
192,96,93570,1,0,0:0:0:0:
192,96,93630,1,8,0:0:0:0:
192,96,93690,1,8,0:0:0:0:
160,96,93720,1,0,0:0:0:0:
192,96,93750,1,0,0:0:0:0:
192,96,93780,1,0,0:0:0:0:
224,160,93810,1,8,0:0:0:0:
288,160,93840,1,8,0:0:0:0:
288,160,93870,1,8,0:0:0:0:
288,160,93900,1,8,0:0:0:0:
288,160,93930,1,8,0:0:0:0:
288,160,93960,1,8,0:0:0:0:
288,160,93990,1,8,0:0:0:0:
288,160,94020,1,8,0:0:0:0:
224,96,94050,1,0,0:0:0:0:
192,192,94110,1,0,0:0:0:0:
192,128,94170,1,4,0:0:0:0:
288,96,94290,1,0,0:0:0:0:
288,96,94410,1,8,0:0:0:0:
192,96,94500,1,0,0:0:0:0:
288,96,94530,1,0,0:0:0:0:
288,96,94590,1,0,0:0:0:0:
288,96,94650,1,0,0:0:0:0:
288,96,94770,1,0,0:0:0:0:
352,96,94890,1,8,0:0:0:0:
256,96,94950,1,0,0:0:0:0:
256,96,95010,1,8,0:0:0:0:
256,96,95070,1,8,0:0:0:0:
256,96,95130,1,0,0:0:0:0:
192,160,95220,1,0,0:0:0:0:
192,160,95250,1,0,0:0:0:0:
192,96,95310,1,0,0:0:0:0:
224,64,95370,1,8,0:0:0:0:
224,128,95430,1,8,0:0:0:0:
224,128,95460,1,8,0:0:0:0:
224,128,95490,1,0,0:0:0:0:
224,64,95550,1,8,0:0:0:0:
192,96,95610,1,0,0:0:0:0:
224,32,95700,1,0,0:0:0:0:
288,96,95730,1,8,0:0:0:0:
128,96,95790,1,0,0:0:0:0:
288,96,95850,1,8,0:0:0:0:
288,128,95880,1,0,0:0:0:0:
288,96,95910,1,0,0:0:0:0:
320,128,95940,1,0,0:0:0:0:
192,128,95970,1,8,0:0:0:0:
192,128,96000,1,8,0:0:0:0:
192,128,96030,1,8,0:0:0:0:
192,128,96060,1,8,0:0:0:0:
224,96,96090,1,0,0:0:0:0:
288,128,96180,1,0,0:0:0:0:
256,160,96210,1,0,0:0:0:0:
224,160,96270,1,0,0:0:0:0:
224,160,96330,1,8,0:0:0:0:
192,192,96420,1,0,0:0:0:0:
224,192,96450,1,8,0:0:0:0:
224,192,96510,1,8,0:0:0:0:
224,192,96570,1,0,0:0:0:0:
224,96,96690,1,0,0:0:0:0:
192,32,96780,1,0,0:0:0:0:
160,64,96810,1,8,0:0:0:0:
160,64,96870,1,8,0:0:0:0:
160,64,96930,1,0,0:0:0:0:
160,64,96990,1,0,0:0:0:0:
160,64,97050,1,8,0:0:0:0:
256,64,97140,1,0,0:0:0:0:
256,192,97170,1,0,0:0:0:0:
192,64,97260,1,8,0:0:0:0:
192,64,97290,1,8,0:0:0:0:
192,160,97410,1,0,0:0:0:0:
192,64,97530,1,0,0:0:0:0:
224,96,97590,1,0,0:0:0:0:
224,96,97650,1,8,0:0:0:0:
160,64,97740,1,0,0:0:0:0:
160,64,97770,1,8,0:0:0:0:
192,64,97830,1,0,0:0:0:0:
192,64,97860,1,0,0:0:0:0:
288,96,97890,1,8,0:0:0:0:
288,96,97920,1,8,0:0:0:0:
288,96,97950,1,8,0:0:0:0:
288,96,97980,1,8,0:0:0:0:
288,96,98010,1,0,0:0:0:0:
192,256,98100,1,0,0:0:0:0:
192,256,98130,1,0,0:0:0:0:
192,256,98190,1,0,0:0:0:0:
192,256,98250,1,8,0:0:0:0:
192,160,98340,1,8,0:0:0:0:
192,160,98370,1,0,0:0:0:0:
192,160,98430,1,0,0:0:0:0:
192,160,98490,1,8,0:0:0:0:
224,64,98610,1,0,0:0:0:0:
96,96,98700,1,0,0:0:0:0:
288,64,98730,1,0,0:0:0:0:
256,96,98790,1,0,0:0:0:0:
256,96,98850,1,0,0:0:0:0:
256,96,98910,1,0,0:0:0:0:
224,64,98970,1,8,0:0:0:0:
160,160,99030,1,8,0:0:0:0:
192,192,99090,1,0,0:0:0:0:
192,160,99210,1,8,0:0:0:0:
192,96,99330,1,0,0:0:0:0:
192,96,99360,1,0,0:0:0:0:
192,96,99390,1,8,0:0:0:0:
192,96,99420,1,8,0:0:0:0:
192,96,99450,1,0,0:0:0:0:
224,160,99480,1,8,0:0:0:0:
192,96,99510,1,0,0:0:0:0:
224,96,99540,1,0,0:0:0:0:
224,96,99570,1,8,0:0:0:0:
224,96,99600,1,8,0:0:0:0:
224,96,99630,1,8,0:0:0:0:
224,96,99660,1,8,0:0:0:0:
224,96,99690,1,0,0:0:0:0:
288,128,99750,1,0,0:0:0:0:
192,96,99810,1,8,0:0:0:0:
192,96,99840,1,8,0:0:0:0:
192,96,99870,1,8,0:0:0:0:
192,96,99900,1,8,0:0:0:0:
192,96,99930,1,0,0:0:0:0:
192,160,100050,1,0,0:0:0:0:
192,160,100170,1,8,0:0:0:0:
256,160,100290,1,0,0:0:0:0:
224,160,100350,1,0,0:0:0:0:
224,160,100410,1,0,0:0:0:0:
320,128,100530,1,0,0:0:0:0:
320,128,100650,1,8,0:0:0:0:
320,160,100770,1,0,0:0:0:0:
320,128,100860,1,0,0:0:0:0:
320,128,100890,1,8,0:0:0:0:
320,128,100980,1,0,0:0:0:0:
320,128,101010,1,8,0:0:0:0:
320,128,101100,1,8,0:0:0:0:
320,128,101130,1,0,0:0:0:0:
320,128,101220,1,0,0:0:0:0:
320,128,101250,1,8,0:0:0:0:
320,128,101370,1,0,0:0:0:0:
224,160,101490,1,0,0:0:0:0:
224,128,101610,1,8,0:0:0:0:
320,96,101650,1,8,0:0:0:0:
320,96,101690,1,8,0:0:0:0:
320,96,101730,1,8,0:0:0:0:
320,96,101770,1,8,0:0:0:0:
320,96,101810,1,8,0:0:0:0:
320,96,101850,1,0,0:0:0:0:
224,256,101970,1,0,0:0:0:0:
224,224,102090,1,8,0:0:0:0:
224,224,102210,1,0,0:0:0:0:
224,224,102270,1,0,0:0:0:0:
224,224,102330,1,8,0:0:0:0:
256,192,102450,1,0,0:0:0:0:
256,192,102570,1,8,0:0:0:0:
256,160,102630,1,8,0:0:0:0:
256,160,102690,1,0,0:0:0:0:
256,160,102750,1,0,0:0:0:0:
256,160,102810,1,8,0:0:0:0:
256,160,102870,1,0,0:0:0:0:
256,160,102930,1,0,0:0:0:0:
256,160,102990,1,0,0:0:0:0:
256,160,103050,1,8,0:0:0:0:
256,160,103110,1,0,0:0:0:0:
256,160,103170,1,0,0:0:0:0:
256,160,103230,1,0,0:0:0:0:
256,160,103290,1,8,0:0:0:0:
288,192,103380,1,0,0:0:0:0:
288,192,103410,1,8,0:0:0:0:
288,192,103500,1,0,0:0:0:0:
288,192,103530,1,8,0:0:0:0:
288,192,103650,1,0,0:0:0:0:
256,96,103680,1,0,0:0:0:0:
320,160,103710,1,8,0:0:0:0:
320,160,103730,1,8,0:0:0:0:
320,160,103750,1,8,0:0:0:0:
320,160,103770,1,0,0:0:0:0:
320,128,103890,1,0,0:0:0:0:
320,128,104010,1,8,0:0:0:0:
320,128,104130,1,0,0:0:0:0:
320,128,104190,1,0,0:0:0:0:
320,128,104250,1,0,0:0:0:0:
224,160,104370,1,0,0:0:0:0:
224,160,104490,1,8,0:0:0:0:
320,192,104610,1,8,0:0:0:0:
320,192,104670,1,8,0:0:0:0:
320,192,104730,1,0,0:0:0:0:
288,128,104850,1,0,0:0:0:0:
224,160,104940,1,0,0:0:0:0:
224,160,104970,1,8,0:0:0:0:
192,64,105060,1,0,0:0:0:0:
224,96,105090,1,8,0:0:0:0:
256,96,105180,1,8,0:0:0:0:
256,96,105210,1,0,0:0:0:0:
224,64,105270,1,8,0:0:0:0:
224,64,105330,1,8,0:0:0:0:
224,64,105360,1,8,0:0:0:0:
224,64,105390,1,0,0:0:0:0:
224,64,105420,1,8,0:0:0:0:
224,64,105450,1,0,0:0:0:0:
224,64,105480,1,0,0:0:0:0:
224,160,105510,1,8,0:0:0:0:
224,160,105540,1,8,0:0:0:0:
224,160,105570,1,8,0:0:0:0:
224,160,105600,1,8,0:0:0:0:
224,160,105630,1,8,0:0:0:0:
224,160,105660,1,8,0:0:0:0:
224,160,105690,1,0,0:0:0:0:
224,128,105810,1,0,0:0:0:0:
224,128,105930,1,8,0:0:0:0:
224,128,106050,1,0,0:0:0:0:
224,128,106110,1,0,0:0:0:0:
224,128,106170,1,0,0:0:0:0:
224,128,106290,1,0,0:0:0:0:
384,192,106410,1,8,0:0:0:0:
384,160,106470,1,0,0:0:0:0:
352,160,106530,1,0,0:0:0:0:
352,160,106590,1,0,0:0:0:0:
352,160,106650,1,8,0:0:0:0:
352,160,106710,1,0,0:0:0:0:
352,160,106770,1,0,0:0:0:0:
352,160,106830,1,0,0:0:0:0:
352,160,106890,1,8,0:0:0:0:
224,224,106980,1,0,0:0:0:0:
224,224,107010,1,8,0:0:0:0:
224,224,107100,1,0,0:0:0:0:
224,224,107130,1,8,0:0:0:0:
224,224,107160,1,8,0:0:0:0:
224,224,107190,1,0,0:0:0:0:
224,224,107220,1,0,0:0:0:0:
224,128,107250,1,8,0:0:0:0:
224,128,107280,1,8,0:0:0:0:
224,128,107310,1,8,0:0:0:0:
224,128,107340,1,8,0:0:0:0:
224,128,107370,1,0,0:0:0:0:
224,192,107400,1,8,0:0:0:0:
224,192,107430,1,0,0:0:0:0:
224,224,107460,1,0,0:0:0:0:
160,128,107490,1,8,0:0:0:0:
160,128,107520,1,8,0:0:0:0:
160,128,107550,1,8,0:0:0:0:
160,128,107580,1,8,0:0:0:0:
160,128,107610,1,0,0:0:0:0:
352,96,107730,1,0,0:0:0:0:
352,128,107850,1,8,0:0:0:0:
352,128,107970,1,0,0:0:0:0:
352,128,108030,1,0,0:0:0:0:
352,128,108090,1,0,0:0:0:0:
256,160,108210,1,0,0:0:0:0:
192,96,108300,1,8,0:0:0:0:
160,96,108330,1,0,0:0:0:0:
160,96,108420,1,8,0:0:0:0:
160,96,108450,1,0,0:0:0:0:
160,96,108540,1,8,0:0:0:0:
192,160,108570,1,0,0:0:0:0:
192,160,108630,1,0,0:0:0:0:
192,160,108690,1,0,0:0:0:0:
192,160,108750,1,8,0:0:0:0:
192,160,108810,1,0,0:0:0:0:
192,160,108870,1,8,0:0:0:0:
192,160,108930,1,0,0:0:0:0:
192,160,108990,1,8,0:0:0:0:
192,160,109050,1,0,0:0:0:0:
320,128,109110,1,0,0:0:0:0:
160,96,109140,1,0,0:0:0:0:
160,96,109170,1,0,0:0:0:0:
160,96,109200,1,0,0:0:0:0:
160,96,109230,1,0,0:0:0:0:
160,96,109260,1,0,0:0:0:0:
320,96,109290,1,0,0:0:0:0:
320,96,109320,1,0,0:0:0:0:
320,96,109350,1,0,0:0:0:0:
320,96,109380,1,0,0:0:0:0:
320,96,109410,1,8,0:0:0:0:
320,96,109430,1,8,0:0:0:0:
288,96,109450,1,8,0:0:0:0:
288,96,109470,1,8,0:0:0:0:
288,96,109490,1,8,0:0:0:0:
288,96,109510,1,8,0:0:0:0:
288,96,109530,1,0,0:0:0:0:
288,96,109650,1,0,0:0:0:0:
288,96,109770,1,8,0:0:0:0:
288,96,109890,1,0,0:0:0:0:
288,96,109950,1,0,0:0:0:0:
288,96,110010,1,0,0:0:0:0:
256,128,110130,1,8,0:0:0:0:
352,64,110190,1,0,0:0:0:0:
256,128,110250,1,8,0:0:0:0:
288,160,110310,1,0,0:0:0:0:
256,128,110370,1,8,0:0:0:0:
224,64,110460,1,8,0:0:0:0:
224,64,110490,1,0,0:0:0:0:
192,96,110580,1,8,0:0:0:0:
192,96,110610,1,0,0:0:0:0:
192,96,110700,1,8,0:0:0:0:
192,96,110730,1,0,0:0:0:0:
192,96,110820,1,8,0:0:0:0:
192,96,110850,1,0,0:0:0:0:
192,96,110910,1,8,0:0:0:0:
192,96,110940,1,8,0:0:0:0:
192,96,110970,1,0,0:0:0:0:
192,96,111000,1,0,0:0:0:0:
192,96,111030,1,8,0:0:0:0:
192,96,111090,1,0,0:0:0:0:
192,96,111180,1,0,0:0:0:0:
192,96,111210,1,8,0:0:0:0:
32,128,111270,1,0,0:0:0:0:
192,96,111330,1,8,0:0:0:0:
192,96,111390,1,8,0:0:0:0:
192,128,111420,1,8,0:0:0:0:
192,96,111450,1,0,0:0:0:0:
192,96,111570,1,0,0:0:0:0:
192,128,111690,1,8,0:0:0:0:
192,96,111810,1,8,0:0:0:0:
192,96,111870,1,8,0:0:0:0:
192,96,111930,1,0,0:0:0:0:
192,96,112050,1,0,0:0:0:0:
160,96,112170,1,8,0:0:0:0:
160,96,112230,1,0,0:0:0:0:
160,96,112290,1,8,0:0:0:0:
160,96,112350,1,0,0:0:0:0:
160,96,112410,1,8,0:0:0:0:
224,64,112530,1,8,0:0:0:0:
224,64,112590,1,8,0:0:0:0:
224,64,112650,1,0,0:0:0:0:
224,64,112710,1,0,0:0:0:0:
224,64,112770,1,8,0:0:0:0:
224,64,112890,1,0,0:0:0:0:
160,0,112950,1,0,0:0:0:0:
224,96,113010,1,0,0:0:0:0:
224,96,113070,1,0,0:0:0:0:
224,96,113130,1,8,0:0:0:0:
224,96,113190,1,8,0:0:0:0:
224,96,113250,1,8,0:0:0:0:
224,96,113310,1,8,0:0:0:0:
224,96,113370,1,0,0:0:0:0:
224,96,113460,1,0,0:0:0:0:
192,192,113490,1,8,0:0:0:0:
224,160,113580,1,0,0:0:0:0:
224,160,113610,1,8,0:0:0:0:
224,160,113700,1,0,0:0:0:0:
224,160,113730,1,8,0:0:0:0:
224,160,113820,1,0,0:0:0:0:
224,160,113850,1,8,0:0:0:0:
224,128,113970,1,0,0:0:0:0:
192,128,114060,1,0,0:0:0:0:
192,160,114090,1,8,0:0:0:0:
192,128,114210,1,8,0:0:0:0:
192,128,114270,1,8,0:0:0:0:
192,128,114330,1,0,0:0:0:0:
160,96,114450,1,0,0:0:0:0:
192,128,114540,1,8,0:0:0:0:
192,128,114570,1,0,0:0:0:0:
192,128,114660,1,8,0:0:0:0:
192,128,114690,1,0,0:0:0:0:
192,128,114780,1,8,0:0:0:0:
192,128,114810,1,0,0:0:0:0:
256,192,114900,1,0,0:0:0:0:
256,96,114930,1,8,0:0:0:0:
224,160,114990,1,0,0:0:0:0:
256,192,115050,1,8,0:0:0:0:
256,192,115110,1,8,0:0:0:0:
256,192,115170,1,0,0:0:0:0:
256,192,115230,1,8,0:0:0:0:
256,192,115290,1,0,0:0:0:0:
192,96,115410,1,0,0:0:0:0:
192,96,115530,1,8,0:0:0:0:
256,128,115590,1,0,0:0:0:0:
224,64,115650,1,8,0:0:0:0:
192,96,115740,1,8,0:0:0:0:
192,96,115770,1,0,0:0:0:0:
192,96,115860,1,8,0:0:0:0:
192,96,115890,1,0,0:0:0:0:
192,96,115980,1,8,0:0:0:0:
192,96,116010,1,0,0:0:0:0:
192,96,116100,1,8,0:0:0:0:
192,96,116130,1,0,0:0:0:0:
224,64,116250,1,0,0:0:0:0:
256,96,116370,1,0,0:0:0:0:
256,96,116430,1,0,0:0:0:0:
256,96,116490,1,8,0:0:0:0:
256,96,116610,1,0,0:0:0:0:
256,96,116730,1,8,0:0:0:0:
256,96,116790,1,8,0:0:0:0:
256,96,116850,1,0,0:0:0:0:
256,96,116910,1,0,0:0:0:0:
256,96,116970,1,8,0:0:0:0:
256,96,117030,1,8,0:0:0:0:
256,96,117090,1,0,0:0:0:0:
256,96,117210,1,0,0:0:0:0:
256,224,117330,1,0,0:0:0:0:
256,224,117390,1,0,0:0:0:0:
224,224,117450,1,8,0:0:0:0:
320,192,117570,1,8,0:0:0:0:
320,192,117690,1,0,0:0:0:0:
288,96,117810,1,0,0:0:0:0:
288,96,117870,1,0,0:0:0:0:
256,96,117930,1,8,0:0:0:0:
256,96,118050,1,8,0:0:0:0:
224,96,118140,1,8,0:0:0:0:
224,96,118170,1,0,0:0:0:0:
224,96,118260,1,8,0:0:0:0:
224,96,118290,1,0,0:0:0:0:
224,96,118380,1,8,0:0:0:0:
224,96,118410,1,0,0:0:0:0:
224,96,118500,1,8,0:0:0:0:
224,96,118530,1,0,0:0:0:0:
224,96,118650,1,0,0:0:0:0:
160,64,118770,1,0,0:0:0:0:
160,64,118830,1,0,0:0:0:0:
160,64,118890,1,8,0:0:0:0:
224,128,119010,1,8,0:0:0:0:
224,128,119130,1,0,0:0:0:0:
224,192,119250,1,0,0:0:0:0:
224,160,119310,1,0,0:0:0:0:
192,160,119370,1,8,0:0:0:0:
192,128,119490,1,0,0:0:0:0:
192,128,119610,1,8,0:0:0:0:
64,128,119730,1,0,0:0:0:0:
128,160,119820,1,0,0:0:0:0:
160,160,119850,1,8,0:0:0:0:
192,128,119940,1,0,0:0:0:0:
160,128,119970,1,8,0:0:0:0:
160,128,120000,1,0,0:0:0:0:
160,128,120030,1,8,0:0:0:0:
160,96,120060,1,8,0:0:0:0:
160,96,120090,1,0,0:0:0:0:
160,128,120210,1,0,0:0:0:0:
160,128,120330,1,8,0:0:0:0:
192,64,120450,1,8,0:0:0:0:
192,96,120540,1,0,0:0:0:0:
192,96,120570,1,8,0:0:0:0:
192,96,120660,1,0,0:0:0:0:
192,96,120690,1,8,0:0:0:0:
192,96,120780,1,0,0:0:0:0:
192,96,120810,1,8,0:0:0:0:
192,96,120900,1,0,0:0:0:0:
192,96,120930,1,8,0:0:0:0:
160,96,121050,1,0,0:0:0:0:
256,96,121080,1,0,0:0:0:0:
256,96,121110,1,0,0:0:0:0:
256,128,121170,1,0,0:0:0:0:
192,128,121260,1,8,0:0:0:0:
192,128,121290,1,0,0:0:0:0:
224,64,121410,1,0,0:0:0:0:
256,224,121530,1,8,0:0:0:0:
224,224,121590,1,0,0:0:0:0:
192,224,121650,1,0,0:0:0:0:
224,224,121710,1,0,0:0:0:0:
224,224,121770,1,8,0:0:0:0:
224,224,121830,1,8,0:0:0:0:
224,224,121890,1,0,0:0:0:0:
224,224,121950,1,0,0:0:0:0:
224,224,122010,1,8,0:0:0:0:
160,32,122100,1,0,0:0:0:0:
288,128,122130,1,0,0:0:0:0:
192,64,122220,1,0,0:0:0:0:
192,64,122250,1,8,0:0:0:0:
192,64,122340,1,8,0:0:0:0:
192,64,122370,1,0,0:0:0:0:
192,64,122460,1,8,0:0:0:0:
192,64,122490,1,0,0:0:0:0:
192,96,122610,1,8,0:0:0:0:
192,160,122730,1,0,0:0:0:0:
192,128,122850,1,0,0:0:0:0:
256,64,122940,1,8,0:0:0:0:
192,128,122970,1,8,0:0:0:0:
256,64,123060,1,8,0:0:0:0:
256,64,123090,1,8,0:0:0:0:
256,64,123180,1,8,0:0:0:0:
256,64,123210,1,8,0:0:0:0:
224,64,123300,1,8,0:0:0:0:
224,64,123330,1,8,0:0:0:0:
224,64,123450,1,0,0:0:0:0:
320,160,123510,1,0,0:0:0:0:
320,160,123570,1,0,0:0:0:0:
320,160,123630,1,0,0:0:0:0:
320,160,123690,1,0,0:0:0:0:
320,128,123750,1,0,0:0:0:0:
320,128,123810,1,0,0:0:0:0:
320,128,123870,1,0,0:0:0:0:
320,128,123930,1,8,0:0:0:0:
320,128,123990,1,8,0:0:0:0:
320,128,124050,1,0,0:0:0:0:
320,160,124170,1,8,0:0:0:0:
224,192,124230,1,8,0:0:0:0:
224,192,124290,1,0,0:0:0:0:
224,192,124350,1,0,0:0:0:0:
224,192,124410,1,8,0:0:0:0:
224,160,124500,1,0,0:0:0:0:
224,160,124530,1,8,0:0:0:0:
224,160,124620,1,0,0:0:0:0:
224,160,124650,1,8,0:0:0:0:
224,160,124740,1,0,0:0:0:0:
224,160,124770,1,8,0:0:0:0:
224,128,124860,1,0,0:0:0:0:
224,128,124890,1,0,0:0:0:0:
256,160,124980,1,0,0:0:0:0:
256,160,125010,1,0,0:0:0:0:
256,160,125100,1,0,0:0:0:0:
256,160,125130,1,0,0:0:0:0:
256,160,125220,1,0,0:0:0:0:
256,160,125250,1,0,0:0:0:0:
256,160,125370,1,8,0:0:0:0:
352,224,125490,1,0,0:0:0:0:
352,224,125550,1,0,0:0:0:0:
352,224,125610,1,8,0:0:0:0:
352,224,125730,1,0,0:0:0:0:
320,224,125850,1,0,0:0:0:0:
224,64,125970,1,0,0:0:0:0:
224,64,126030,1,0,0:0:0:0:
224,64,126090,1,8,0:0:0:0:
224,128,126210,1,8,0:0:0:0:
224,160,126330,1,0,0:0:0:0:
128,128,126390,1,0,0:0:0:0:
128,160,126450,1,8,0:0:0:0:
224,160,126510,1,0,0:0:0:0:
224,160,126570,1,8,0:0:0:0:
224,160,126630,1,0,0:0:0:0:
224,160,126690,1,8,0:0:0:0:
320,160,126780,1,0,0:0:0:0:
320,160,126810,1,0,0:0:0:0:
320,160,126900,1,0,0:0:0:0:
320,160,126930,1,0,0:0:0:0:
320,160,127020,1,0,0:0:0:0:
320,160,127050,1,0,0:0:0:0:
320,160,127140,1,0,0:0:0:0:
320,160,127170,1,0,0:0:0:0:
320,160,127290,1,8,0:0:0:0:
256,256,127350,1,8,0:0:0:0:
256,256,127410,1,8,0:0:0:0:
256,256,127470,1,8,0:0:0:0:
256,256,127530,1,8,0:0:0:0:
256,256,127590,1,8,0:0:0:0:
256,256,127650,1,8,0:0:0:0:
256,256,127710,1,8,0:0:0:0:
256,256,127770,1,0,0:0:0:0:
288,224,127890,1,0,0:0:0:0:
288,224,128010,1,8,0:0:0:0:
320,192,128130,1,0,0:0:0:0:
320,192,128190,1,0,0:0:0:0:
320,192,128250,1,0,0:0:0:0:
192,128,128370,1,0,0:0:0:0:
192,128,128490,1,8,0:0:0:0:
192,128,128550,1,0,0:0:0:0:
192,128,128610,1,8,0:0:0:0:
192,96,128700,1,0,0:0:0:0:
192,128,128730,1,0,0:0:0:0:
192,96,128820,1,0,0:0:0:0:
192,96,128850,1,0,0:0:0:0:
192,96,128940,1,0,0:0:0:0:
192,96,128970,1,0,0:0:0:0:
192,96,129060,1,0,0:0:0:0:
192,96,129090,1,0,0:0:0:0:
192,96,129210,1,8,0:0:0:0:
192,96,129330,1,0,0:0:0:0:
192,96,129390,1,0,0:0:0:0:
192,96,129450,1,8,0:0:0:0:
224,96,129570,1,8,0:0:0:0:
224,96,129690,1,0,0:0:0:0:
192,96,129810,1,0,0:0:0:0:
192,96,129870,1,0,0:0:0:0:
192,96,129930,1,8,0:0:0:0:
192,96,130050,1,0,0:0:0:0:
192,96,130170,1,0,0:0:0:0:
224,128,130290,1,8,0:0:0:0:
224,128,130350,1,0,0:0:0:0:
224,128,130410,1,8,0:0:0:0:
256,96,130530,1,0,0:0:0:0:
224,160,130650,1,0,0:0:0:0:
160,96,130740,1,0,0:0:0:0:
160,96,130770,1,0,0:0:0:0:
192,64,130890,1,0,0:0:0:0:
192,64,131010,1,8,0:0:0:0:
192,64,131130,1,0,0:0:0:0:
352,96,131190,1,0,0:0:0:0:
352,96,131250,1,0,0:0:0:0:
352,96,131310,1,0,0:0:0:0:
352,96,131370,1,0,0:0:0:0:
352,96,131430,1,0,0:0:0:0:
352,96,131490,1,0,0:0:0:0:
352,96,131550,1,0,0:0:0:0:
352,96,131610,1,8,0:0:0:0:
256,64,131730,1,8,0:0:0:0:
320,192,131850,1,0,0:0:0:0:
288,192,131890,1,0,0:0:0:0:
288,192,131930,1,0,0:0:0:0:
320,192,131970,1,8,0:0:0:0:
320,192,132000,1,8,0:0:0:0:
320,192,132030,1,8,0:0:0:0:
320,192,132060,1,8,0:0:0:0:
320,192,132090,1,0,0:0:0:0:
224,128,132180,1,0,0:0:0:0:
224,128,132210,1,0,0:0:0:0:
192,128,132300,1,0,0:0:0:0:
192,128,132330,1,0,0:0:0:0:
224,128,132420,1,0,0:0:0:0:
224,128,132450,1,0,0:0:0:0:
224,128,132570,1,0,0:0:0:0:
320,160,132690,1,0,0:0:0:0:
320,160,132750,1,0,0:0:0:0:
320,160,132810,1,8,0:0:0:0:
320,160,132930,1,0,0:0:0:0:
288,128,133050,1,0,0:0:0:0:
256,160,133290,1,8,0:0:0:0:
256,160,133410,1,0,0:0:0:0:
256,160,133470,1,0,0:0:0:0:
256,160,133530,1,8,0:0:0:0:
256,160,133650,1,0,0:0:0:0:
256,160,133770,1,0,0:0:0:0:
256,192,133890,1,8,0:0:0:0:
256,160,134010,1,8,0:0:0:0:
256,160,134070,1,8,0:0:0:0:
256,160,134130,1,0,0:0:0:0:
128,128,134190,1,0,0:0:0:0:
160,128,134250,1,8,0:0:0:0:
160,96,134370,1,0,0:0:0:0:
160,96,134490,1,0,0:0:0:0:
192,96,134580,1,0,0:0:0:0:
192,96,134610,1,0,0:0:0:0:
192,96,134700,1,0,0:0:0:0:
192,64,134730,1,0,0:0:0:0:
192,64,134850,1,0,0:0:0:0:
192,64,134970,1,8,0:0:0:0:
224,128,135090,1,0,0:0:0:0:
224,128,135150,1,0,0:0:0:0:
224,128,135210,1,8,0:0:0:0:
224,128,135330,1,0,0:0:0:0:
256,96,135450,1,0,0:0:0:0:
256,96,135510,1,0,0:0:0:0:
256,96,135570,1,0,0:0:0:0:
256,96,135630,1,0,0:0:0:0:
256,96,135690,1,0,0:0:0:0:
256,96,135750,1,0,0:0:0:0:
256,96,135810,1,0,0:0:0:0:
256,96,135870,1,0,0:0:0:0:
256,96,135930,1,8,0:0:0:0:
224,96,136050,1,0,0:0:0:0:
224,96,136110,1,0,0:0:0:0:
224,96,136170,1,8,0:0:0:0:
256,64,136290,1,0,0:0:0:0:
224,128,136410,1,0,0:0:0:0:
224,128,136500,1,0,0:0:0:0:
224,128,136530,1,0,0:0:0:0:
224,128,136620,1,0,0:0:0:0:
224,96,136650,1,0,0:0:0:0:
224,96,136770,1,0,0:0:0:0:
224,96,136890,1,8,0:0:0:0:
288,160,137010,1,0,0:0:0:0:
288,128,137070,1,0,0:0:0:0:
288,128,137130,1,8,0:0:0:0:
288,128,137250,1,0,0:0:0:0:
288,128,137370,1,8,0:0:0:0:
192,128,137490,1,0,0:0:0:0:
192,128,137610,1,8,0:0:0:0:
288,128,137670,1,8,0:0:0:0:
256,128,137730,1,0,0:0:0:0:
256,128,137790,1,0,0:0:0:0:
256,128,137850,1,8,0:0:0:0:
256,192,137970,1,0,0:0:0:0:
224,192,138090,1,0,0:0:0:0:
192,64,138210,1,0,0:0:0:0:
192,192,138330,1,8,0:0:0:0:
256,128,138450,1,0,0:0:0:0:
256,128,138570,1,8,0:0:0:0:
256,128,138690,1,0,0:0:0:0:
160,128,138750,1,0,0:0:0:0:
256,128,138810,1,0,0:0:0:0:
256,96,138930,1,0,0:0:0:0:
224,96,139050,1,8,0:0:0:0:
224,96,139170,1,0,0:0:0:0:
224,96,139290,1,0,0:0:0:0:
