osu file format v14

[General]
AudioFilename: audio.mp3
AudioLeadIn: 0
PreviewTime: -1
Countdown: 0
SampleSet: Normal
StackLeniency: 0.5
Mode: 0
LetterboxInBreaks: 0
WidescreenStoryboard: 0

[Editor]
DistanceSpacing: 1.1
BeatDivisor: 4
GridSize: 4
TimelineZoom: 2.799999

[Metadata]
Title:Extratone Pirates
TitleUnicode:Extratone Pirates
Artist:Annoying Ringtone
ArtistUnicode:Annoying Ringtone
Creator:Kirin
Version:FEEL THE EXTRATONE
Source:
Tags:rsi deathstream extratone simulator 2016
BeatmapID:1020440
BeatmapSetID:477697

[Difficulty]
HPDrainRate:3.5
CircleSize:4
OverallDifficulty:7.6
ApproachRate:10
SliderMultiplier:1.6
SliderTickRate:1

[Events]
//Background and Video events
0,0,"extra_tone_wallpaper_by_bceman-d8rp5tt.jpg",0,0
//Break Periods
2,38600,45630
//Storyboard Layer 0 (Background)
//Storyboard Layer 1 (Fail)
//Storyboard Layer 2 (Pass)
//Storyboard Layer 3 (Foreground)
//Storyboard Sound Samples

[TimingPoints]
0,240,4,1,0,70,1,0

[HitObjects]
168,336,0,6,0,P|104:328|76:232,1,160
344,336,480,2,0,P|408:328|436:232,1,160
328,220,840,1,0,0:0:0:0:
244,152,960,2,0,P|188:124|168:28,1,160
464,44,1440,2,0,L|296:64,1,160
172,100,1800,1,0,0:0:0:0:
80,184,1920,2,0,P|64:224|108:332,1,160
328,232,2400,2,0,L|160:252,1,160
244,340,2760,1,0,0:0:0:0:
352,360,2880,6,0,P|404:332|428:240,1,160
160,96,3360,1,0,0:0:0:0:
432,64,3600,1,0,0:0:0:0:
276,168,3840,6,0,P|240:192|108:188,1,160
48,48,4320,2,0,P|104:48|188:124,1,160
200,204,4680,1,0,0:0:0:0:
156,292,4800,2,0,P|124:332|24:316,1,160
252,336,5280,2,0,L|428:316,1,160
320,228,5640,1,0,0:0:0:0:
404,156,5760,2,0,P|440:116|420:12,1,160
180,100,6240,2,0,L|360:80,1,160
300,168,6600,1,0,0:0:0:0:
224,240,6720,6,0,P|232:296|260:336,1,80
132,248,6960,2,0,P|124:204|136:148,1,80
40,256,7200,2,0,P|52:336|124:364,1,160
236,332,7560,1,0,0:0:0:0:
340,308,7680,6,0,L|432:280,1,80
416,168,7920,1,0,0:0:0:0:
476,328,8040,1,0,0:0:0:0:
320,208,8160,2,0,P|272:188|236:140,1,80
360,80,8400,1,0,0:0:0:0:
180,192,8520,1,0,0:0:0:0:
240,56,8640,6,0,L|156:68,1,80
28,148,8880,2,0,L|120:136,1,80
256,200,9120,2,0,P|232:256|128:280,1,160
304,336,9480,2,0,L|340:328,2,20
352,324,9600,6,0,L|440:304,1,80
256,228,9840,1,0,0:0:0:0:
416,232,9960,1,0,0:0:0:0:
296,148,10080,2,0,P|252:144|196:156,1,80
120,276,10320,1,0,0:0:0:0:
148,120,10440,1,0,0:0:0:0:
48,224,10560,6,0,L|40:308,1,80
120,144,10800,2,0,L|108:48,1,80
68,248,11040,2,0,L|60:332,1,80
96,124,11280,2,0,L|84:28,1,80
168,248,11520,6,0,L|264:272,1,80
384,188,11760,1,0,0:0:0:0:
292,328,11880,1,0,0:0:0:0:
256,140,12000,2,0,L|200:64,1,80
372,56,12240,1,0,0:0:0:0:
204,32,12360,1,0,0:0:0:0:
92,136,12480,6,0,P|68:192|72:232,1,80
244,252,12720,2,0,P|212:212|172:192,1,80
88,320,12960,2,0,P|144:356|256:332,1,160
272,332,13260,1,0,0:0:0:0:
312,320,13320,1,0,0:0:0:0:
352,320,13380,1,0,0:0:0:0:
392,332,13440,6,0,L|456:276,1,80
340,168,13680,1,0,0:0:0:0:
468,304,13800,1,0,0:0:0:0:
272,224,13920,2,0,P|232:212|204:172,1,80
380,80,14160,1,0,0:0:0:0:
176,116,14280,1,0,0:0:0:0:
108,240,14400,6,0,L|128:252,2,20
164,336,14520,2,0,L|176:304,2,20
256,284,14640,2,0,L|224:276,2,20
336,304,14760,2,0,L|360:312,2,20
432,296,14880,2,0,L|440:272,2,20
412,208,15000,1,0,0:0:0:0:
364,88,15120,5,0,0:0:0:0:
324,92,15180,1,0,0:0:0:0:
284,96,15240,1,0,0:0:0:0:
244,104,15300,1,0,0:0:0:0:
204,108,15360,6,0,L|104:120,1,80
184,200,15600,2,0,L|88:212,1,80
260,252,15840,2,0,L|360:264,1,80
428,348,16080,1,0,0:0:0:0:
212,336,16200,1,0,0:0:0:0:
436,264,16320,2,0,P|448:224|440:180,1,80
312,84,16560,2,0,P|316:128|360:176,1,80
188,104,16800,2,0,L|80:96,1,80
244,152,17040,1,0,0:0:0:0:
40,72,17160,1,0,0:0:0:0:
92,208,17280,6,0,P|64:244|60:296,1,80
188,284,17520,2,0,P|216:324|260:336,1,80
320,236,17760,2,0,P|368:244|416:220,1,80
308,136,18000,1,0,0:0:0:0:
396,312,18120,1,0,0:0:0:0:
408,152,18240,2,0,P|432:116|472:96,1,80
352,48,18480,2,0,P|304:60|268:52,1,80
224,184,18720,2,0,L|208:104,1,80
104,56,18960,1,0,0:0:0:0:
96,96,19020,1,0,0:0:0:0:
84,136,19080,1,0,0:0:0:0:
76,176,19140,1,0,0:0:0:0:
64,216,19200,6,0,P|64:264|40:296,1,80
176,240,19440,2,0,P|208:276|216:312,1,80
368,216,19680,2,0,L|284:256,1,80
292,128,19920,1,0,0:0:0:0:
364,304,20040,1,0,0:0:0:0:
444,176,20160,6,0,L|464:88,1,80
336,36,20400,2,0,B|292:48|292:48|232:28,1,80
160,168,20640,2,0,P|148:120|168:68,1,80
288,164,20880,1,0,0:0:0:0:
68,104,21000,1,0,0:0:0:0:
92,248,21120,6,0,L|72:328,1,80
224,260,21360,2,0,L|252:348,1,80
332,232,21600,2,0,L|400:276,1,80
448,172,21840,1,0,0:0:0:0:
376,348,21960,1,0,0:0:0:0:
344,132,22080,6,0,L|340:104,2,20
264,140,22200,2,0,L|256:120,2,20
188,148,22320,2,0,L|176:120,2,20
112,168,22440,2,0,L|104:140,2,20
44,200,22560,2,0,L|20:184,2,20
184,304,22800,2,0,L|212:328,4,20
392,324,23040,5,0,0:0:0:0:
416,304,23100,1,0,0:0:0:0:
432,276,23160,1,0,0:0:0:0:
444,248,23220,1,0,0:0:0:0:
448,216,23280,1,0,0:0:0:0:
444,184,23340,1,0,0:0:0:0:
424,156,23400,1,0,0:0:0:0:
396,144,23460,1,0,0:0:0:0:
364,140,23520,1,0,0:0:0:0:
332,148,23580,1,0,0:0:0:0:
308,168,23640,1,0,0:0:0:0:
288,192,23700,1,0,0:0:0:0:
276,224,23760,5,0,0:0:0:0:
272,256,23820,1,0,0:0:0:0:
272,288,23880,1,0,0:0:0:0:
268,320,23940,1,0,0:0:0:0:
252,348,24000,1,0,0:0:0:0:
224,364,24060,1,0,0:0:0:0:
192,368,24120,1,0,0:0:0:0:
160,360,24180,1,0,0:0:0:0:
132,344,24240,1,0,0:0:0:0:
116,316,24300,1,0,0:0:0:0:
116,284,24360,1,0,0:0:0:0:
136,260,24420,1,0,0:0:0:0:
164,244,24480,5,0,0:0:0:0:
184,220,24540,1,0,0:0:0:0:
192,188,24600,1,0,0:0:0:0:
188,156,24660,1,0,0:0:0:0:
172,128,24720,1,0,0:0:0:0:
144,108,24780,1,0,0:0:0:0:
112,104,24840,1,0,0:0:0:0:
80,108,24900,1,0,0:0:0:0:
52,120,24960,5,0,0:0:0:0:
64,92,25020,1,0,0:0:0:0:
88,68,25080,1,0,0:0:0:0:
116,56,25140,1,0,0:0:0:0:
148,48,25200,1,0,0:0:0:0:
180,52,25260,1,0,0:0:0:0:
208,64,25320,1,0,0:0:0:0:
232,84,25380,1,0,0:0:0:0:
248,112,25440,1,0,0:0:0:0:
256,144,25500,5,0,0:0:0:0:
272,116,25560,1,0,0:0:0:0:
292,92,25620,1,0,0:0:0:0:
316,72,25680,1,0,0:0:0:0:
344,56,25740,1,0,0:0:0:0:
376,48,25800,1,0,0:0:0:0:
408,48,25860,1,0,0:0:0:0:
440,56,25920,1,0,0:0:0:0:
464,76,25980,1,0,0:0:0:0:
484,100,26040,1,0,0:0:0:0:
492,132,26100,1,0,0:0:0:0:
492,164,26160,1,0,0:0:0:0:
480,192,26220,5,0,0:0:0:0:
460,216,26280,1,0,0:0:0:0:
432,232,26340,1,0,0:0:0:0:
400,240,26400,1,0,0:0:0:0:
368,240,26460,1,0,0:0:0:0:
336,248,26520,1,0,0:0:0:0:
312,268,26580,1,0,0:0:0:0:
296,296,26640,1,0,0:0:0:0:
280,324,26700,1,0,0:0:0:0:
268,356,26760,1,0,0:0:0:0:
236,364,26820,1,0,0:0:0:0:
204,364,26880,5,0,0:0:0:0:
172,356,26940,1,0,0:0:0:0:
144,340,27000,1,0,0:0:0:0:
128,312,27060,1,0,0:0:0:0:
128,280,27120,1,0,0:0:0:0:
144,252,27180,1,0,0:0:0:0:
172,236,27240,1,0,0:0:0:0:
204,236,27300,1,0,0:0:0:0:
232,256,27360,1,0,0:0:0:0:
248,228,27420,1,0,0:0:0:0:
264,200,27480,1,0,0:0:0:0:
280,172,27540,1,0,0:0:0:0:
300,144,27600,5,0,0:0:0:0:
268,144,27660,1,0,0:0:0:0:
236,144,27720,1,0,0:0:0:0:
204,148,27780,1,0,0:0:0:0:
172,148,27840,1,0,0:0:0:0:
140,152,27900,1,0,0:0:0:0:
108,156,27960,1,0,0:0:0:0:
76,160,28020,1,0,0:0:0:0:
88,132,28080,5,0,0:0:0:0:
108,108,28140,1,0,0:0:0:0:
132,88,28200,1,0,0:0:0:0:
160,68,28260,1,0,0:0:0:0:
188,52,28320,1,0,0:0:0:0:
216,40,28380,1,0,0:0:0:0:
212,72,28440,1,0,0:0:0:0:
208,104,28500,1,0,0:0:0:0:
204,148,28560,1,0,0:0:0:0:
200,180,28620,1,0,0:0:0:0:
196,212,28680,1,0,0:0:0:0:
192,244,28740,1,0,0:0:0:0:
204,276,28800,5,0,0:0:0:0:
224,300,28860,1,0,0:0:0:0:
252,320,28920,1,0,0:0:0:0:
284,328,28980,1,0,0:0:0:0:
316,328,29040,1,0,0:0:0:0:
348,316,29100,1,0,0:0:0:0:
376,296,29160,1,0,0:0:0:0:
396,272,29220,1,0,0:0:0:0:
364,264,29280,5,0,0:0:0:0:
332,256,29340,1,0,0:0:0:0:
300,248,29400,1,0,0:0:0:0:
308,216,29460,1,0,0:0:0:0:
320,188,29520,1,0,0:0:0:0:
332,160,29580,1,0,0:0:0:0:
344,132,29640,1,0,0:0:0:0:
356,100,29700,1,0,0:0:0:0:
356,68,29760,1,0,0:0:0:0:
332,44,29820,1,0,0:0:0:0:
300,40,29880,1,0,0:0:0:0:
268,44,29940,1,0,0:0:0:0:
240,56,30000,1,0,0:0:0:0:
216,76,30060,1,0,0:0:0:0:
188,96,30120,1,0,0:0:0:0:
156,100,30180,1,0,0:0:0:0:
128,84,30240,2,0,L|104:64,12,20
88,296,30720,6,0,L|104:240,1,40
132,316,30840,2,0,L|120:356,1,40
176,304,30960,2,0,L|192:248,1,40
220,324,31080,2,0,L|208:364,1,40
264,304,31200,2,0,L|280:248,1,40
308,324,31320,2,0,L|296:364,1,40
352,304,31440,2,0,L|368:248,1,40
396,324,31560,2,0,L|384:364,1,40
432,304,31680,5,0,0:0:0:0:
452,280,31740,1,0,0:0:0:0:
464,252,31800,1,0,0:0:0:0:
468,220,31860,1,0,0:0:0:0:
472,188,31920,1,0,0:0:0:0:
468,156,31980,1,0,0:0:0:0:
460,124,32040,1,0,0:0:0:0:
440,100,32100,1,0,0:0:0:0:
412,116,32160,1,0,0:0:0:0:
380,124,32220,1,0,0:0:0:0:
348,124,32280,1,0,0:0:0:0:
316,116,32340,1,0,0:0:0:0:
292,96,32400,1,0,0:0:0:0:
284,64,32460,1,0,0:0:0:0:
296,36,32520,2,0,L|320:20,3,20
264,48,32640,6,0,L|220:64,1,40
192,100,32760,2,0,L|140:120,1,40
128,156,32880,2,0,L|80:176,1,40
80,212,33000,2,0,L|128:232,1,40
144,268,33120,2,0,L|192:288,1,40
216,316,33240,2,0,L|264:336,1,40
296,332,33360,2,0,L|340:320,1,40
356,280,33480,2,0,L|396:268,1,40
420,232,33600,5,0,0:0:0:0:
388,220,33660,1,0,0:0:0:0:
356,212,33720,1,0,0:0:0:0:
324,208,33780,1,0,0:0:0:0:
292,208,33840,1,0,0:0:0:0:
308,180,33900,1,0,0:0:0:0:
336,164,33960,1,0,0:0:0:0:
368,156,34020,1,0,0:0:0:0:
400,152,34080,5,0,0:0:0:0:
380,124,34140,1,0,0:0:0:0:
352,108,34200,1,0,0:0:0:0:
320,100,34260,1,0,0:0:0:0:
288,100,34320,1,0,0:0:0:0:
256,108,34380,1,0,0:0:0:0:
228,124,34440,2,0,L|200:144,2,20
192,156,34560,6,0,L|144:188,1,40
64,264,34680,2,0,L|112:236,1,40
220,224,34800,2,0,L|172:256,1,40
92,332,34920,2,0,L|140:304,1,40
204,352,35040,2,0,L|244:332,1,40
312,368,35160,2,0,L|352:344,1,40
448,288,35280,2,0,L|400:316,1,40
416,212,35400,2,0,L|432:176,1,40
448,132,35520,5,0,0:0:0:0:
436,104,35580,1,0,0:0:0:0:
412,80,35640,1,0,0:0:0:0:
380,72,35700,1,0,0:0:0:0:
348,76,35760,1,0,0:0:0:0:
320,92,35820,1,0,0:0:0:0:
300,120,35880,1,0,0:0:0:0:
296,152,35940,1,0,0:0:0:0:
304,184,36000,2,0,L|312:216,7,20
304,220,36240,2,0,L|296:248,7,20
292,252,36480,5,0,0:0:0:0:
268,288,36540,1,0,0:0:0:0:
232,316,36600,1,0,0:0:0:0:
188,328,36660,1,0,0:0:0:0:
144,324,36720,1,0,0:0:0:0:
108,300,36780,1,0,0:0:0:0:
92,260,36840,1,0,0:0:0:0:
100,240,36900,1,0,0:0:0:0:
104,220,36960,5,0,0:0:0:0:
104,200,37020,1,0,0:0:0:0:
100,180,37080,1,0,0:0:0:0:
92,160,37140,1,0,0:0:0:0:
80,144,37200,1,0,0:0:0:0:
64,136,37260,1,0,0:0:0:0:
76,108,37320,1,0,0:0:0:0:
104,88,37380,1,0,0:0:0:0:
136,80,37440,5,0,0:0:0:0:
172,108,37500,1,0,0:0:0:0:
212,136,37560,1,0,0:0:0:0:
260,140,37620,1,0,0:0:0:0:
304,124,37680,1,0,0:0:0:0:
344,96,37740,1,0,0:0:0:0:
388,76,37800,1,0,0:0:0:0:
436,76,37860,1,0,0:0:0:0:
480,100,37920,5,0,0:0:0:0:
456,152,37980,1,0,0:0:0:0:
448,208,38040,1,0,0:0:0:0:
456,264,38100,1,0,0:0:0:0:
464,320,38160,1,0,0:0:0:0:
408,312,38220,1,0,0:0:0:0:
352,312,38280,1,0,0:0:0:0:
296,320,38340,1,0,0:0:0:0:
244,344,38400,5,0,0:0:0:0:
100,64,46080,5,0,0:0:0:0:
132,80,46140,1,0,0:0:0:0:
168,88,46200,1,0,0:0:0:0:
204,88,46260,1,0,0:0:0:0:
240,80,46320,1,0,0:0:0:0:
272,64,46380,1,0,0:0:0:0:
300,40,46440,1,0,0:0:0:0:
328,64,46500,1,0,0:0:0:0:
336,100,46560,1,0,0:0:0:0:
332,136,46620,1,0,0:0:0:0:
316,168,46680,1,0,0:0:0:0:
308,204,46740,1,0,0:0:0:0:
312,240,46800,1,0,0:0:0:0:
332,268,46860,1,0,0:0:0:0:
364,280,46920,1,0,0:0:0:0:
400,284,46980,1,0,0:0:0:0:
436,276,47040,5,0,0:0:0:0:
460,248,47100,1,0,0:0:0:0:
460,212,47160,1,0,0:0:0:0:
436,184,47220,1,0,0:0:0:0:
400,180,47280,1,0,0:0:0:0:
364,188,47340,1,0,0:0:0:0:
332,200,47400,1,0,0:0:0:0:
300,212,47460,1,0,0:0:0:0:
264,220,47520,1,0,0:0:0:0:
228,224,47580,1,0,0:0:0:0:
192,220,47640,1,0,0:0:0:0:
164,200,47700,1,0,0:0:0:0:
152,164,47760,1,0,0:0:0:0:
160,128,47820,1,0,0:0:0:0:
188,104,47880,1,0,0:0:0:0:
224,96,47940,1,0,0:0:0:0:
260,104,48000,5,0,0:0:0:0:
288,128,48060,1,0,0:0:0:0:
300,164,48120,1,0,0:0:0:0:
296,200,48180,1,0,0:0:0:0:
284,236,48240,1,0,0:0:0:0:
264,264,48300,1,0,0:0:0:0:
232,284,48360,1,0,0:0:0:0:
196,292,48420,1,0,0:0:0:0:
160,288,48480,1,0,0:0:0:0:
128,272,48540,1,0,0:0:0:0:
100,248,48600,1,0,0:0:0:0:
84,216,48660,1,0,0:0:0:0:
80,180,48720,1,0,0:0:0:0:
84,144,48780,1,0,0:0:0:0:
104,112,48840,1,0,0:0:0:0:
132,88,48900,1,0,0:0:0:0:
164,72,48960,5,0,0:0:0:0:
200,80,49020,1,0,0:0:0:0:
236,84,49080,1,0,0:0:0:0:
272,80,49140,1,0,0:0:0:0:
308,72,49200,1,0,0:0:0:0:
340,56,49260,1,0,0:0:0:0:
368,32,49320,1,0,0:0:0:0:
396,52,49380,1,0,0:0:0:0:
412,84,49440,1,0,0:0:0:0:
420,120,49500,1,0,0:0:0:0:
412,156,49560,1,0,0:0:0:0:
404,192,49620,1,0,0:0:0:0:
400,228,49680,1,0,0:0:0:0:
400,264,49740,1,0,0:0:0:0:
408,300,49800,1,0,0:0:0:0:
420,332,49860,1,0,0:0:0:0:
392,356,49920,6,0,L|312:368,1,80
148,276,50160,1,0,0:0:0:0:
312,296,50280,1,0,0:0:0:0:
88,220,50400,2,0,L|104:132,1,80
280,88,50640,1,0,0:0:0:0:
172,200,50760,1,0,0:0:0:0:
356,208,50880,5,0,0:0:0:0:
464,64,51000,1,0,0:0:0:0:
488,204,51120,1,0,0:0:0:0:
348,64,51240,1,0,0:0:0:0:
456,284,51360,1,0,0:0:0:0:
316,344,51480,1,0,0:0:0:0:
316,344,51510,1,0,0:0:0:0:
316,344,51540,1,0,0:0:0:0:
232,292,51660,1,0,0:0:0:0:
232,292,51690,1,0,0:0:0:0:
232,292,51720,1,0,0:0:0:0:
112,200,51840,6,0,L|32:216,1,80
200,116,52080,2,0,L|288:96,1,80
84,224,52320,2,0,L|-8:244,1,80
220,84,52560,2,0,L|308:64,1,80
84,72,52800,5,0,0:0:0:0:
188,216,52920,1,0,0:0:0:0:
72,52,53040,1,0,0:0:0:0:
200,240,53160,1,0,0:0:0:0:
248,332,53280,2,0,L|276:320,7,20
296,308,53520,2,0,L|316:300,5,20
412,324,53760,5,0,0:0:0:0:
436,300,53820,1,0,0:0:0:0:
452,268,53880,1,0,0:0:0:0:
452,232,53940,1,0,0:0:0:0:
444,196,54000,1,0,0:0:0:0:
412,176,54060,1,0,0:0:0:0:
376,172,54120,1,0,0:0:0:0:
344,184,54180,1,0,0:0:0:0:
316,208,54240,1,0,0:0:0:0:
292,236,54300,1,0,0:0:0:0:
260,256,54360,1,0,0:0:0:0:
224,260,54420,1,0,0:0:0:0:
192,248,54480,1,0,0:0:0:0:
172,220,54540,1,0,0:0:0:0:
172,184,54600,1,0,0:0:0:0:
192,156,54660,1,0,0:0:0:0:
224,140,54720,5,0,0:0:0:0:
256,128,54780,1,0,0:0:0:0:
284,104,54840,1,0,0:0:0:0:
292,68,54900,1,0,0:0:0:0:
276,36,54960,1,0,0:0:0:0:
240,24,55020,1,0,0:0:0:0:
204,28,55080,1,0,0:0:0:0:
172,44,55140,1,0,0:0:0:0:
140,64,55200,1,0,0:0:0:0:
104,76,55260,1,0,0:0:0:0:
68,68,55320,1,0,0:0:0:0:
40,44,55380,1,0,0:0:0:0:
12,68,55440,1,0,0:0:0:0:
4,104,55500,1,0,0:0:0:0:
12,140,55560,1,0,0:0:0:0:
32,172,55620,1,0,0:0:0:0:
64,192,55680,5,0,0:0:0:0:
100,196,55740,1,0,0:0:0:0:
136,188,55800,1,0,0:0:0:0:
168,168,55860,1,0,0:0:0:0:
204,168,55920,1,0,0:0:0:0:
236,188,55980,1,0,0:0:0:0:
256,220,56040,1,0,0:0:0:0:
248,256,56100,1,0,0:0:0:0:
228,284,56160,1,0,0:0:0:0:
196,300,56220,1,0,0:0:0:0:
160,304,56280,1,0,0:0:0:0:
132,284,56340,1,0,0:0:0:0:
124,248,56400,1,0,0:0:0:0:
128,212,56460,1,0,0:0:0:0:
140,176,56520,1,0,0:0:0:0:
140,140,56580,1,0,0:0:0:0:
124,108,56640,5,0,0:0:0:0:
92,88,56700,1,0,0:0:0:0:
56,92,56760,1,0,0:0:0:0:
72,60,56820,1,0,0:0:0:0:
104,44,56880,1,0,0:0:0:0:
140,40,56940,1,0,0:0:0:0:
176,48,57000,1,0,0:0:0:0:
204,72,57060,1,0,0:0:0:0:
220,104,57120,1,0,0:0:0:0:
232,136,57180,1,0,0:0:0:0:
248,168,57240,1,0,0:0:0:0:
276,188,57300,1,0,0:0:0:0:
312,196,57360,1,0,0:0:0:0:
348,188,57420,1,0,0:0:0:0:
380,172,57480,1,0,0:0:0:0:
392,140,57540,1,0,0:0:0:0:
392,104,57600,5,0,0:0:0:0:
372,76,57660,1,0,0:0:0:0:
336,64,57720,1,0,0:0:0:0:
364,44,57780,1,0,0:0:0:0:
400,40,57840,1,0,0:0:0:0:
436,48,57900,1,0,0:0:0:0:
468,68,57960,1,0,0:0:0:0:
488,100,58020,1,0,0:0:0:0:
488,136,58080,1,0,0:0:0:0:
476,172,58140,1,0,0:0:0:0:
452,200,58200,1,0,0:0:0:0:
420,216,58260,1,0,0:0:0:0:
448,240,58320,1,0,0:0:0:0:
468,272,58380,1,0,0:0:0:0:
472,308,58440,1,0,0:0:0:0:
460,340,58500,1,0,0:0:0:0:
428,360,58560,5,0,0:0:0:0:
392,356,58620,1,0,0:0:0:0:
364,332,58680,1,0,0:0:0:0:
352,296,58740,1,0,0:0:0:0:
352,260,58800,1,0,0:0:0:0:
352,224,58860,1,0,0:0:0:0:
352,188,58920,1,0,0:0:0:0:
352,152,58980,1,0,0:0:0:0:
316,160,59040,1,0,0:0:0:0:
284,172,59100,1,0,0:0:0:0:
252,184,59160,1,0,0:0:0:0:
220,196,59220,1,0,0:0:0:0:
188,208,59280,1,0,0:0:0:0:
152,208,59340,1,0,0:0:0:0:
124,188,59400,1,0,0:0:0:0:
116,152,59460,1,0,0:0:0:0:
128,120,59520,6,0,P|128:64|24:40,1,160
384,120,60000,2,0,P|384:64|488:40,1,160
384,264,60480,2,0,P|384:320|488:344,1,160
128,264,60960,2,0,P|128:320|24:344,1,160
280,132,61440,6,0,L|260:40,1,80
232,236,61680,2,0,L|252:344,1,80
288,112,61920,2,0,L|272:32,1,80
220,256,62160,2,0,L|240:364,1,80
368,340,62400,5,0,0:0:0:0:
384,328,62460,1,0,0:0:0:0:
400,316,62520,1,0,0:0:0:0:
416,304,62580,1,0,0:0:0:0:
432,292,62640,1,0,0:0:0:0:
448,280,62700,1,0,0:0:0:0:
464,268,62760,1,0,0:0:0:0:
480,256,62820,1,0,0:0:0:0:
496,244,62880,6,0,L|344:128,1,160
256,60,63240,1,0,0:0:0:0:
176,176,63360,5,0,0:0:0:0:
160,148,63420,1,0,0:0:0:0:
148,116,63480,1,0,0:0:0:0:
144,84,63540,1,0,0:0:0:0:
144,52,63600,1,0,0:0:0:0:
112,60,63660,1,0,0:0:0:0:
88,80,63720,1,0,0:0:0:0:
72,108,63780,1,0,0:0:0:0:
60,140,63840,1,0,0:0:0:0:
64,172,63900,1,0,0:0:0:0:
72,204,63960,1,0,0:0:0:0:
88,232,64020,1,0,0:0:0:0:
112,256,64080,1,0,0:0:0:0:
140,272,64140,1,0,0:0:0:0:
172,280,64200,1,0,0:0:0:0:
196,256,64260,1,0,0:0:0:0:
216,232,64320,5,0,0:0:0:0:
236,208,64380,1,0,0:0:0:0:
256,184,64440,1,0,0:0:0:0:
272,156,64500,1,0,0:0:0:0:
296,176,64560,1,0,0:0:0:0:
320,196,64620,1,0,0:0:0:0:
344,216,64680,1,0,0:0:0:0:
368,236,64740,1,0,0:0:0:0:
400,232,64800,1,0,0:0:0:0:
428,216,64860,1,0,0:0:0:0:
444,188,64920,1,0,0:0:0:0:
444,156,64980,1,0,0:0:0:0:
424,132,65040,1,0,0:0:0:0:
392,124,65100,1,0,0:0:0:0:
364,140,65160,1,0,0:0:0:0:
348,168,65220,1,0,0:0:0:0:
344,200,65280,5,0,0:0:0:0:
336,232,65340,1,0,0:0:0:0:
312,252,65400,1,0,0:0:0:0:
280,260,65460,1,0,0:0:0:0:
248,256,65520,1,0,0:0:0:0:
220,240,65580,1,0,0:0:0:0:
204,212,65640,1,0,0:0:0:0:
204,180,65700,1,0,0:0:0:0:
224,156,65760,1,0,0:0:0:0:
252,140,65820,1,0,0:0:0:0:
232,116,65880,1,0,0:0:0:0:
204,104,65940,1,0,0:0:0:0:
172,104,66000,1,0,0:0:0:0:
140,116,66060,1,0,0:0:0:0:
116,136,66120,1,0,0:0:0:0:
100,164,66180,1,0,0:0:0:0:
108,196,66240,5,0,0:0:0:0:
116,228,66300,1,0,0:0:0:0:
124,260,66360,1,0,0:0:0:0:
156,256,66420,1,0,0:0:0:0:
188,248,66480,1,0,0:0:0:0:
220,240,66540,1,0,0:0:0:0:
228,272,66600,1,0,0:0:0:0:
236,304,66660,1,0,0:0:0:0:
244,336,66720,1,0,0:0:0:0:
276,340,66780,1,0,0:0:0:0:
308,336,66840,1,0,0:0:0:0:
336,320,66900,1,0,0:0:0:0:
360,296,66960,2,0,L|380:264,6,20
376,268,67200,5,0,0:0:0:0:
384,236,67260,1,0,0:0:0:0:
380,204,67320,1,0,0:0:0:0:
356,184,67380,1,0,0:0:0:0:
384,172,67440,1,0,0:0:0:0:
416,160,67500,1,0,0:0:0:0:
448,148,67560,1,0,0:0:0:0:
472,128,67620,1,0,0:0:0:0:
472,96,67680,1,0,0:0:0:0:
456,68,67740,1,0,0:0:0:0:
428,52,67800,1,0,0:0:0:0:
396,60,67860,1,0,0:0:0:0:
372,80,67920,1,0,0:0:0:0:
344,92,67980,1,0,0:0:0:0:
312,96,68040,1,0,0:0:0:0:
280,92,68100,1,0,0:0:0:0:
256,72,68160,5,0,0:0:0:0:
240,44,68220,1,0,0:0:0:0:
220,72,68280,1,0,0:0:0:0:
216,104,68340,1,0,0:0:0:0:
216,136,68400,1,0,0:0:0:0:
224,168,68460,1,0,0:0:0:0:
200,188,68520,1,0,0:0:0:0:
168,196,68580,1,0,0:0:0:0:
136,192,68640,1,0,0:0:0:0:
108,176,68700,1,0,0:0:0:0:
92,148,68760,1,0,0:0:0:0:
68,168,68820,1,0,0:0:0:0:
56,196,68880,1,0,0:0:0:0:
56,228,68940,1,0,0:0:0:0:
64,260,69000,1,0,0:0:0:0:
84,288,69060,1,0,0:0:0:0:
112,304,69120,5,0,0:0:0:0:
144,296,69180,1,0,0:0:0:0:
176,292,69240,1,0,0:0:0:0:
208,300,69300,1,0,0:0:0:0:
232,320,69360,1,0,0:0:0:0:
252,344,69420,1,0,0:0:0:0:
284,348,69480,1,0,0:0:0:0:
316,340,69540,1,0,0:0:0:0:
348,328,69600,1,0,0:0:0:0:
372,308,69660,1,0,0:0:0:0:
392,284,69720,1,0,0:0:0:0:
404,256,69780,1,0,0:0:0:0:
412,224,69840,1,0,0:0:0:0:
408,192,69900,1,0,0:0:0:0:
396,164,69960,1,0,0:0:0:0:
372,140,70020,1,0,0:0:0:0:
348,120,70080,6,0,L|328:104,30,20
304,176,71040,2,0,P|256:188|220:184,1,80
192,88,71280,1,0,0:0:0:0:
272,264,71400,1,0,0:0:0:0:
76,280,71520,2,0,P|124:288|164:280,1,80
84,176,71760,1,0,0:0:0:0:
172,352,71880,1,0,0:0:0:0:
320,340,72000,6,0,L|400:316,1,80
468,196,72240,2,0,L|380:220,1,80
416,88,72480,1,0,0:0:0:0:
284,44,72600,1,0,0:0:0:0:
180,136,72720,1,0,0:0:0:0:
320,176,72840,2,0,L|328:148,3,20
312,200,72960,6,0,L|288:288,1,80
196,236,73200,2,0,L|172:312,1,80
88,212,73440,2,0,L|60:128,1,80
224,64,73680,1,0,0:0:0:0:
56,120,73800,1,0,0:0:0:0:
276,152,73920,6,0,P|320:128|328:84,1,80
424,192,74160,2,0,P|416:144|388:100,1,80
504,72,74400,2,0,P|464:48|416:48,1,80
352,232,74640,1,0,0:0:0:0:
404,328,74760,2,0,L|428:328,3,20
384,328,74880,6,0,L|296:328,1,80
176,276,75120,2,0,P|136:256|80:268,1,80
248,200,75360,2,0,P|232:160|196:132,1,80
360,96,75600,1,0,0:0:0:0:
120,148,75720,1,0,0:0:0:0:
304,48,75840,6,0,P|356:24|396:24,1,80
468,120,76080,2,0,P|468:172|448:216,1,80
328,244,76320,2,0,P|280:212|256:172,1,80
128,180,76560,1,0,0:0:0:0:
348,164,76680,1,0,0:0:0:0:
232,324,76800,5,0,0:0:0:0:
216,324,76860,1,0,0:0:0:0:
200,324,76920,1,0,0:0:0:0:
184,324,76980,1,0,0:0:0:0:
168,324,77040,1,0,0:0:0:0:
152,324,77100,1,0,0:0:0:0:
136,324,77160,1,0,0:0:0:0:
120,320,77220,1,0,0:0:0:0:
104,312,77280,1,0,0:0:0:0:
96,300,77340,1,0,0:0:0:0:
92,284,77400,1,0,0:0:0:0:
92,268,77460,1,0,0:0:0:0:
92,252,77520,1,0,0:0:0:0:
92,236,77580,1,0,0:0:0:0:
92,220,77640,1,0,0:0:0:0:
92,204,77700,1,0,0:0:0:0:
92,188,77760,6,0,L|164:96,1,80
240,204,78000,2,0,L|296:120,1,80
424,108,78240,1,0,0:0:0:0:
424,216,78360,2,0,L|432:248,2,20
360,284,78540,2,0,L|356:304,2,20
228,336,78720,5,0,0:0:0:0:
192,312,78780,1,0,0:0:0:0:
148,308,78840,1,0,0:0:0:0:
104,312,78900,1,0,0:0:0:0:
68,336,78960,1,0,0:0:0:0:
68,292,79020,1,0,0:0:0:0:
88,252,79080,1,0,0:0:0:0:
108,212,79140,1,0,0:0:0:0:
100,164,79200,1,0,0:0:0:0:
76,128,79260,1,0,0:0:0:0:
56,88,79320,1,0,0:0:0:0:
100,84,79380,1,0,0:0:0:0:
144,72,79440,1,0,0:0:0:0:
184,52,79500,1,0,0:0:0:0:
220,24,79560,1,0,0:0:0:0:
248,56,79620,1,0,0:0:0:0:
284,80,79680,5,0,0:0:0:0:
328,92,79740,1,0,0:0:0:0:
372,92,79800,1,0,0:0:0:0:
416,80,79860,1,0,0:0:0:0:
400,120,79920,1,0,0:0:0:0:
384,160,79980,1,0,0:0:0:0:
372,204,80040,1,0,0:0:0:0:
416,204,80100,1,0,0:0:0:0:
460,196,80160,1,0,0:0:0:0:
496,168,80220,1,0,0:0:0:0:
500,212,80280,1,0,0:0:0:0:
480,252,80340,1,0,0:0:0:0:
448,280,80400,1,0,0:0:0:0:
408,292,80460,1,0,0:0:0:0:
364,300,80520,1,0,0:0:0:0:
320,288,80580,1,0,0:0:0:0:
288,260,80640,5,0,0:0:0:0:
276,216,80700,1,0,0:0:0:0:
280,172,80760,1,0,0:0:0:0:
292,128,80820,1,0,0:0:0:0:
248,132,80880,1,0,0:0:0:0:
208,144,80940,1,0,0:0:0:0:
164,156,81000,1,0,0:0:0:0:
120,168,81060,1,0,0:0:0:0:
156,196,81120,1,0,0:0:0:0:
192,220,81180,1,0,0:0:0:0:
168,256,81240,1,0,0:0:0:0:
140,292,81300,1,0,0:0:0:0:
112,324,81360,1,0,0:0:0:0:
76,300,81420,1,0,0:0:0:0:
52,264,81480,1,0,0:0:0:0:
40,224,81540,1,0,0:0:0:0:
44,180,81600,5,0,0:0:0:0:
56,136,81660,1,0,0:0:0:0:
60,92,81720,1,0,0:0:0:0:
44,52,81780,1,0,0:0:0:0:
88,60,81840,1,0,0:0:0:0:
128,76,81900,1,0,0:0:0:0:
152,112,81960,1,0,0:0:0:0:
164,156,82020,1,0,0:0:0:0:
200,180,82080,1,0,0:0:0:0:
244,192,82140,1,0,0:0:0:0:
288,188,82200,1,0,0:0:0:0:
332,176,82260,1,0,0:0:0:0:
372,156,82320,1,0,0:0:0:0:
356,116,82380,1,0,0:0:0:0:
376,76,82440,1,0,0:0:0:0:
416,60,82500,1,0,0:0:0:0:
460,72,82560,5,0,0:0:0:0:
468,116,82620,1,0,0:0:0:0:
448,156,82680,1,0,0:0:0:0:
436,196,82740,1,0,0:0:0:0:
444,240,82800,1,0,0:0:0:0:
472,272,82860,1,0,0:0:0:0:
428,280,82920,1,0,0:0:0:0:
388,300,82980,1,0,0:0:0:0:
368,340,83040,1,0,0:0:0:0:
324,332,83100,1,0,0:0:0:0:
288,308,83160,1,0,0:0:0:0:
280,264,83220,1,0,0:0:0:0:
308,232,83280,1,0,0:0:0:0:
348,216,83340,1,0,0:0:0:0:
308,196,83400,1,0,0:0:0:0:
268,180,83460,1,0,0:0:0:0:
224,176,83520,5,0,0:0:0:0:
184,192,83580,1,0,0:0:0:0:
160,228,83640,1,0,0:0:0:0:
156,272,83700,1,0,0:0:0:0:
180,308,83760,1,0,0:0:0:0:
220,328,83820,1,0,0:0:0:0:
188,356,83880,1,0,0:0:0:0:
144,356,83940,1,0,0:0:0:0:
108,332,84000,1,0,0:0:0:0:
84,296,84060,1,0,0:0:0:0:
76,252,84120,1,0,0:0:0:0:
80,208,84180,1,0,0:0:0:0:
100,168,84240,1,0,0:0:0:0:
128,136,84300,1,0,0:0:0:0:
168,116,84360,1,0,0:0:0:0:
212,104,84420,1,0,0:0:0:0:
256,100,84480,5,0,0:0:0:0:
300,112,84540,1,0,0:0:0:0:
336,136,84600,1,0,0:0:0:0:
368,168,84660,1,0,0:0:0:0:
404,192,84720,1,0,0:0:0:0:
448,200,84780,1,0,0:0:0:0:
492,188,84840,1,0,0:0:0:0:
480,144,84900,1,0,0:0:0:0:
448,116,84960,1,0,0:0:0:0:
408,96,85020,1,0,0:0:0:0:
364,84,85080,1,0,0:0:0:0:
320,92,85140,1,0,0:0:0:0:
284,116,85200,1,0,0:0:0:0:
264,156,85260,1,0,0:0:0:0:
264,200,85320,1,0,0:0:0:0:
288,236,85380,1,0,0:0:0:0:
328,256,85440,5,0,0:0:0:0:
368,272,85500,1,0,0:0:0:0:
348,312,85560,1,0,0:0:0:0:
308,332,85620,1,0,0:0:0:0:
264,344,85680,1,0,0:0:0:0:
220,340,85740,1,0,0:0:0:0:
180,328,85800,1,0,0:0:0:0:
148,300,85860,1,0,0:0:0:0:
124,264,85920,6,0,L|104:232,7,20
116,224,86160,2,0,L|112:192,7,20
124,184,86400,5,0,0:0:0:0:
140,144,86460,1,0,0:0:0:0:
160,104,86520,1,0,0:0:0:0:
200,84,86580,1,0,0:0:0:0:
244,92,86640,1,0,0:0:0:0:
268,128,86700,1,0,0:0:0:0:
256,172,86760,1,0,0:0:0:0:
228,204,86820,1,0,0:0:0:0:
212,244,86880,1,0,0:0:0:0:
224,288,86940,1,0,0:0:0:0:
260,312,87000,1,0,0:0:0:0:
304,320,87060,1,0,0:0:0:0:
340,296,87120,1,0,0:0:0:0:
352,252,87180,1,0,0:0:0:0:
356,208,87240,1,0,0:0:0:0:
368,168,87300,1,0,0:0:0:0:
400,136,87360,5,0,0:0:0:0:
440,120,87420,1,0,0:0:0:0:
428,76,87480,1,0,0:0:0:0:
388,56,87540,1,0,0:0:0:0:
344,48,87600,1,0,0:0:0:0:
300,52,87660,1,0,0:0:0:0:
256,60,87720,1,0,0:0:0:0:
216,76,87780,1,0,0:0:0:0:
172,72,87840,1,0,0:0:0:0:
132,52,87900,1,0,0:0:0:0:
96,28,87960,1,0,0:0:0:0:
64,60,88020,1,0,0:0:0:0:
44,100,88080,1,0,0:0:0:0:
32,144,88140,1,0,0:0:0:0:
32,188,88200,1,0,0:0:0:0:
48,228,88260,1,0,0:0:0:0:
80,256,88320,5,0,0:0:0:0:
128,268,88380,1,0,0:0:0:0:
168,252,88440,1,0,0:0:0:0:
208,232,88500,1,0,0:0:0:0:
224,272,88560,1,0,0:0:0:0:
236,316,88620,1,0,0:0:0:0:
248,360,88680,1,0,0:0:0:0:
292,352,88740,1,0,0:0:0:0:
332,332,88800,1,0,0:0:0:0:
352,292,88860,1,0,0:0:0:0:
364,252,88920,1,0,0:0:0:0:
352,208,88980,1,0,0:0:0:0:
320,176,89040,1,0,0:0:0:0:
276,164,89100,1,0,0:0:0:0:
232,160,89160,1,0,0:0:0:0:
188,168,89220,1,0,0:0:0:0:
156,140,89280,5,0,0:0:0:0:
152,96,89340,1,0,0:0:0:0:
176,60,89400,1,0,0:0:0:0:
220,48,89460,1,0,0:0:0:0:
264,60,89520,1,0,0:0:0:0:
304,76,89580,1,0,0:0:0:0:
344,92,89640,1,0,0:0:0:0:
384,112,89700,1,0,0:0:0:0:
428,120,89760,1,0,0:0:0:0:
468,104,89820,1,0,0:0:0:0:
492,68,89880,1,0,0:0:0:0:
500,112,89940,1,0,0:0:0:0:
492,156,90000,1,0,0:0:0:0:
480,200,90060,1,0,0:0:0:0:
484,244,90120,1,0,0:0:0:0:
480,288,90180,1,0,0:0:0:0:
436,276,90240,5,0,0:0:0:0:
404,244,90300,1,0,0:0:0:0:
388,204,90360,1,0,0:0:0:0:
356,236,90420,1,0,0:0:0:0:
344,276,90480,1,0,0:0:0:0:
328,316,90540,1,0,0:0:0:0:
292,344,90600,1,0,0:0:0:0:
248,348,90660,1,0,0:0:0:0:
208,332,90720,1,0,0:0:0:0:
184,296,90780,1,0,0:0:0:0:
184,252,90840,1,0,0:0:0:0:
212,220,90900,1,0,0:0:0:0:
252,200,90960,1,0,0:0:0:0:
268,160,91020,1,0,0:0:0:0:
272,116,91080,1,0,0:0:0:0:
272,72,91140,1,0,0:0:0:0:
228,84,91200,5,0,0:0:0:0:
188,100,91260,1,0,0:0:0:0:
148,116,91320,1,0,0:0:0:0:
108,136,91380,1,0,0:0:0:0:
124,176,91440,1,0,0:0:0:0:
156,208,91500,1,0,0:0:0:0:
192,232,91560,1,0,0:0:0:0:
236,244,91620,1,0,0:0:0:0:
280,244,91680,1,0,0:0:0:0:
324,232,91740,1,0,0:0:0:0:
356,204,91800,1,0,0:0:0:0:
376,164,91860,1,0,0:0:0:0:
380,120,91920,1,0,0:0:0:0:
404,84,91980,1,0,0:0:0:0:
448,72,92040,1,0,0:0:0:0:
484,96,92100,1,0,0:0:0:0:
480,140,92160,5,0,0:0:0:0:
444,168,92220,1,0,0:0:0:0:
400,160,92280,1,0,0:0:0:0:
360,140,92340,1,0,0:0:0:0:
324,116,92400,1,0,0:0:0:0:
284,100,92460,1,0,0:0:0:0:
240,92,92520,1,0,0:0:0:0:
196,96,92580,1,0,0:0:0:0:
156,116,92640,1,0,0:0:0:0:
132,152,92700,1,0,0:0:0:0:
128,196,92760,1,0,0:0:0:0:
148,236,92820,1,0,0:0:0:0:
188,252,92880,1,0,0:0:0:0:
232,252,92940,1,0,0:0:0:0:
268,224,93000,1,0,0:0:0:0:
280,180,93060,1,0,0:0:0:0:
312,196,93120,5,0,0:0:0:0:
340,220,93180,1,0,0:0:0:0:
356,252,93240,1,0,0:0:0:0:
368,288,93300,1,0,0:0:0:0:
368,324,93360,1,0,0:0:0:0:
388,328,93420,1,0,0:0:0:0:
408,328,93480,1,0,0:0:0:0:
428,328,93540,1,0,0:0:0:0:
448,320,93600,1,0,0:0:0:0:
464,308,93660,1,0,0:0:0:0:
476,260,93720,1,0,0:0:0:0:
460,216,93780,1,0,0:0:0:0:
428,184,93840,1,0,0:0:0:0:
416,140,93900,1,0,0:0:0:0:
424,92,93960,1,0,0:0:0:0:
384,64,94020,1,0,0:0:0:0:
336,64,94080,5,0,0:0:0:0:
