osu file format v14

[General]
AudioFilename: audio.mp3
AudioLeadIn: 0
PreviewTime: 48380
Countdown: 0
SampleSet: Soft
StackLeniency: 0.4
Mode: 0
LetterboxInBreaks: 0
WidescreenStoryboard: 1

[Editor]
Bookmarks: 13140
DistanceSpacing: 1.1
BeatDivisor: 4
GridSize: 4
TimelineZoom: 1

[Metadata]
Title:Alarm (TroyBoi Remix) (Cut Ver.)
TitleUnicode:Alarm (TroyBoi Remix) (Cut Ver.)
Artist:Anne-Marie
ArtistUnicode:Anne-Marie
Creator:Sani_
Version:tada's Advanced
Source:
Tags:electronic rap hiphop hip-hop english pop Dance beats remix hannody Wanpachi Cycopton tadahitotsu Elinor TroyBoi
BeatmapID:3011655
BeatmapSetID:1454221

[Difficulty]
HPDrainRate:4
CircleSize:3.3
OverallDifficulty:4
ApproachRate:5
SliderMultiplier:1.4
SliderTickRate:1

[Events]
//Background and Video events
0,0,"Advanced.jpg",0,0
//Break Periods
//Storyboard Layer 0 (Background)
//Storyboard Layer 1 (Fail)
//Storyboard Layer 2 (Pass)
//Storyboard Layer 3 (Foreground)
//Storyboard Layer 4 (Overlay)
//Storyboard Sound Samples

[TimingPoints]
10,410.958904109589,4,2,1,80,1,0
16448,-111.111111111111,4,2,1,80,0,0
17270,-111.111111111111,4,2,1,80,0,0
18092,-111.111111111111,4,2,1,80,0,0
18914,-111.111111111111,4,2,1,80,0,0
26311,-124.223602484472,4,2,1,80,0,0
39462,-111.111111111111,4,2,1,80,0,0
40694,-111.111111111111,4,2,1,80,0,0
41105,-111.111111111111,4,2,1,80,0,0
49325,-111.111111111111,4,2,1,80,0,0
49736,-111.111111111111,4,2,1,80,0,0
50146,-111.111111111111,4,2,1,80,0,0
50557,-111.111111111111,4,2,1,80,0,0
50968,-111.111111111111,4,2,1,80,0,0
51379,-111.111111111111,4,2,1,80,0,0
51790,-111.111111111111,4,2,1,80,0,0
52201,-111.111111111111,4,2,1,80,0,0
52612,-100,4,2,33,100,0,1
52664,-100,4,2,3,80,0,1
53023,-100,4,2,3,80,0,1
54667,-100,4,2,3,80,0,1
55900,-100,4,2,3,80,0,1
56311,-100,4,2,3,80,0,1
58366,-100,4,2,1,80,0,1
59188,-100,4,2,3,80,0,1
59599,-100,4,2,3,80,0,1
62475,-100,4,2,3,80,0,1
62886,-100,4,2,3,80,0,1
63297,-100,4,2,3,80,0,1
63708,-100,4,2,3,80,0,1
64119,-100,4,2,3,80,0,1
64941,-100,4,2,1,80,0,1
65763,-111.111111111111,4,2,1,80,0,0
66174,-111.111111111111,4,2,2,80,0,0
92064,-111.111111111111,4,2,32,100,0,0

[Colours]
Combo1 : 24,135,104
Combo2 : 148,142,240

[HitObjects]
40,75,13160,6,0,P|99:77|118:151,1,140,4|0,0:0|0:0,0:0:0:0:
77,201,13777,1,0,3:3:0:0:
77,201,13982,2,0,P|91:241|97:285,1,70,10|2,0:0|0:0,0:0:0:0:
127,327,14393,2,0,P|166:343|211:323,1,70,0|2,3:3|0:0,0:0:0:0:
235,293,14804,6,0,P|247:246|279:154,1,140,0|0,3:3|0:0,0:0:0:0:
430,150,15626,1,10,0:0:0:0:
430,150,15831,2,0,P|450:190|460:231,2,70,2|2|0,0:0|0:0|0:0,0:0:0:0:
392,91,16448,6,0,P|359:66|263:49,1,125.999996154785,0|0,3:0|0:0,0:0:0:0:
218,84,17064,1,0,3:0:0:0:
218,84,17270,2,0,P|201:127|207:160,1,62.9999980773926,10|2,0:0|0:0,0:0:0:0:
247,195,17681,2,0,P|281:207|306:232,1,62.9999980773926,0|2,3:0|0:0,0:0:0:0:
368,240,18092,6,0,P|364:308|298:324,1,125.999996154785,0|0,3:0|0:0,0:0:0:0:
180,355,18914,1,10,0:0:0:0:
180,355,19119,2,0,P|191:321|210:289,2,62.9999980773926,2|2|0,0:0|0:0|0:0,0:0:0:0:
111,365,19736,6,0,P|57:342|51:269,1,125.999996154785,0|0,3:0|0:0,0:0:0:0:
88,226,20352,1,0,3:0:0:0:
88,226,20557,2,0,P|121:208|163:197,1,62.9999980773926,10|2,0:0|0:0,0:0:0:0:
208,229,20968,2,0,P|242:197|245:162,1,62.9999980773926,0|2,3:0|0:0,0:0:0:0:
200,129,21379,6,0,P|148:97|66:78,2,125.999996154785,0|2|10,3:0|0:0|0:0,0:0:0:0:
305,39,22612,1,2,0:0:0:0:
428,100,23023,6,0,P|410:164|397:228,1,125.999996154785,0|0,3:0|0:0,0:0:0:0:
440,277,23640,1,0,3:0:0:0:
440,277,23845,2,0,P|415:317|376:320,1,62.9999980773926,10|2,0:0|0:0,0:0:0:0:
335,340,24256,2,0,P|296:321|266:311,1,62.9999980773926,0|0,3:0|0:0,0:0:0:0:
212,339,24667,1,0,3:0:0:0:
38,314,25489,6,0,L|60:248,1,62.9999980773926,2|2,0:0|0:0,0:0:0:0:
124,234,25900,2,0,L|148:162,1,62.9999980773926,2|2,0:0|0:0,0:0:0:0:
111,112,26311,6,0,P|172:22|291:51,2,225.400000343933,4|2|2,0:0|0:0|0:0,0:0:0:0:
206,341,28777,2,0,P|245:335|268:320,1,56.3500000859833,2|2,0:0|0:0,0:0:0:0:
321,329,29188,2,0,P|344:297|349:270,1,56.3500000859833,2|2,0:0|0:0,0:0:0:0:
391,236,29599,6,0,P|296:195|175:152,2,225.400000343933,0|2|0,3:0|0:0|3:0,0:0:0:0:
224,52,32064,2,0,P|173:42|155:48,1,56.3500000859833,2|2,0:0|0:0,0:0:0:0:
109,27,32475,2,0,P|65:55|57:72,1,56.3500000859833,2|2,0:0|0:0,0:0:0:0:
45,117,32886,6,0,B|57:221|57:221|48:242|48:242|62:342,2,225.400000343933,0|2|2,3:0|0:0|0:0,0:0:0:0:
189,318,35352,2,0,P|280:293|358:280,1,169.05000025795,2|2,0:0|0:0,0:0:0:0:
399,322,36174,6,0,P|376:291|493:212,1,225.400000343933,0|2,3:0|0:0,0:0:0:0:
450,87,37407,1,2,0:0:0:0:
331,50,37818,6,0,P|269:70|173:124,1,169.05000025795,0|0,3:0|0:0,0:0:0:0:
102,131,38640,2,0,P|69:166|62:185,1,56.3500000859833,2|2,0:0|0:0,0:0:0:0:
13,205,39051,2,0,P|23:246|47:275,1,56.3500000859833,2|2,0:0|0:0,0:0:0:0:
72,313,39462,6,0,P|116:298|203:277,1,125.999996154785,0|0,3:0|0:0,0:0:0:0:
247,321,40078,1,0,3:0:0:0:
247,321,40283,2,0,L|273:237,2,62.9999980773926,2|0|0,0:0|0:0|3:0,0:0:0:0:
367,251,41105,6,0,P|356:196|290:159,1,125.999996154785,0|0,3:0|0:0,0:0:0:0:
231,174,41722,1,0,3:0:0:0:
231,174,41927,2,0,P|179:169|159:149,1,62.9999980773926,2|2,0:0|0:0,0:0:0:0:
102,163,42338,2,0,P|83:119|86:96,1,62.9999980773926,0|2,3:0|0:0,0:0:0:0:
121,46,42749,6,0,L|256:31,1,125.999996154785,0|2,3:0|0:0,0:0:0:0:
302,73,43366,1,0,3:0:0:0:
302,73,43571,2,0,P|345:79|365:95,2,62.9999980773926,2|2|0,0:0|0:0|3:0,0:0:0:0:
325,210,44393,6,0,P|375:236|442:295,1,125.999996154785,0|0,3:0|0:0,0:0:0:0:
408,346,45010,1,0,3:0:0:0:
408,346,45215,2,0,P|366:369|338:371,1,62.9999980773926,2|2,0:0|0:0,0:0:0:0:
285,350,45626,2,0,P|243:339|217:313,1,62.9999980773926,0|2,3:0|0:0,0:0:0:0:
160,343,46037,6,0,P|95:324|85:264,1,125.999996154785,0|0,3:0|0:0,0:0:0:0:
141,237,46653,1,0,0:0:0:0:
141,237,46859,2,0,P|126:192|77:116,1,125.999996154785,0|2,3:0|0:0,0:0:0:0:
210,66,47681,6,0,P|235:118|281:174,1,125.999996154785,0|0,3:0|0:0,0:0:0:0:
301,236,48297,1,0,0:0:0:0:
301,236,48503,2,0,P|334:259|364:258,1,62.9999980773926,0|2,3:0|0:0,0:0:0:0:
414,296,48914,2,0,P|452:280|465:251,1,62.9999980773926,2|2,0:0|0:0,0:0:0:0:
440,196,49325,1,0,3:0:0:0:
365,79,49736,6,0,L|297:61,1,62.9999980773926,0|0,3:0|0:0,0:0:0:0:
243,96,50146,2,0,L|175:78,1,62.9999980773926,0|0,3:0|0:0,0:0:0:0:
120,112,50557,2,0,L|52:94,1,62.9999980773926,0|0,3:0|0:0,0:0:0:0:
0,133,50968,1,4,3:0:0:0:
57,259,51379,5,0,0:0:0:0:
155,356,51790,2,0,P|117:344|92:344,2,62.9999980773926,0|0|0,0:0|0:0|0:0,0:0:0:0:
309,345,52612,6,0,P|299:294|294:204,1,140,14|0,0:0|0:0,0:0:0:0:
338,142,53229,1,2,0:0:0:0:
338,142,53434,2,0,P|374:106|406:104,1,70,10|0,0:0|0:0,0:0:0:0:
457,141,53845,1,0,3:0:0:0:
414,289,54256,5,0,0:0:0:0:
414,289,54462,1,2,0:0:0:0:
414,289,54667,2,0,P|353:261|339:260,1,70,2|0,3:0|0:0,0:0:0:0:
284,299,55078,2,0,P|242:318|209:315,2,70,8|0|0,0:0|0:0|0:0,0:0:0:0:
299,145,55900,6,0,P|262:79|188:83,1,140,2|2,3:0|0:0,0:0:0:0:
131,102,56516,1,0,3:0:0:0:
131,102,56722,2,0,P|92:133|78:149,1,70,0|0,3:0|0:0,0:0:0:0:
87,224,57133,1,0,3:0:0:0:
164,357,57544,5,0,3:0:0:0:
164,357,57749,1,2,0:0:0:0:
164,357,57955,2,0,P|195:325|217:309,1,70,2|0,3:0|0:0,0:0:0:0:
292,312,58366,2,0,B|331:315|331:315|368:289,1,70,2|2,0:0|0:0,0:0:0:0:
433,298,58777,2,0,B|460:270|460:270|464:224,1,70,2|2,0:0|0:0,0:0:0:0:
422,173,59188,5,10,3:0:0:0:
316,60,59599,2,0,P|274:73|245:100,1,70,8|2,0:0|0:0,0:0:0:0:
182,117,60009,2,0,P|166:164|167:203,1,70,2|0,0:0|0:0,0:0:0:0:
219,239,60420,1,0,3:0:0:0:
123,359,60831,5,0,0:0:0:0:
123,359,61037,1,2,0:0:0:0:
123,359,61242,2,0,P|179:335|206:326,1,70,2|0,3:0|0:0,0:0:0:0:
260,355,61653,2,0,P|293:328|301:295,2,70,8|0|0,0:0|0:0|0:0,0:0:0:0:
412,331,62475,6,0,P|390:264|375:193,1,140,4|2,3:0|0:0,0:0:0:0:
318,143,63092,1,4,3:0:0:0:
318,143,63297,2,0,P|343:100|386:88,1,70,2|0,0:0|0:0,0:0:0:0:
436,98,63708,1,4,3:0:0:0:
301,23,64119,5,2,0:0:0:0:
301,23,64325,1,10,0:0:0:0:
301,23,64530,2,0,P|245:39|211:61,1,70,10|0,0:0|0:0,0:0:0:0:
173,91,64941,2,0,P|151:131|145:172,1,70,2|2,0:0|0:0,0:0:0:0:
177,224,65352,2,0,P|208:244|262:240,1,70,2|2,0:0|0:0,0:0:0:0:
284,193,65763,6,0,P|325:159|415:180,1,125.999996154785,4|0,0:0|0:0,0:0:0:0:
439,217,66379,1,0,0:0:0:0:
439,217,66585,2,0,P|416:268|392:342,1,125.999996154785,8|0,0:0|3:0,0:0:0:0:
258,365,67407,6,0,P|215:350|137:297,1,125.999996154785,0|0,0:0|3:0,0:0:0:0:
132,238,68023,1,0,0:0:0:0:
132,238,68229,2,0,P|168:211|197:207,1,62.9999980773926,8|0,0:0|3:0,0:0:0:0:
253,217,68640,1,0,0:0:0:0:
169,106,69051,6,0,P|199:50|268:55,1,125.999996154785,0|0,3:0|0:0,0:0:0:0:
307,93,69667,1,0,3:0:0:0:
307,93,69873,2,0,P|361:102|451:126,1,125.999996154785,8|0,0:0|3:0,0:0:0:0:
340,225,70694,6,0,P|274:252|208:277,1,125.999996154785,0|0,0:0|0:0,0:0:0:0:
187,331,71311,1,0,0:0:0:0:
187,331,71516,2,0,P|134:322|108:305,1,62.9999980773926,8|0,0:0|0:0,0:0:0:0:
99,254,71927,1,0,3:0:0:0:
176,138,72338,6,0,P|147:93|69:78,2,125.999996154785,0|0|8,3:0|0:0|0:0,0:0:0:0:
192,205,73366,1,0,0:0:0:0:
192,205,73571,2,0,P|240:195|270:181,1,62.9999980773926,0|0,3:0|0:0,0:0:0:0:
267,121,73982,6,0,P|299:86|374:97,1,125.999996154785,0|0,3:0|0:0,0:0:0:0:
382,164,74599,1,0,0:0:0:0:
382,164,74804,2,0,P|360:198|351:221,1,62.9999980773926,8|0,0:0|0:0,0:0:0:0:
380,282,75215,1,0,0:0:0:0:
262,355,75626,6,0,P|241:300|208:226,2,125.999996154785,0|0|8,3:0|0:0|0:0,0:0:0:0:
331,358,76653,1,0,0:0:0:0:
331,358,76859,2,0,P|362:332|383:323,1,62.9999980773926,0|0,3:0|0:0,0:0:0:0:
446,297,77270,6,0,P|470:326|471:372,2,62.9999980773926,0|0|0,3:0|3:0|0:0,0:0:0:0:
401,243,77886,1,0,0:0:0:0:
401,243,78092,2,0,P|378:208|381:175,1,62.9999980773926,8|0,0:0|0:0,0:0:0:0:
415,129,78503,1,0,0:0:0:0:
284,82,78914,6,0,P|270:143|259:218,2,125.999996154785,0|0|8,3:0|0:0|0:0,0:0:0:0:
241,27,79941,1,0,0:0:0:0:
241,27,80146,2,0,P|182:33|152:91,1,125.999996154785,0|0,3:0|0:0,0:0:0:0:
20,130,80968,2,0,P|33:175|37:198,1,62.9999980773926,0|0,3:0|0:0,0:0:0:0:
91,232,81379,1,8,0:0:0:0:
91,232,81585,2,0,P|75:279|70:316,1,62.9999980773926,0|0,3:0|0:0,0:0:0:0:
201,343,82201,6,0,P|243:321|325:302,2,125.999996154785,0|0|8,3:0|0:0|0:0,0:0:0:0:
139,309,83229,1,0,0:0:0:0:
139,309,83434,2,0,P|125:271|123:233,1,62.9999980773926,0|0,3:0|0:0,0:0:0:0:
168,197,83845,1,0,0:0:0:0:
233,75,84256,2,0,P|265:57|311:51,1,62.9999980773926,0|0,0:0|0:0,0:0:0:0:
338,101,84667,2,0,P|377:123|386:153,1,62.9999980773926,8|0,0:0|0:0,0:0:0:0:
371,206,85078,1,0,3:0:0:0:
298,323,85489,6,0,P|333:347|419:369,2,125.999996154785,0|0|8,3:0|3:0|0:0,0:0:0:0:
268,259,86516,1,0,0:0:0:0:
268,259,86722,2,0,P|221:232|197:234,1,62.9999980773926,0|0,0:0|0:0,0:0:0:0:
145,245,87133,1,0,0:0:0:0:
61,355,87544,2,0,P|50:323|49:295,1,62.9999980773926,0|0,3:0|0:0,0:0:0:0:
8,237,87955,1,8,0:0:0:0:
8,237,88160,2,0,P|19:197|42:172,1,62.9999980773926,0|0,0:0|0:0,0:0:0:0:
130,82,88777,6,0,L|279:55,1,125.999996154785,0|0,3:0|0:0,0:0:0:0:
313,96,89393,1,0,3:0:0:0:
313,96,89599,2,0,P|347:133|347:162,1,62.9999980773926,8|0,0:0|0:0,0:0:0:0:
301,194,90010,2,0,P|297:237|310:261,1,62.9999980773926,0|0,3:0|0:0,0:0:0:0:
356,300,90420,1,0,0:0:0:0:
229,356,90831,1,0,0:0:0:0:
116,274,91242,2,0,P|99:315|103:346,2,62.9999980773926,8|0|0,0:0|0:0|0:0,0:0:0:0:
227,190,92064,1,4,0:0:0:0:
