osu file format v14

[General]
AudioFilename: audio.mp3
AudioLeadIn: 0
PreviewTime: 48380
Countdown: 0
SampleSet: Soft
StackLeniency: 0.4
Mode: 0
LetterboxInBreaks: 0
WidescreenStoryboard: 1

[Editor]
Bookmarks: 13160,26311,39462,52612,65763
DistanceSpacing: 1.1
BeatDivisor: 2
GridSize: 4
TimelineZoom: 1

[Metadata]
Title:Alarm (TroyBoi Remix) (Cut Ver.)
TitleUnicode:Alarm (TroyBoi Remix) (Cut Ver.)
Artist:Anne-Marie
ArtistUnicode:Anne-Marie
Creator:Sani_
Version:Normal (feat. Elinor)
Source:
Tags:electronic rap hiphop hip-hop english pop Dance beats remix hannody Wanpachi Cycopton tadahitotsu Elinor TroyBoi
BeatmapID:3008711
BeatmapSetID:1454221

[Difficulty]
HPDrainRate:3
CircleSize:3
OverallDifficulty:3
ApproachRate:4
SliderMultiplier:1
SliderTickRate:1

[Events]
//Background and Video events
0,0,"Normal.jpg",0,0
//Break Periods
//Storyboard Layer 0 (Background)
//Storyboard Layer 1 (Fail)
//Storyboard Layer 2 (Pass)
//Storyboard Layer 3 (Foreground)
//Storyboard Layer 4 (Overlay)
//Storyboard Sound Samples

[TimingPoints]
10,410.958904109589,4,2,1,80,1,0
13160,-100,4,2,1,80,0,0
26311,-100,4,2,1,80,0,0
39462,-100,4,2,1,80,0,0
52612,-100,4,2,33,100,0,1
52664,-100,4,2,3,80,0,1
58366,-100,4,2,1,80,0,1
59188,-100,4,2,3,80,0,1
64941,-100,4,2,1,80,0,1
65763,-100,4,2,1,80,0,0
66174,-100,4,2,2,80,0,0
92064,-100,4,2,32,100,0,0

[Colours]
Combo1 : 156,231,216
Combo2 : 255,164,255

[HitObjects]
320,132,13160,6,0,L|420:161,1,100,4|0,0:0|0:0,0:0:0:0:
464,260,13982,2,0,L|512:248,2,50,10|2|0,0:0|0:0|3:3,0:0:0:0:
384,332,14804,2,0,P|340:332|312:288,1,100,0|0,3:3|0:0,0:0:0:0:
228,216,15626,2,0,P|204:216|184:232,1,50,10|2,0:0|0:0,0:0:0:0:
152,276,16037,1,2,0:0:0:0:
48,312,16448,6,0,B|16:276|16:276|36:228,1,100,0|0,3:0|0:0,0:0:0:0:
68,124,17270,2,0,L|20:104,2,50,10|2|0,0:0|0:0|3:0,0:0:0:0:
168,168,18092,2,0,B|216:168|200:120|252:120,1,100,0|0,3:0|0:0,0:0:0:0:
332,196,18914,2,0,L|348:248,1,50,10|2,0:0|0:0,0:0:0:0:
364,296,19325,1,2,0:0:0:0:
464,344,19736,6,0,P|508:320|508:272,1,100,0|0,3:0|0:0,0:0:0:0:
468,172,20557,2,0,L|420:188,2,50,10|2|0,0:0|0:0|3:0,0:0:0:0:
508,68,21379,2,0,L|412:40,1,100,0|2,3:0|0:0,0:0:0:0:
304,24,22201,2,0,L|292:76,1,50,10|0,0:0|0:0,0:0:0:0:
280,128,22612,1,2,0:0:0:0:
260,236,23023,6,0,P|232:272|180:272,1,100,0|0,3:0|0:0,0:0:0:0:
112,188,23845,2,0,L|124:140,2,50,10|2|0,0:0|0:0|3:0,0:0:0:0:
24,252,24667,2,0,P|6:297|30:339,1,100,0|0,3:0|0:0,0:0:0:0:
140,356,25489,2,0,L|192:344,1,50,2|2,0:0|0:0,0:0:0:0:
240,364,25900,2,0,L|292:352,1,50,2|2,0:0|0:0,0:0:0:0:
324,312,26311,6,0,B|328:248|360:224|360:224|400:192|404:136,1,200,4|2,0:0|0:0,0:0:0:0:
344,52,27544,1,2,0:0:0:0:
268,124,27955,2,0,B|180:116|180:116|164:124|164:124|64:116,1,200,2|2,0:0|0:0,0:0:0:0:
16,344,29599,6,0,P|40:284|164:288,1,200,0|2,3:0|0:0,0:0:0:0:
256,340,30831,1,2,0:0:0:0:
264,232,31242,2,0,L|244:24,1,200,0|2,3:0|0:0,0:0:0:0:
480,4,32886,6,0,B|468:60|424:72|424:72|364:88|368:160,1,200,0|2,3:0|0:0,0:0:0:0:
428,236,34119,1,2,0:0:0:0:
384,328,34530,2,0,B|324:332|324:332|296:356|296:356|260:340|260:340|180:348,1,200,2|2,0:0|0:0,0:0:0:0:
40,210,36174,6,0,P|40:154|144:186,1,200,0|2,3:0|0:0,0:0:0:0:
120,278,37407,1,2,0:0:0:0:
196,346,37818,2,0,B|268:338|268:338|296:294|296:294|384:286,1,200,0|2,3:0|0:0,0:0:0:0:
370,92,39462,6,0,B|418:92|402:140|454:140,1,100,0|0,3:0|0:0,0:0:0:0:
495,180,40078,1,0,3:0:0:0:
495,180,40283,2,0,L|475:283,1,100,2|0,0:0|3:0,0:0:0:0:
379,238,41105,2,0,L|326:245,1,50,0|0,3:0|0:0,0:0:0:0:
278,253,41516,1,0,0:0:0:0:
205,182,41927,2,0,P|178:225|180:273,1,100,2|0,0:0|3:0,0:0:0:0:
190,369,42749,6,0,L|88:355,1,100,0|2,3:0|0:0,0:0:0:0:
46,318,43366,1,0,3:0:0:0:
46,318,43571,2,0,P|70:277|54:223,1,100,2|0,0:0|3:0,0:0:0:0:
11,133,44393,2,0,L|24:80,1,50,0|0,3:0|0:0,0:0:0:0:
37,28,44804,1,0,0:0:0:0:
124,88,45215,6,0,B|170:84|165:42|208:40,1,100,2|0,0:0|3:0,0:0:0:0:
258,10,45831,1,2,0:0:0:0:
258,10,46037,2,0,B|308:2|308:2|348:49,1,100,0|0,3:0|0:0,0:0:0:0:
437,97,46859,2,0,L|421:148,1,50,0|0,3:0|0:0,0:0:0:0:
376,187,47270,2,0,L|391:248,1,50,2|2,0:0|0:0,0:0:0:0:
430,274,47681,2,0,B|485:282|465:315|512:330,2,100,0|0|0,3:0|0:0|3:0,0:0:0:0:
349,341,48914,1,2,0:0:0:0:
257,289,49325,6,0,P|172:297|125:302,1,100,0|0,3:0|3:0,0:0:0:0:
90,218,50146,2,0,L|101:155,2,50,0|0|0,3:0|0:0|3:0,0:0:0:0:
21,294,50968,5,4,3:0:0:0:
21,294,52612,6,0,B|73:301|52:336|102:348,1,100,14|0,0:0|0:0,0:0:0:0:
159,323,53229,1,2,0:0:0:0:
159,323,53434,2,0,L|172:246,1,50,10|0,0:0|0:0,0:0:0:0:
212,230,53845,1,0,3:0:0:0:
314,182,54256,2,0,L|372:193,1,50,0|2,0:0|0:0,0:0:0:0:
412,153,54667,2,0,P|434:96|411:52,1,100,2|8,3:0|0:0,0:0:0:0:
320,12,55489,1,0,0:0:0:0:
229,84,55900,6,0,B|177:75|200:42|139:35,1,100,2|2,3:0|0:0,0:0:0:0:
87,69,56516,1,0,3:0:0:0:
87,69,56722,2,0,L|97:170,1,100,0|0,3:0|3:0,0:0:0:0:
40,257,57544,2,0,P|61:280|82:300,1,50,0|2,3:0|0:0,0:0:0:0:
137,285,57955,2,0,P|154:262|171:240,1,50,2|0,3:0|0:0,0:0:0:0:
227,245,58366,2,0,B|279:255|257:293|308:304,1,100,2|2,0:0|0:0,0:0:0:0:
415,254,59188,6,0,P|434:206|420:160,1,100,10|8,3:0|0:0,0:0:0:0:
367,128,59804,1,2,0:0:0:0:
367,128,60009,2,0,L|303:135,1,50,2|0,0:0|0:0,0:0:0:0:
279,186,60420,1,0,3:0:0:0:
196,116,60831,2,0,P|203:93|212:66,1,50,0|2,0:0|0:0,0:0:0:0:
170,19,61242,2,0,B|121:6|121:6|73:39,1,100,2|8,3:0|0:0,0:0:0:0:
64,144,62064,1,0,0:0:0:0:
148,214,62475,6,0,B|100:224|115:269|63:278,1,100,6|2,3:0|0:0,0:0:0:0:
40,328,63092,1,4,3:0:0:0:
40,328,63297,2,0,L|159:356,1,100,2|4,0:0|3:0,0:0:0:0:
235,293,64119,2,0,L|246:228,2,50,2|10|10,0:0|0:0|0:0,0:0:0:0:
323,362,64941,2,0,P|396:349|419:280,1,150,2|2,0:0|0:0,0:0:0:0:
392,236,65763,6,0,L|408:120,1,100,4|0,0:0|0:0,0:0:0:0:
344,48,66585,2,0,L|272:56,1,50,8|0,0:0|0:0,0:0:0:0:
244,88,66996,2,0,L|184:80,1,50,0|0,3:0|0:0,0:0:0:0:
152,36,67407,2,0,P|104:24|64:64,1,100,0|0,0:0|3:0,0:0:0:0:
84,160,68229,2,0,L|152:184,1,50,8|0,0:0|3:0,0:0:0:0:
184,196,68640,1,0,0:0:0:0:
236,292,69051,6,0,B|184:296|201:331|144:336,2,100,0|0|8,3:0|0:0|0:0,0:0:0:0:
336,344,70283,2,0,L|420:336,1,50,0|0,3:0|0:0,0:0:0:0:
440,304,70694,2,0,P|456:252|472:204,1,100,0|0,0:0|0:0,0:0:0:0:
428,104,71516,2,0,P|384:80|340:96,1,100,8|0,0:0|3:0,0:0:0:0:
256,152,72338,6,0,P|236:104|244:56,2,100,0|0|8,3:0|0:0|0:0,0:0:0:0:
208,244,73571,2,0,L|200:296,2,50,0|0|0,3:0|0:0|3:0,0:0:0:0:
140,168,74393,2,0,L|72:180,1,50,0|0,0:0|0:0,0:0:0:0:
36,148,74804,2,0,P|24:112|44:52,1,100,8|0,0:0|0:0,0:0:0:0:
140,4,75626,5,0,3:0:0:0:
240,56,76037,2,0,L|312:48,1,50,0|0,0:0|3:0,0:0:0:0:
344,24,76448,1,8,0:0:0:0:
432,88,76859,1,0,3:0:0:0:
368,168,77270,2,0,P|360:192|356:216,2,50,0|0|0,3:0|3:0|0:0,0:0:0:0:
460,216,78092,2,0,P|468:268|472:328,1,100,8|0,0:0|0:0,0:0:0:0:
380,368,78914,6,0,B|328:356|352:320|296:308,1,100,0|0,3:0|0:0,0:0:0:0:
232,236,79736,2,0,P|224:204|216:184,1,50,8|0,0:0|0:0,0:0:0:0:
168,156,80146,2,0,P|144:168|116:184,1,50,0|0,3:0|0:0,0:0:0:0:
68,172,80557,2,0,P|60:128|52:72,1,100,0|0,0:0|3:0,0:0:0:0:
140,8,81379,2,0,L|200:20,1,50,8|0,0:0|3:0,0:0:0:0:
248,28,81790,1,0,0:0:0:0:
336,88,82201,6,0,P|396:76|440:68,2,100,0|0|8,3:0|0:0|0:0,0:0:0:0:
284,176,83434,2,0,L|292:240,1,50,0|0,3:0|0:0,0:0:0:0:
336,268,83845,2,0,B|384:272|380:308|424:316,1,100,0|0,0:0|0:0,0:0:0:0:
496,244,84667,2,0,L|504:140,1,100,8|0,0:0|3:0,0:0:0:0:
434,69,85489,6,0,P|385:78|336:88,2,100,0|0|8,3:0|3:0|0:0,0:0:0:0:
503,144,86722,2,0,L|496:212,2,50,0|0|0,0:0|0:0|0:0,0:0:0:0:
434,69,87544,2,0,L|366:81,1,50,0|0,3:0|0:0,0:0:0:0:
348,128,87955,2,0,B|288:120|316:92|256:80,1,100,8|0,0:0|0:0,0:0:0:0:
184,148,88777,5,0,3:0:0:0:
136,236,89188,2,0,L|72:240,1,50,0|0,0:0|3:0,0:0:0:0:
40,200,89599,2,0,L|32:100,1,100,8|0,0:0|3:0,0:0:0:0:
88,16,90420,2,0,P|120:16|144:28,1,50,0|0,0:0|0:0,0:0:0:0:
172,72,90831,2,0,P|192:92|224:104,1,50,0|0,0:0|0:0,0:0:0:0:
262,81,91242,2,0,P|282:49|350:37,1,100,8|0,0:0|0:0,0:0:0:0:
448,0,92064,5,4,0:0:0:0:
