osu file format v14

[General]
AudioFilename: audio.mp3
AudioLeadIn: 0
PreviewTime: 55105
Countdown: 0
SampleSet: Soft
StackLeniency: 0.7
Mode: 0
LetterboxInBreaks: 0
WidescreenStoryboard: 1

[Editor]
DistanceSpacing: 1
BeatDivisor: 4
GridSize: 4
TimelineZoom: 1.6

[Metadata]
Title:Crossing Destiny
TitleUnicode:Crossing Destiny
Artist:Anne (CV: Hikasa Youko), Grea (CV: Fukuhara Ayaka)
ArtistUnicode:アン (CV: 日笠陽子), グレア (CV: 福原綾香)
Creator:Armada
Version:Normal
Source:神撃のバハムート
Tags:shingeki no bahamut rage of bahamut manaria friends マナリアフレンズ mysteria friends マナリア学院 manaria gakuin academy anime プリンセスコネクト!Re:Dive Princess Connect! Re:Dive プリコネR プリコネ Re Dive princess connect priconne cygames video game japanese j pop jpop j-pop female vocals yoko 宮崎誠 Makoto Miyazaki クロッシングディスティニー
BeatmapID:3541995
BeatmapSetID:1732895

[Difficulty]
HPDrainRate:3
CircleSize:3
OverallDifficulty:4.5
ApproachRate:5
SliderMultiplier:0.999999999999999
SliderTickRate:1

[Events]
//Background and Video events
0,0,"bg.jpg",0,0
//Break Periods
2,23293,29982
//Storyboard Layer 0 (Background)
//Storyboard Layer 1 (Fail)
//Storyboard Layer 2 (Pass)
//Storyboard Layer 3 (Foreground)
//Storyboard Layer 4 (Overlay)
//Storyboard Sound Samples

[TimingPoints]
1520,337.078651685393,4,2,1,40,1,0
1520,-111.111111111111,4,2,1,40,0,0
2868,-111.111111111111,4,2,1,40,0,0
4216,-111.111111111111,4,2,1,40,0,0
8261,-111.111111111111,4,2,1,40,0,0
9609,-100,4,2,1,50,0,0
10284,-100,4,2,1,55,0,0
10958,-100,4,2,1,65,0,0
12306,-100,4,2,1,60,0,0
12559,-100,4,2,1,5,0,0
12643,-100,4,2,1,70,0,0
17952,-100,4,2,1,5,0,0
18036,-100,4,2,1,70,0,0
21828,-100,4,2,1,5,0,0
21913,-100,4,2,1,70,0,0
22587,-100,4,2,1,75,0,0
23767,-100,4,2,1,40,0,0
24694,-100,4,2,1,5,0,0
24778,-100,4,2,1,40,0,0
33879,-100,4,2,1,40,0,0
34806,-100,4,2,1,5,0,0
34890,-100,4,2,1,40,0,0
35480,-100,4,2,1,5,0,0
35564,-100,4,2,1,40,0,0
39272,-100,4,2,1,45,0,0
43233,-100,4,2,1,5,0,0
43317,-100,4,2,1,50,0,0
44666,-100,4,2,1,55,0,0
49722,-100,4,2,1,70,0,0
49975,-100,4,2,1,5,0,0
50059,-100,4,2,1,70,0,0
55105,-100,4,2,1,70,0,0
55115,-100,4,2,1,50,0,0
55452,-100,4,2,1,80,0,1
55705,-100,4,2,1,5,0,1
55789,-100,4,2,1,80,0,1
56379,-100,4,2,1,5,0,1
56463,-100,4,2,1,80,0,1
57053,-100,4,2,1,5,0,1
57137,-100,4,2,1,80,0,1
58402,-100,4,2,1,5,0,1
58486,-100,4,2,1,80,0,1
59076,-100,4,2,1,5,0,1
59160,-100,4,2,1,80,0,1
61098,-100,4,2,1,5,0,1
61182,-100,4,2,1,80,0,1
61772,-100,4,2,1,5,0,1
61857,-100,4,2,1,80,0,1
66239,-100,4,2,1,80,0,0
71632,-100,4,2,1,80,0,1
71885,-100,4,2,1,5,0,1
71969,-100,4,2,1,80,0,1
75677,-100,4,2,1,80,0,1
77025,-100,4,2,1,70,0,0
77278,-100,4,2,1,5,0,0
77362,-100,4,2,1,70,0,0
82671,-100,4,2,1,5,0,0
82755,-100,4,2,1,70,0,0
86295,-100,4,2,1,70,0,0
86632,-100,4,2,1,75,0,0
89160,-100,4,2,1,5,0,0

[Colours]
Combo1 : 255,169,91
Combo2 : 100,163,170
Combo3 : 84,141,188
Combo4 : 255,220,98

[HitObjects]
468,332,1520,6,0,P|422:342|369:326,1,89.999997253418,2|2,0:0|0:0,0:0:0:0:
317,269,2194,2,0,P|273:260|222:275,1,89.999997253418,2|2,0:0|0:0,0:0:0:0:
161,329,2868,1,2,0:0:0:0:
51,126,3879,6,0,L|42:76,1,44.999998626709,2|0,0:0|0:0,0:0:0:0:
65,42,4216,2,0,P|107:30|165:45,1,89.999997253418,2|2,0:0|0:0,0:0:0:0:
228,85,4890,2,0,P|218:137|209:187,1,89.999997253418,2|2,0:0|0:0,0:0:0:0:
264,247,5564,2,0,P|346:281|429:244,1,179.999994506836,2|2,0:0|0:0,0:0:0:0:
387,71,6913,6,0,P|346:60|286:77,1,89.999997253418,2|2,0:0|0:0,0:0:0:0:
239,135,7587,2,0,L|256:243,1,89.999997253418,2|2,0:0|0:0,0:0:0:0:
210,303,8261,2,0,P|168:314|124:305,1,89.999997253418,2|2,0:0|0:0,0:0:0:0:
87,279,8767,2,0,L|105:175,1,89.999997253418,2|2,0:0|0:0,0:0:0:0:
63,167,9272,2,0,L|56:119,1,44.999998626709,2|2,0:0|0:0,0:0:0:0:
50,72,9609,6,0,B|107:2|186:23|186:23|230:51|254:91|254:91|230:127|186:151|186:151|162:118|148:107,1,400,6|0,1:2|1:2,0:0:0:0:
148,107,12306,6,0,P|157:156|166:205,1,99.9999999999999,6|10,1:2|0:0,0:0:0:0:
176,254,12812,2,0,P|200:250|225:246,1,50,2|2,0:0|1:2,0:0:0:0:
274,237,13149,1,2,1:2:0:0:
329,153,13486,2,0,P|376:142|432:159,1,99.9999999999999,2|2,1:2|1:2,0:0:0:0:
464,195,13991,1,10,0:0:0:0:
464,195,14160,2,0,L|441:324,1,99.9999999999999,2|0,1:2|1:2,0:0:0:0:
435,342,14666,1,8,0:0:0:0:
342,305,15003,6,0,P|294:328|236:322,1,99.9999999999999,2|8,1:2|0:0,0:0:0:0:
207,297,15508,1,2,0:0:0:0:
118,343,15845,2,0,L|60:332,1,50,2|8,1:2|0:0,0:0:0:0:
22,313,16182,2,0,B|6:266|6:266|20:217,1,99.9999999999999,6|2,1:2|1:2,0:0:0:0:
33,169,16688,2,0,L|91:180,1,50,10|2,0:0|0:0,0:0:0:0:
116,215,17025,2,0,L|177:205,1,50,2|10,3:2|0:0,0:0:0:0:
213,194,17362,1,10,0:0:0:0:
311,175,17699,6,0,L|290:60,1,99.9999999999999,6|8,1:2|0:0,0:0:0:0:
283,28,18205,2,0,L|357:15,1,50,2|0,0:0|1:2,0:0:0:0:
381,10,18542,1,2,1:2:0:0:
471,51,18879,2,0,L|452:158,1,99.9999999999999,6|2,1:2|1:2,0:0:0:0:
414,180,19385,1,10,0:0:0:0:
414,180,19553,2,0,L|432:287,1,99.9999999999999,2|0,1:2|1:2,0:0:0:0:
443,327,20059,1,8,0:0:0:0:
358,380,20396,6,0,P|308:371|259:362,1,99.9999999999999,2|8,1:2|0:0,0:0:0:0:
205,287,21070,1,0,1:2:0:0:
205,287,21239,2,0,L|147:297,1,50,2|10,1:2|0:0,0:0:0:0:
106,304,21576,2,0,P|95:254|82:186,1,99.9999999999999,6|8,1:2|0:0,0:0:0:0:
44,178,22081,2,0,L|52:129,1,50,8|10,0:0|0:0,0:0:0:0:
62,79,22418,2,0,L|111:70,1,50,10|10,0:0|0:0,0:0:0:0:
140,29,22755,2,0,L|189:37,1,50,10|8,0:0|0:0,0:0:0:0:
237,50,23093,5,2,0:0:0:0:
256,192,31182,12,2,33205,0:0:0:0:
457,33,33879,6,0,B|473:80|473:80|458:128,1,99.9999999999999,4|0,1:2|1:2,0:0:0:0:
390,201,34553,1,2,1:2:0:0:
460,272,34890,1,2,1:2:0:0:
391,345,35227,2,0,P|337:345|298:321,1,99.9999999999999,2|2,1:2|1:2,0:0:0:0:
245,237,35902,2,0,P|254:187|264:138,1,99.9999999999999,2|2,1:2|1:2,0:0:0:0:
218,49,36576,6,0,P|175:24|125:26,1,99.9999999999999,2|2,1:2|1:2,0:0:0:0:
84,53,37081,2,0,P|59:95|61:145,1,99.9999999999999,2|0,0:0|0:0,0:0:0:0:
90,186,37587,1,2,1:2:0:0:
90,186,37755,1,2,0:0:0:0:
147,268,38093,2,0,P|196:253|242:265,1,99.9999999999999,2|0,0:0|0:0,0:0:0:0:
325,319,38767,1,2,0:0:0:0:
414,270,39104,1,2,0:0:0:0:
414,270,39272,6,0,P|406:222|396:166,1,99.9999999999999,6|2,1:2|1:2,0:0:0:0:
350,153,39778,2,0,P|359:103|369:42,1,99.9999999999999,2|0,0:0|0:0,0:0:0:0:
334,24,40284,1,2,1:2:0:0:
334,24,40452,2,0,B|262:48|272:-22|167:12,1,150,2|2,0:0|1:2,0:0:0:0:
108,64,41295,1,2,1:2:0:0:
191,118,41632,1,2,1:2:0:0:
113,180,41969,6,0,P|120:230|132:299,2,99.9999999999999,2|0|0,1:2|1:2|1:2,0:0:0:0:
191,118,42980,1,2,1:2:0:0:
278,176,43317,1,2,1:2:0:0:
278,176,43486,2,0,P|320:151|370:153,1,99.9999999999999,2|0,0:0|0:0,0:0:0:0:
413,179,43991,2,0,P|437:221|435:271,1,99.9999999999999,0|0,1:2|1:2,0:0:0:0:
380,356,44666,5,6,1:2:0:0:
380,356,44834,1,2,1:2:0:0:
229,357,45340,2,0,L|207:239,1,99.9999999999999,10|2,0:0|0:0,0:0:0:0:
203,209,45845,1,0,1:2:0:0:
132,146,46182,1,0,1:2:0:0:
132,146,46351,2,0,L|153:41,1,99.9999999999999,2|10,1:2|0:0,0:0:0:0:
244,11,47025,1,2,0:0:0:0:
337,60,47362,5,2,1:2:0:0:
337,60,47531,2,0,L|349:125,1,50,0|2,1:2|0:0,0:0:0:0:
358,162,47868,1,0,0:0:0:0:
358,162,48036,2,0,L|251:184,1,99.9999999999999,10|2,0:0|0:0,0:0:0:0:
210,190,48542,1,2,1:2:0:0:
166,100,48879,2,0,L|176:40,2,50,2|2|2,1:2|1:2|0:0,0:0:0:0:
128,133,49385,2,0,B|80:120|80:120|32:135,1,99.9999999999999,8|14,0:0|0:0,0:0:0:0:
6,179,49890,1,2,0:0:0:0:
6,179,50059,6,0,P|14:228|24:289,1,99.9999999999999,6|10,1:2|0:0,0:0:0:0:
34,326,50564,1,2,0:0:0:0:
129,358,50902,2,0,P|171:333|221:335,1,99.9999999999999,2|2,1:2|0:0,0:0:0:0:
262,361,51407,1,2,1:2:0:0:
357,323,51744,1,10,0:0:0:0:
357,323,51913,2,0,P|365:273|375:212,1,99.9999999999999,2|2,0:0|1:2,0:0:0:0:
381,175,52418,1,8,0:0:0:0:
312,99,52755,6,0,P|269:123|219:121,1,99.9999999999999,6|10,1:2|0:0,0:0:0:0:
179,90,53261,2,0,P|129:88|86:112,1,99.9999999999999,2|2,0:0|1:2,0:0:0:0:
60,154,53767,1,8,0:0:0:0:
109,240,54104,2,0,L|95:311,1,50,10|8,0:0|0:0,0:0:0:0:
229,363,54778,2,0,L|215:291,1,50,8|8,0:0|0:0,0:0:0:0:
319,201,55452,6,0,B|369:215|369:215|415:199,1,99.9999999999999,6|10,1:2|0:0,0:0:0:0:
510,175,56126,2,0,L|498:114,1,50,2|0,1:2|0:0,0:0:0:0:
457,99,56463,2,0,L|468:38,1,50,10|0,0:0|0:0,0:0:0:0:
435,10,56800,2,0,P|387:21|333:6,1,99.9999999999999,2|8,1:2|0:0,0:0:0:0:
265,78,57475,1,0,1:2:0:0:
336,148,57812,2,0,L|328:197,1,50,10|2,0:0|0:0,0:0:0:0:
320,246,58149,5,2,1:2:0:0:
246,313,58486,1,10,0:0:0:0:
175,241,58823,2,0,L|109:254,1,50,2|0,1:2|0:0,0:0:0:0:
103,295,59160,2,0,L|37:282,1,50,10|0,0:0|0:0,0:0:0:0:
4,276,59497,2,0,P|13:227|23:166,1,99.9999999999999,2|8,1:2|0:0,0:0:0:0:
34,132,60003,1,2,0:0:0:0:
34,132,60171,1,2,1:2:0:0:
107,64,60508,1,8,0:0:0:0:
183,131,60845,6,0,B|234:145|234:145|283:131,1,99.9999999999999,6|10,1:2|0:2,0:0:0:0:
353,64,61519,2,0,L|411:74,1,50,2|0,1:2|0:0,0:0:0:0:
451,83,61857,1,10,0:0:0:0:
512,163,62194,2,0,P|513:215|488:257,1,99.9999999999999,2|10,1:2|0:0,0:0:0:0:
447,283,62699,2,0,L|388:272,1,50,2|0,0:0|1:2,0:0:0:0:
348,265,63036,1,2,0:2:0:0:
296,185,63373,1,2,0:0:0:0:
296,185,63542,6,0,P|245:175|184:205,1,99.9999999999999,2|8,1:2|0:0,0:0:0:0:
174,234,64048,1,2,0:0:0:0:
174,234,64216,2,0,P|123:244|62:214,1,99.9999999999999,2|8,1:2|0:0,0:0:0:0:
50,193,64722,1,2,0:0:0:0:
50,193,64890,2,0,P|59:143|68:94,1,99.9999999999999,2|10,1:2|0:0,0:0:0:0:
141,26,65564,1,0,1:2:0:0:
212,96,65902,2,0,L|225:170,1,50,10|8,0:0|0:0,0:0:0:0:
236,193,66239,6,0,P|283:179|330:194,1,99.9999999999999,6|8,1:2|0:0,0:0:0:0:
356,237,66744,2,0,P|403:250|450:235,1,99.9999999999999,6|8,1:2|0:0,0:0:0:0:
492,207,67250,2,0,P|518:139|472:61,1,150,6|0,1:2|1:2,0:0:0:0:
452,36,67924,2,0,L|391:46,1,50,10|2,0:0|0:0,0:0:0:0:
385,91,68261,2,0,L|324:80,1,50,10|0,0:0|1:2,0:0:0:0:
289,63,68598,1,10,0:0:0:0:
200,109,68935,6,0,P|185:156|197:204,1,99.9999999999999,6|8,1:2|0:0,0:0:0:0:
242,224,69441,2,0,P|256:270|244:318,1,99.9999999999999,6|0,1:2|0:0,0:0:0:0:
214,357,69946,2,0,P|161:347|100:342,1,99.9999999999999,6|8,1:2|0:0,0:0:0:0:
69,339,70452,1,8,0:0:0:0:
69,339,70621,1,2,1:2:0:0:
7,260,70958,1,10,0:0:0:0:
71,183,71295,1,10,0:0:0:0:
168,203,71632,6,0,B|182:157|182:157|167:108,1,99.9999999999999,6|8,1:2|0:0,0:0:0:0:
240,40,72306,1,0,1:2:0:0:
317,104,72643,2,0,L|376:94,1,50,10|2,0:0|0:0,0:0:0:0:
415,85,72980,2,0,P|423:135|432:184,1,99.9999999999999,2|10,1:2|0:0,0:0:0:0:
478,214,73486,1,2,0:0:0:0:
478,214,73654,2,0,L|456:333,1,99.9999999999999,2|8,1:2|0:0,0:0:0:0:
451,364,74160,1,2,0:0:0:0:
451,364,74328,6,0,P|403:357|349:347,1,99.9999999999999,2|10,1:2|0:0,0:0:0:0:
302,339,74834,1,2,0:0:0:0:
222,278,75171,2,0,B|163:289,1,50,2|8,1:2|0:0,0:0:0:0:
129,301,75508,1,2,0:0:0:0:
129,301,75677,1,6,1:2:0:0:
129,301,77025,6,0,B|115:252|115:252|129:205,1,99.9999999999999,6|8,1:2|0:0,0:0:0:0:
148,158,77531,2,0,P|172:162|197:166,1,50,2|0,0:0|1:2,0:0:0:0:
246,174,77868,1,2,1:2:0:0:
344,188,78205,2,0,P|353:138|361:89,1,99.9999999999999,2|2,1:2|1:2,0:0:0:0:
374,44,78710,1,10,0:0:0:0:
374,44,78879,2,0,L|276:27,1,99.9999999999999,2|0,1:2|1:2,0:0:0:0:
226,18,79385,1,8,0:0:0:0:
147,79,79722,6,0,P|97:65|46:82,1,99.9999999999999,2|8,1:2|0:0,0:0:0:0:
16,112,80227,1,2,0:0:0:0:
67,197,80564,2,0,L|56:255,1,50,2|8,1:2|0:0,0:0:0:0:
48,295,80901,2,0,P|98:303|147:312,1,99.9999999999999,6|2,1:2|1:2,0:0:0:0:
196,323,81407,2,0,L|207:265,1,50,10|10,0:0|0:0,0:0:0:0:
249,249,81744,2,0,L|239:188,1,50,2|10,3:2|0:0,0:0:0:0:
231,150,82081,1,10,0:0:0:0:
299,77,82418,6,0,P|349:66|404:83,1,99.9999999999999,6|8,1:2|0:0,0:0:0:0:
436,105,82924,2,0,L|424:180,1,50,2|0,0:0|1:2,0:0:0:0:
421,204,83261,1,2,1:2:0:0:
402,302,83598,2,0,P|349:290|299:282,1,99.9999999999999,6|2,1:2|1:2,0:0:0:0:
283,243,84104,1,10,0:0:0:0:
283,243,84272,2,0,P|231:252|179:264,1,99.9999999999999,2|2,0:2|1:2,0:0:0:0:
137,278,84778,1,8,0:0:0:0:
56,220,85115,6,0,P|62:171|68:120,1,99.9999999999999,6|8,1:2|0:0,0:0:0:0:
137,49,85789,1,8,0:0:0:0:
137,49,85958,2,0,L|200:58,1,50,2|8,1:2|0:0,0:0:0:0:
218,94,86295,2,0,P|267:84|316:74,1,99.9999999999999,6|8,1:2|0:0,0:0:0:0:
365,65,86800,2,0,L|373:114,1,50,8|8,0:0|0:0,0:0:0:0:
411,146,87137,2,0,L|402:195,1,50,2|10,1:2|0:0,0:0:0:0:
362,226,87474,2,0,L|370:275,1,50,2|8,1:2|0:0,0:0:0:0:
