osu file format v14

[General]
AudioFilename: audio.mp3
AudioLeadIn: 0
PreviewTime: 55105
Countdown: 0
SampleSet: Soft
StackLeniency: 0.7
Mode: 0
LetterboxInBreaks: 0
WidescreenStoryboard: 1

[Editor]
DistanceSpacing: 1
BeatDivisor: 4
GridSize: 4
TimelineZoom: 1.6

[Metadata]
Title:Crossing Destiny
TitleUnicode:Crossing Destiny
Artist:Anne (CV: Hikasa Youko), Grea (CV: Fukuhara Ayaka)
ArtistUnicode:アン (CV: 日笠陽子), グレア (CV: 福原綾香)
Creator:Armada
Version:Easy
Source:神撃のバハムート
Tags:shingeki no bahamut rage of bahamut manaria friends マナリアフレンズ mysteria friends マナリア学院 manaria gakuin academy anime プリンセスコネクト!Re:Dive Princess Connect! Re:Dive プリコネR プリコネ Re Dive princess connect priconne cygames video game japanese j pop jpop j-pop female vocals yoko 宮崎誠 Makoto Miyazaki クロッシングディスティニー
BeatmapID:3546301
BeatmapSetID:1732895

[Difficulty]
HPDrainRate:2
CircleSize:2
OverallDifficulty:2.5
ApproachRate:3
SliderMultiplier:0.899999999999999
SliderTickRate:1

[Events]
//Background and Video events
0,0,"bg.jpg",0,0
//Break Periods
2,23292,29742
//Storyboard Layer 0 (Background)
//Storyboard Layer 1 (Fail)
//Storyboard Layer 2 (Pass)
//Storyboard Layer 3 (Foreground)
//Storyboard Layer 4 (Overlay)
//Storyboard Sound Samples

[TimingPoints]
1520,337.078651685393,4,2,1,40,1,0
1520,-100,4,2,1,40,0,0
2868,-100,4,2,1,40,0,0
4216,-100,4,2,1,40,0,0
8261,-100,4,2,1,40,0,0
9609,-100,4,2,1,50,0,0
10284,-100,4,2,1,55,0,0
10958,-100,4,2,1,65,0,0
12306,-100,4,2,1,60,0,0
12559,-100,4,2,1,5,0,0
12643,-100,4,2,1,70,0,0
17952,-100,4,2,1,5,0,0
18036,-100,4,2,1,70,0,0
21828,-100,4,2,1,5,0,0
21913,-100,4,2,1,70,0,0
22587,-100,4,2,1,75,0,0
23767,-100,4,2,1,40,0,0
24694,-100,4,2,1,5,0,0
24778,-100,4,2,1,40,0,0
33879,-100,4,2,1,40,0,0
34806,-100,4,2,1,5,0,0
34890,-100,4,2,1,40,0,0
35480,-100,4,2,1,5,0,0
35564,-100,4,2,1,40,0,0
39272,-100,4,2,1,45,0,0
43233,-100,4,2,1,5,0,0
43317,-100,4,2,1,50,0,0
44666,-100,4,2,1,55,0,0
49722,-100,4,2,1,70,0,0
49975,-100,4,2,1,5,0,0
50059,-100,4,2,1,70,0,0
55105,-100,4,2,1,70,0,0
55115,-100,4,2,1,50,0,0
55452,-100,4,2,1,80,0,1
55705,-100,4,2,1,5,0,1
55789,-100,4,2,1,80,0,1
56379,-100,4,2,1,5,0,1
56463,-100,4,2,1,80,0,1
57053,-100,4,2,1,5,0,1
57137,-100,4,2,1,80,0,1
58402,-100,4,2,1,5,0,1
58486,-100,4,2,1,80,0,1
59076,-100,4,2,1,5,0,1
59160,-100,4,2,1,80,0,1
61098,-100,4,2,1,5,0,1
61182,-100,4,2,1,80,0,1
61772,-100,4,2,1,5,0,1
61857,-100,4,2,1,80,0,1
66239,-100,4,2,1,80,0,0
71632,-100,4,2,1,80,0,1
71885,-100,4,2,1,5,0,1
71969,-100,4,2,1,80,0,1
75677,-100,4,2,1,80,0,1
77025,-100,4,2,1,70,0,0
77278,-100,4,2,1,5,0,0
77362,-100,4,2,1,70,0,0
82671,-100,4,2,1,5,0,0
82755,-100,4,2,1,70,0,0
86295,-100,4,2,1,70,0,0
86632,-100,4,2,1,75,0,0
89160,-100,4,2,1,5,0,0

[Colours]
Combo1 : 255,169,91
Combo2 : 100,163,170
Combo3 : 84,141,188
Combo4 : 255,220,98

[HitObjects]
448,103,1520,6,0,P|455:147|465:201,1,89.9999999999999,2|2,0:0|0:0,0:0:0:0:
418,269,2194,2,0,P|374:259|330:267,1,89.9999999999999,2|2,0:0|0:0,0:0:0:0:
255,316,2868,1,2,0:0:0:0:
35,32,4216,6,0,P|42:76|52:130,1,89.9999999999999,2|2,0:0|0:0,0:0:0:0:
111,186,4890,2,0,P|155:196|199:188,1,89.9999999999999,2|2,0:0|0:0,0:0:0:0:
256,119,5564,2,0,P|345:98|444:129,1,180,2|2,0:0|0:0,0:0:0:0:
382,294,6913,6,0,P|338:284|294:292,1,89.9999999999999,2|2,0:0|0:0,0:0:0:0:
230,355,7587,2,0,P|186:363|142:353,1,89.9999999999999,2|2,0:0|0:0,0:0:0:0:
65,307,8261,2,0,L|41:162,1,135,2|2,0:0|0:0,0:0:0:0:
27,84,9104,1,2,0:0:0:0:
152,37,9609,6,0,B|247:23|317:107|317:107|381:27|485:35,1,360,6|0,1:2|1:2,0:0:0:0:
466,35,12306,6,0,L|488:171,1,135,6|2,1:2|0:0,0:0:0:0:
495,258,13149,1,2,1:2:0:0:
409,286,13486,2,0,P|341:307|271:275,1,135,2|10,1:2|0:0,0:0:0:0:
215,227,14328,2,0,L|232:127,1,89.9999999999999,0|8,1:2|0:0,0:0:0:0:
198,53,15003,6,0,P|136:33|61:63,1,135,2|2,1:2|0:0,0:0:0:0:
14,123,15845,1,2,1:2:0:0:
71,193,16182,2,0,P|51:255|81:330,1,135,6|10,1:2|0:0,0:0:0:0:
143,374,17025,1,2,3:2:0:0:
216,322,17362,1,10,0:0:0:0:
289,374,17699,6,0,B|363:386|349:329|435:346,1,135,6|2,1:2|0:0,0:0:0:0:
467,268,18542,1,2,1:2:0:0:
416,193,18879,2,0,P|355:170|285:204,1,135,6|10,1:2|0:0,0:0:0:0:
241,268,19722,2,0,P|197:278|154:267,1,89.9999999999999,0|8,1:2|0:0,0:0:0:0:
94,200,20396,2,0,L|-6:217,2,89.9999999999999,2|8|0,1:2|0:0|1:2,0:0:0:0:
167,86,21576,6,0,B|250:22|334:103|334:103|246:202|335:313,1,404.999999999999,6|2,1:2|0:0,0:0:0:0:
256,192,31182,12,2,32531,0:0:0:0:
120,265,33879,6,0,P|165:276|221:260,1,89.9999999999999,4|0,1:2|1:2,0:0:0:0:
282,218,34553,1,2,1:2:0:0:
354,271,34890,2,0,P|361:311|371:366,2,89.9999999999999,2|2|2,1:2|1:2|1:2,0:0:0:0:
424,214,35902,2,0,P|430:169|441:115,1,89.9999999999999,2|2,1:2|1:2,0:0:0:0:
392,48,36576,6,0,P|348:37|305:49,1,89.9999999999999,2|2,1:2|1:2,0:0:0:0:
252,121,37250,2,0,P|208:131|165:119,1,89.9999999999999,0|2,1:2|1:2,0:0:0:0:
93,66,37924,1,0,1:2:0:0:
32,132,38261,2,0,B|-2:223|80:216|51:304,1,180,0|0,1:2|1:2,0:0:0:0:
122,359,39272,6,0,P|192:344|264:334,1,135,6|2,1:2|0:0,0:0:0:0:
358,248,40284,1,2,1:2:0:0:
292,185,40621,2,0,P|301:137|286:86,1,89.9999999999999,0|2,1:2|1:2,0:0:0:0:
236,26,41295,2,0,P|193:38|136:17,1,89.9999999999999,2|2,1:2|1:2,0:0:0:0:
66,59,41969,2,0,P|28:143|69:224,1,180,2|0,1:2|1:2,0:0:0:0:
132,273,42980,1,2,1:2:0:0:
206,222,43317,2,0,P|255:233|300:222,1,89.9999999999999,2|0,1:2|1:2,0:0:0:0:
350,155,43991,2,0,P|399:144|444:155,1,89.9999999999999,0|0,1:2|1:2,0:0:0:0:
495,221,44666,1,6,1:2:0:0:
388,366,45340,5,10,0:0:0:0:
314,314,45677,1,2,0:0:0:0:
231,350,46014,2,0,P|143:351|101:262,1,180,2|10,1:2|0:0,0:0:0:0:
119,191,47025,1,2,0:0:0:0:
194,143,47362,6,0,B|292:130|271:190|372:172,1,180,2|10,1:2|0:0,0:0:0:0:
403,90,48373,1,2,0:0:0:0:
370,5,48711,2,0,B|271:-8|292:52|191:34,1,180,2|8,0:0|0:0,0:0:0:0:
112,67,49722,1,14,0:0:0:0:
31,107,50059,6,0,L|49:245,1,135,6|2,1:2|0:0,0:0:0:0:
101,314,50902,1,2,1:2:0:0:
179,270,51239,2,0,B|258:251|243:298|320:279,1,135,2|10,0:0|0:0,0:0:0:0:
373,216,52081,1,0,1:2:0:0:
313,148,52418,1,8,0:0:0:0:
378,85,52755,2,0,P|443:66|507:86,2,135,6|2|8,1:2|0:0|0:0,0:0:0:0:
313,148,54104,1,10,0:0:0:0:
464,245,54778,1,8,0:0:0:0:
318,351,55452,6,0,P|275:359|230:349,1,89.9999999999999,6|10,1:2|0:0,0:0:0:0:
164,287,56126,1,2,1:2:0:0:
94,343,56463,1,10,0:0:0:0:
21,289,56800,2,0,B|-7:189|65:208|31:104,1,180,2|0,1:2|1:2,0:0:0:0:
99,52,57812,1,10,0:0:0:0:
174,101,58149,6,0,P|216:108|261:98,1,89.9999999999999,2|10,1:2|0:0,0:0:0:0:
335,46,58823,2,0,P|378:38|423:48,1,89.9999999999999,2|10,1:2|0:0,0:0:0:0:
496,99,59497,2,0,P|491:142|475:294,1,180,2|2,1:2|1:2,0:0:0:0:
296,275,60845,6,0,L|284:169,1,89.9999999999999,6|10,1:2|0:2,0:0:0:0:
276,96,61519,1,2,1:2:0:0:
203,42,61857,1,10,0:0:0:0:
129,92,62194,2,0,P|70:73|-8:102,2,135,2|2|8,1:2|0:0|0:0,0:0:0:0:
159,176,63542,6,0,B|246:206|241:124|350:168,1,180,2|2,1:2|1:2,0:0:0:0:
419,184,64553,1,8,0:0:0:0:
501,219,64890,2,0,P|511:260|496:313,1,89.9999999999999,2|10,1:2|0:0,0:0:0:0:
419,346,65564,1,0,1:2:0:0:
340,300,65902,1,10,0:0:0:0:
262,345,66239,6,0,P|193:361|119:325,2,135,6|6|6,1:2|1:2|1:2,0:0:0:0:
372,202,67924,1,10,0:0:0:0:
304,142,68261,1,10,0:0:0:0:
369,80,68598,1,10,0:0:0:0:
307,16,68935,6,0,P|238:0|164:36,2,135,6|6|6,1:2|1:2|1:2,0:0:0:0:
433,143,70621,1,2,1:2:0:0:
368,208,70958,1,10,0:0:0:0:
433,272,71295,1,10,0:0:0:0:
362,332,71632,6,0,B|275:302|280:384|171:340,1,180,6|0,1:2|1:2,0:0:0:0:
105,312,72643,1,10,0:0:0:0:
23,274,72980,2,0,L|41:176,1,89.9999999999999,2|10,1:2|0:0,0:0:0:0:
112,133,73654,2,0,P|156:144|199:134,1,89.9999999999999,2|8,1:2|0:0,0:0:0:0:
273,184,74328,2,0,L|289:273,2,89.9999999999999,2|10|0,1:2|0:0|1:2,0:0:0:0:
342,125,75340,1,8,0:0:0:0:
411,67,75677,1,6,1:2:0:0:
411,67,77025,6,0,L|433:203,1,135,6|2,1:2|0:0,0:0:0:0:
460,285,77868,1,2,1:2:0:0:
381,329,78205,2,0,P|313:350|243:318,1,135,2|10,1:2|0:0,0:0:0:0:
201,256,79048,2,0,L|218:156,1,89.9999999999999,0|8,1:2|0:0,0:0:0:0:
189,81,79722,6,0,P|132:60|57:91,1,135,2|2,1:2|0:0,0:0:0:0:
13,158,80564,1,2,1:2:0:0:
63,232,80902,2,0,P|127:256|200:222,1,135,6|10,1:2|0:0,0:0:0:0:
239,161,81744,1,2,3:2:0:0:
189,81,82081,1,10,0:0:0:0:
246,12,82418,6,0,B|320:0|306:57|392:40,1,135,6|2,1:2|0:0,0:0:0:0:
447,93,83261,1,2,1:2:0:0:
386,159,83598,2,0,L|411:292,1,135,6|10,1:2|0:0,0:0:0:0:
347,356,84441,2,0,P|303:366|260:355,1,89.9999999999999,0|8,1:2|0:0,0:0:0:0:
184,308,85115,2,0,L|84:325,2,89.9999999999999,6|8|8,1:2|0:0|0:0,0:0:0:0:
300,238,86295,6,0,B|364:137|275:41|275:41|169:63|185:174,1,382.5,6|8,1:2|0:0,0:0:0:0:
