osu file format v14

[General]
AudioFilename: audio.mp3
AudioLeadIn: 0
PreviewTime: 55105
Countdown: 0
SampleSet: Soft
StackLeniency: 0.3
Mode: 0
LetterboxInBreaks: 0
WidescreenStoryboard: 0

[Editor]
DistanceSpacing: 1
BeatDivisor: 4
GridSize: 4
TimelineZoom: 1.6

[Metadata]
Title:Crossing Destiny
TitleUnicode:Crossing Destiny
Artist:Anne (CV: Hikasa Youko), Grea (CV: Fukuhara Ayaka)
ArtistUnicode:アン (CV: 日笠陽子), グレア (CV: 福原綾香)
Creator:Armada
Version:Destiny
Source:神撃のバハムート
Tags:shingeki no bahamut rage of bahamut manaria friends マナリアフレンズ mysteria friends マナリア学院 manaria gakuin academy anime プリンセスコネクト!Re:Dive Princess Connect! Re:Dive プリコネR プリコネ Re Dive princess connect priconne cygames video game japanese j pop jpop j-pop female vocals yoko 宮崎誠 Makoto Miyazaki クロッシングディスティニー
BeatmapID:3541991
BeatmapSetID:1732895

[Difficulty]
HPDrainRate:5.5
CircleSize:4.5
OverallDifficulty:8
ApproachRate:9.2
SliderMultiplier:1.8
SliderTickRate:1

[Events]
//Background and Video events
0,0,"bg.jpg",0,0
//Break Periods
//Storyboard Layer 0 (Background)
//Storyboard Layer 1 (Fail)
//Storyboard Layer 2 (Pass)
//Storyboard Layer 3 (Foreground)
//Storyboard Layer 4 (Overlay)
//Storyboard Sound Samples

[TimingPoints]
1520,337.078651685393,4,2,1,40,1,0
1520,-200,4,2,1,40,0,0
2868,-333.333333333333,4,2,1,40,0,0
4216,-200,4,2,1,40,0,0
8261,-166.666666666667,4,2,1,40,0,0
9609,-100,4,2,1,50,0,0
10284,-100,4,2,1,55,0,0
10621,-100,4,2,1,55,0,0
10958,-100,4,2,1,65,0,0
12306,-100,4,2,1,60,0,0
12559,-100,4,2,1,5,0,0
12643,-100,4,2,1,70,0,0
17952,-100,4,2,1,5,0,0
18036,-100,4,2,1,70,0,0
21828,-100,4,2,1,5,0,0
21913,-100,4,2,1,70,0,0
22587,-100,4,2,1,75,0,0
23767,-125,4,2,1,40,0,0
24694,-125,4,2,1,5,0,0
24778,-125,4,2,1,40,0,0
33879,-117.647058823529,4,2,1,40,0,0
34806,-117.647058823529,4,2,1,5,0,0
34890,-117.647058823529,4,2,1,40,0,0
35480,-117.647058823529,4,2,1,5,0,0
35564,-117.647058823529,4,2,1,40,0,0
39272,-111.111111111111,4,2,1,45,0,0
43233,-111.111111111111,4,2,1,5,0,0
43317,-111.111111111111,4,2,1,50,0,0
44666,-111.111111111111,4,2,1,55,0,0
49722,-83.3333333333333,4,2,1,70,0,0
49975,-83.3333333333333,4,2,1,5,0,0
50059,-100,4,2,1,70,0,0
55115,-100,4,2,1,50,0,0
55452,-86.9565217391304,4,2,1,80,0,1
55705,-86.9565217391304,4,2,1,5,0,1
55789,-86.9565217391304,4,2,1,80,0,1
56379,-86.9565217391304,4,2,1,5,0,1
56463,-86.9565217391304,4,2,1,80,0,1
57053,-86.9565217391304,4,2,1,5,0,1
57137,-86.9565217391304,4,2,1,80,0,1
58402,-86.9565217391304,4,2,1,5,0,1
58486,-86.9565217391304,4,2,1,80,0,1
59076,-86.9565217391304,4,2,1,5,0,1
59160,-86.9565217391304,4,2,1,80,0,1
61098,-86.9565217391304,4,2,1,5,0,1
61182,-86.9565217391304,4,2,1,80,0,1
61772,-86.9565217391304,4,2,1,5,0,1
61857,-86.9565217391304,4,2,1,80,0,1
66239,-86.9565217391304,4,2,1,80,0,0
71632,-86.9565217391304,4,2,1,80,0,1
71885,-86.9565217391304,4,2,1,5,0,1
71969,-86.9565217391304,4,2,1,80,0,1
75677,-86.9565217391304,4,2,1,80,0,0
77025,-100,4,2,1,70,0,0
77278,-100,4,2,1,5,0,0
77362,-100,4,2,1,70,0,0
82671,-100,4,2,1,5,0,0
82755,-100,4,2,1,70,0,0
86295,-83.3333333333333,4,2,1,70,0,0
86632,-111.111111111111,4,2,1,75,0,0
89160,-111.111111111111,4,2,1,5,0,0

[Colours]
Combo1 : 255,169,91
Combo2 : 100,163,170
Combo3 : 84,141,188
Combo4 : 255,220,98

[HitObjects]
304,329,1520,6,0,B|378:279|471:326|471:326|453:278|406:265,1,270,2|2,0:0|0:0,0:0:0:0:
311,212,2868,6,0,P|325:132|342:53,1,161.999995056153,2|2,0:0|0:0,0:0:0:0:
168,19,4216,6,0,P|128:37|110:78,1,90,2|2,0:0|0:0,0:0:0:0:
218,178,4890,2,0,P|221:134|195:98,1,90,2|2,0:0|0:0,0:0:0:0:
41,243,5564,2,0,B|88:204|142:230|142:230|163:265|198:267,1,180,2|2,0:0|0:0,0:0:0:0:
477,97,6913,6,0,P|396:66|322:134,1,180,2|2,0:0|0:0,0:0:0:0:
432,315,7924,1,2,0:0:0:0:
432,315,8261,6,0,P|378:304|311:285,1,107.999996704102,2|2,0:0|0:0,0:0:0:0:
276,218,8767,2,0,P|224:231|171:249,1,107.999996704102,2|2,0:0|0:0,0:0:0:0:
76,330,9272,2,0,P|81:296|89:255,1,53.9999983520508,2|2,0:0|0:0,0:0:0:0:
76,102,9609,6,0,B|152:96|131:151|216:143,1,135,6|0,1:2|0:0,0:0:0:0:
233,122,9946,1,8,0:0:0:0:
252,109,10031,1,8,0:0:0:0:
274,105,10115,1,8,0:0:0:0:
296,106,10199,1,8,0:0:0:0:
323,123,10284,5,8,0:0:0:0:
363,106,10368,1,8,0:0:0:0:
407,112,10452,1,8,0:0:0:0:
440,139,10536,1,8,0:0:0:0:
455,184,10621,5,8,0:0:0:0:
428,219,10705,1,8,0:0:0:0:
416,263,10789,1,8,0:0:0:0:
420,308,10873,1,8,0:0:0:0:
444,346,10958,5,0,1:2:0:0:
444,346,12306,6,0,B|368:352|389:297|304:305,1,135,6|0,1:2|0:0,0:0:0:0:
290,315,12643,1,10,0:0:0:0:
173,223,12812,2,0,P|183:266|192:310,1,90,2|2,0:0|1:2,0:0:0:0:
114,379,13149,1,2,1:2:0:0:
1,282,13317,1,8,0:0:0:0:
107,163,13486,6,0,B|206:194|206:194|216:147|261:120,1,180,2|2,1:2|1:2,0:0:0:0:
375,270,13991,2,0,P|388:224|367:181,1,90,10|2,0:0|1:2,0:0:0:0:
261,299,14328,1,0,1:2:0:0:
366,359,14497,1,0,1:2:0:0:
228,230,14666,2,0,P|218:272|208:323,1,90,8|0,0:0|0:0,0:0:0:0:
457,359,15003,6,0,B|471:305|504:275|504:275|464:254|439:213,1,180,2|8,1:2|0:0,0:0:0:0:
316,116,15508,1,2,0:0:0:0:
405,87,15677,1,0,1:2:0:0:
333,235,15845,1,2,1:2:0:0:
160,149,16014,1,8,0:0:0:0:
230,83,16182,6,0,P|254:169|200:237,1,180,6|2,1:2|1:2,0:0:0:0:
67,49,16688,2,0,P|103:25|147:33,1,90,10|2,0:0|0:0,0:0:0:0:
36,156,17025,1,2,3:2:0:0:
115,223,17194,1,10,0:0:0:0:
115,223,17278,1,8,0:0:0:0:
115,223,17362,1,10,0:0:0:0:
233,105,17531,1,10,0:0:0:0:
233,105,17615,1,8,0:0:0:0:
232,104,17699,6,0,P|294:131|360:146,1,135,6|0,1:2|0:0,0:0:0:0:
396,149,18036,1,8,0:0:0:0:
479,292,18205,2,0,P|442:316|398:308,1,90,2|0,0:0|1:2,0:0:0:0:
277,212,18542,1,2,1:2:0:0:
147,302,18711,1,8,0:0:0:0:
256,369,18879,6,0,P|242:279|222:192,1,180,6|2,1:2|1:2,0:0:0:0:
118,55,19385,2,0,P|71:63|47:109,1,90,10|2,0:0|1:2,0:0:0:0:
116,135,19722,1,0,1:2:0:0:
23,240,19890,1,0,1:2:0:0:
150,343,20059,2,0,P|194:335|238:327,1,90,8|0,0:0|0:0,0:0:0:0:
431,290,20396,6,0,P|387:297|353:270,1,90,2|0,1:2|0:0,0:0:0:0:
239,133,20733,2,0,P|266:166|260:210,1,90,8|0,0:0|0:0,0:0:0:0:
176,324,21070,1,0,1:2:0:0:
75,237,21239,1,2,1:2:0:0:
2,302,21407,1,10,0:0:0:0:
107,100,21576,6,0,P|173:114|238:132,1,135,6|0,1:2|0:0,0:0:0:0:
269,143,21913,1,8,0:0:0:0:
377,302,22081,1,8,0:0:0:0:
480,82,22250,5,10,0:0:0:0:
394,41,22418,1,10,0:0:0:0:
298,285,22587,5,10,0:0:0:0:
408,226,22755,1,10,0:0:0:0:
237,30,22924,5,8,0:0:0:0:
237,30,23093,1,2,0:0:0:0:
226,50,23767,6,0,P|196:70|161:67,1,72,2|0,0:0|0:0,0:0:0:0:
25,62,24104,2,0,P|56:77|72:109,1,72,2|0,0:0|0:0,0:0:0:0:
57,238,24441,2,0,P|95:207|173:222,1,108,2|0,0:0|0:0,0:0:0:0:
195,303,24778,2,0,P|160:291|125:283,1,72,2|0,0:0|0:0,0:0:0:0:
296,293,25115,6,0,P|298:328|278:357,1,72,2|0,0:0|0:0,0:0:0:0:
336,206,25452,2,0,P|365:186|400:188,1,72,2|0,0:0|0:0,0:0:0:0:
231,220,25789,2,0,P|176:180|182:111,1,144,2|2,0:0|0:0,0:0:0:0:
182,110,26295,1,2,0:0:0:0:
415,107,27980,5,2,0:0:0:0:
483,183,28149,1,2,0:0:0:0:
418,235,28317,1,2,0:0:0:0:
403,244,28486,2,0,P|367:246|338:226,1,72,2|0,0:0|0:0,0:0:0:0:
274,160,28823,1,2,0:0:0:0:
274,160,28991,1,2,0:0:0:0:
205,269,29497,5,2,0:0:0:0:
205,269,29666,2,0,B|127:244|127:244|108:282|70:293,1,144,2|0,0:0|0:0,0:0:0:0:
44,212,30171,1,2,0:0:0:0:
44,212,30340,1,2,0:0:0:0:
18,71,30845,5,2,0:0:0:0:
18,71,31014,2,0,P|30:124|47:241,1,144,2|0,0:0|0:0,0:0:0:0:
154,121,31519,1,2,0:0:0:0:
205,180,31688,2,0,B|284:166|284:166|318:193|290:230,1,144,2|0,0:0|0:0,0:0:0:0:
196,301,32194,1,2,0:0:0:0:
196,301,32362,6,0,P|266:313|332:341,1,144,2|0,0:0|0:0,0:0:0:0:
442,237,32868,2,0,P|404:235|375:255,1,72,2|0,0:0|0:0,0:0:0:0:
430,333,33205,1,2,0:0:0:0:
436,348,33542,1,2,0:0:0:0:
492,153,33879,6,0,P|455:148|416:139,1,76.5000014591217,4|0,1:2|0:0,0:0:0:0:
298,215,34216,2,0,P|307:253|312:290,1,76.5000014591217,0|0,1:2|0:0,0:0:0:0:
334,151,34553,2,0,P|289:184|234:174,1,114.750002188683,2|0,1:2|0:0,0:0:0:0:
187,112,34890,2,0,P|195:75|201:36,1,76.5000014591217,2|0,1:2|0:0,0:0:0:0:
64,135,35227,6,0,B|79:159|102:178|102:178|84:197|71:226,1,114.750002188683,2|0,1:2|0:0,0:0:0:0:
16,277,35564,2,0,P|-3:245|-1:207,1,76.5000014591217,2|0,1:2|0:0,0:0:0:0:
120,307,35902,2,0,P|108:349|100:393,1,76.5000014591217,2|0,1:2|0:0,0:0:0:0:
231,291,36239,2,0,P|219:250|211:205,1,76.5000014591217,2|0,1:2|0:0,0:0:0:0:
308,111,36576,6,0,B|399:104|369:161|458:153,1,153.000002918243,2|2,1:2|1:2,0:0:0:0:
508,79,37081,2,0,P|492:139|479:242,1,153.000002918243,2|0,0:0|0:0,0:0:0:0:
415,308,37587,1,2,1:2:0:0:
415,308,37755,2,0,P|383:288|345:293,1,76.5000014591217,2|0,0:0|1:2,0:0:0:0:
206,322,38093,2,0,P|239:304|253:269,1,76.5000014591217,2|0,0:0|1:2,0:0:0:0:
189,182,38430,1,2,0:0:0:0:
189,182,38598,1,0,1:2:0:0:
334,128,38767,2,0,P|325:165|317:202,1,76.5000014591217,2|0,0:0|1:2,0:0:0:0:
435,132,39104,1,2,0:0:0:0:
304,35,39272,6,0,B|210:12|210:12|205:50|178:78,1,161.999995056153,6|2,1:2|1:2,0:0:0:0:
62,71,39778,1,2,0:0:0:0:
62,71,39946,2,0,P|97:89|111:126,1,80.9999975280763,0|0,1:2|0:0,0:0:0:0:
23,227,40284,1,2,1:2:0:0:
78,281,40452,2,0,B|111:260|139:234|139:234|163:275|217:290,1,161.999995056153,2|0,0:0|0:0,0:0:0:0:
297,175,40958,2,0,P|257:173|226:197,1,80.9999975280763,2|0,1:2|0:0,0:0:0:0:
304,341,41295,2,0,P|297:301|286:261,1,80.9999975280763,2|0,1:2|0:0,0:0:0:0:
430,174,41632,2,0,P|415:220|409:264,1,80.9999975280763,2|0,1:2|0:0,0:0:0:0:
378,94,41969,2,0,P|435:147|512:133,2,161.999995056153,2|0|0,1:2|1:2|1:2,0:0:0:0:
124,244,42980,6,0,P|163:234|203:228,1,80.9999975280763,2|0,1:2|0:0,0:0:0:0:
148,146,43317,1,2,1:2:0:0:
277,290,43486,2,0,P|232:225|255:150,1,161.999995056153,2|0,0:0|0:0,0:0:0:0:
397,197,43991,2,0,P|357:204|317:214,1,80.9999975280763,0|0,1:2|0:0,0:0:0:0:
218,81,44328,2,0,P|264:71|304:91,1,80.9999975280763,0|0,1:2|0:0,0:0:0:0:
253,359,44666,5,6,1:2:0:0:
253,359,44834,1,2,1:2:0:0:
85,162,45340,6,0,B|58:206|31:222|31:222|59:253|85:294,1,161.999995056153,10|2,0:0|0:0,0:0:0:0:
147,224,45845,1,0,1:2:0:0:
5,81,46182,1,0,1:2:0:0:
5,81,46351,1,2,1:2:0:0:
115,20,46688,6,0,B|206:10|174:86|280:65,1,161.999995056153,10|2,0:0|0:0,0:0:0:0:
400,175,47362,1,2,1:2:0:0:
400,175,47531,1,0,1:2:0:0:
329,241,47699,1,2,0:0:0:0:
486,366,48036,6,0,P|437:326|339:356,1,161.999995056153,10|2,0:0|0:0,0:0:0:0:
223,295,48542,2,0,P|237:345|243:385,1,80.9999975280763,2|0,1:2|0:0,0:0:0:0:
329,241,48879,1,2,1:2:0:0:
239,162,49048,1,2,1:2:0:0:
175,209,49216,1,2,0:0:0:0:
87,127,49385,1,8,0:0:0:0:
87,127,49469,1,0,3:2:0:0:
87,127,49553,1,0,3:2:0:0:
87,127,49637,1,0,3:2:0:0:
87,127,49722,6,0,B|47:205|47:205|89:228|94:277,1,161.999995056153,14|0,0:0|0:0,0:0:0:0:
132,338,50059,2,0,P|174:307|220:324,1,90,6|0,1:2|0:0,0:0:0:0:
330,384,50396,1,10,0:0:0:0:
433,289,50564,1,2,0:0:0:0:
353,228,50733,1,0,1:2:0:0:
297,295,50902,1,2,1:2:0:0:
430,201,51070,1,8,0:0:0:0:
311,144,51239,1,2,0:0:0:0:
478,86,51407,6,0,B|384:98|409:22|314:32,1,180,2|10,1:2|0:0,0:0:0:0:
212,168,51913,1,2,0:0:0:0:
283,237,52081,1,0,1:2:0:0:
311,144,52250,1,2,1:2:0:0:
231,310,52418,2,0,P|187:299|143:290,1,90,8|2,0:0|0:0,0:0:0:0:
0,127,52755,6,0,B|80:102|80:102|140:123|106:187,1,180,6|10,1:2|0:0,0:0:0:0:
254,283,53261,1,2,0:0:0:0:
298,112,53430,1,0,1:2:0:0:
220,138,53598,1,2,1:2:0:0:
389,290,53767,1,8,0:0:0:0:
414,211,53935,1,2,0:0:0:0:
202,347,54104,5,10,0:0:0:0:
298,112,54272,1,8,0:0:0:0:
306,96,54778,5,8,0:0:0:0:
418,340,54946,1,8,0:0:0:0:
268,239,55115,5,2,0:0:0:0:
242,242,55199,1,2,0:0:0:0:
213,228,55284,1,2,0:0:0:0:
170,241,55368,1,2,0:0:0:0:
126,229,55452,6,0,B|138:186|164:150|164:150|132:134|85:98,1,155.250002961159,6|0,1:2|0:0,0:0:0:0:
87,46,55789,2,0,P|47:69|38:127,1,103.500001974106,10|0,0:0|0:0,0:0:0:0:
115,325,56126,6,0,B|200:331|172:274|258:275,1,155.250002961159,2|0,1:2|0:0,0:0:0:0:
326,232,56463,2,0,P|293:276|308:328,1,103.500001974106,10|0,0:0|0:0,0:0:0:0:
492,135,56800,6,0,P|426:127|324:84,1,155.250002961159,2|0,1:2|0:0,0:0:0:0:
290,41,57137,1,8,0:0:0:0:
204,204,57306,1,0,0:0:0:0:
11,141,57475,6,0,P|62:137|91:196,1,103.500001974106,0|0,1:2|0:0,0:0:0:0:
190,373,57812,1,10,0:0:0:0:
314,278,57980,1,2,0:0:0:0:
314,278,58064,1,0,0:0:0:0:
314,278,58149,6,0,B|391:314|391:314|407:278|450:262,1,155.250002961159,2|0,1:2|0:0,0:0:0:0:
509,221,58486,2,0,P|460:233|424:199,1,103.500001974106,10|0,0:0|0:0,0:0:0:0:
307,0,58823,6,0,B|342:40|363:60|363:60|335:80|303:133,1,155.250002961159,2|0,1:2|0:0,0:0:0:0:
242,154,59160,2,0,P|297:144|328:183,1,103.500001974106,10|0,0:0|0:0,0:0:0:0:
224,348,59497,6,0,B|102:346|156:272|19:269,1,207.000003948212,2|8,1:2|0:0,0:0:0:0:
53,361,60003,1,2,0:0:0:0:
205,250,60171,1,2,1:2:0:0:
306,335,60340,1,0,0:0:0:0:
176,179,60508,2,0,P|162:229|156:280,1,103.500001974106,8|0,0:0|0:0,0:0:0:0:
425,358,60845,6,0,B|447:314|474:292|474:292|444:275|407:226,1,155.250002961159,6|0,1:2|0:0,0:0:0:0:
347,204,61182,2,0,P|395:216|431:182,1,103.500001974106,10|0,0:2|0:0,0:0:0:0:
289,30,61519,6,0,B|204:24|237:87|146:80,1,155.250002961159,2|0,1:2|0:0,0:0:0:0:
79,34,61856,2,0,P|112:78|97:130,1,103.500001974106,10|0,0:0|0:0,0:0:0:0:
0,287,62194,6,0,P|48:269|99:263,1,103.500001974106,2|0,1:2|0:0,0:0:0:0:
277,341,62531,1,10,0:0:0:0:
201,368,62699,2,0,P|192:318|224:279,1,103.500001974106,2|0,0:0|1:2,0:0:0:0:
395,161,63036,2,0,P|385:209|377:269,1,103.500001974106,2|8,0:2|0:0,0:0:0:0:
424,346,63373,1,2,0:0:0:0:
216,172,63542,6,0,B|116:205|116:205|50:185|91:122,1,207.000003948212,2|8,1:2|0:0,0:0:0:0:
165,89,64048,1,2,0:0:0:0:
311,303,64216,2,0,B|433:301|379:227|515:224,1,207.000003948212,2|8,1:2|0:0,0:0:0:0:
475,315,64722,1,2,0:0:0:0:
409,127,64890,1,2,1:2:0:0:
328,221,65059,1,0,0:0:0:0:
512,139,65227,1,10,0:0:0:0:
322,41,65396,6,0,B|272:34|229:7|229:7|161:32|200:93,1,207.000003948212,2|0,0:0|0:0,0:0:0:0:
264,280,65902,1,10,0:0:0:0:
304,273,65986,1,8,0:0:0:0:
345,267,66070,1,8,0:0:0:0:
385,261,66154,1,8,0:0:0:0:
426,253,66239,6,0,B|455:245|481:208|481:208|464:286|490:342,1,207.000003948212,6|8,1:2|0:0,0:0:0:0:
372,149,66744,6,0,B|313:124|270:162|270:162|249:218|193:212,1,207.000003948212,6|8,1:2|0:0,0:0:0:0:
57,23,67250,6,0,B|97:68|129:81|129:81|83:103|54:181,1,207.000003948212,6|0,1:2|0:0,0:0:0:0:
160,327,67755,1,0,1:2:0:0:
321,145,67924,5,10,0:0:0:0:
228,117,68093,1,2,0:0:0:0:
276,354,68261,5,10,0:0:0:0:
356,298,68430,1,0,1:2:0:0:
121,240,68598,5,10,0:0:0:0:
160,327,68767,1,2,0:0:0:0:
400,214,68935,6,0,P|419:108|454:4,1,207.000003948212,6|8,1:2|0:0,0:0:0:0:
415,324,69441,6,0,B|293:322|347:248|210:245,1,207.000003948212,6|0,1:2|0:0,0:0:0:0:
41,106,69946,6,0,P|84:53|218:83,1,207.000003948212,6|8,1:2|0:0,0:0:0:0:
184,147,70368,1,8,0:0:0:0:
184,147,70452,1,8,0:0:0:0:
391,234,70621,1,2,1:2:0:0:
391,234,70705,1,0,1:2:0:0:
391,234,70789,1,0,1:2:0:0:
202,361,70958,1,10,0:0:0:0:
280,189,71126,1,0,1:2:0:0:
466,367,71295,1,10,0:0:0:0:
466,367,71632,6,0,B|493:322|514:302|514:302|486:282|454:229,1,155.250002961159,6|0,1:2|0:0,0:0:0:0:
395,207,71969,2,0,P|450:217|481:178,1,103.500001974106,8|0,0:0|0:0,0:0:0:0:
379,76,72306,1,0,1:2:0:0:
288,188,72475,1,0,1:2:0:0:
172,77,72643,1,10,0:0:0:0:
254,12,72812,1,2,0:0:0:0:
184,241,72980,6,0,B|62:239|116:165|-17:168,1,207.000003948212,2|10,1:2|0:0,0:0:0:0:
13,263,73486,1,2,0:0:0:0:
160,158,73654,1,2,1:2:0:0:
51,93,73823,1,0,1:2:0:0:
149,309,73991,2,0,P|201:318|248:285,1,103.500001974106,8|2,0:0|0:0,0:0:0:0:
353,143,74328,6,0,B|468:111|468:111|463:164|492:202,1,207.000003948212,2|10,1:2|0:0,0:0:0:0:
399,369,74834,2,0,P|371:331|393:264,1,103.500001974106,2|0,0:0|1:2,0:0:0:0:
461,308,75171,1,2,1:2:0:0:
353,143,75340,1,8,0:0:0:0:
240,256,75508,1,2,0:0:0:0:
445,221,75677,5,6,1:2:0:0:
63,346,77025,6,0,P|113:303|192:323,1,135,6|0,1:2|0:0,0:0:0:0:
200,332,77362,1,8,0:0:0:0:
323,210,77531,2,0,P|312:253|304:298,1,90,2|0,0:0|1:2,0:0:0:0:
422,219,77868,1,2,1:2:0:0:
276,128,78036,1,8,0:0:0:0:
491,81,78205,6,0,B|396:53|396:53|348:87|386:132,1,180,2|2,1:2|1:2,0:0:0:0:
255,268,78711,2,0,P|296:243|342:259,1,90,10|2,0:0|1:2,0:0:0:0:
196,143,79048,1,0,1:2:0:0:
295,89,79216,1,0,1:2:0:0:
163,212,79385,2,0,P|155:166|145:118,1,90,8|0,0:0|0:0,0:0:0:0:
365,14,79722,6,0,B|411:102|411:102|369:121|355:173,1,180,2|8,1:2|0:0,0:0:0:0:
295,305,80227,1,2,0:0:0:0:
387,260,80396,1,0,1:2:0:0:
250,172,80564,1,2,1:2:0:0:
161,347,80733,1,8,0:0:0:0:
75,303,80902,6,0,P|146:254|231:281,1,180,6|0,1:2|0:0,0:0:0:0:
380,380,81407,1,10,0:0:0:0:
449,305,81576,1,10,0:0:0:0:
303,187,81744,5,2,3:2:0:0:
343,286,81913,1,10,0:0:0:0:
343,286,81997,1,8,0:0:0:0:
343,286,82081,1,10,0:0:0:0:
419,115,82250,1,10,0:0:0:0:
419,115,82334,1,8,0:0:0:0:
419,115,82418,6,0,P|348:106|278:83,1,135,6|0,1:2|0:0,0:0:0:0:
255,72,82755,1,8,0:0:0:0:
98,214,82924,2,0,P|138:185|185:194,1,90,2|0,0:0|1:2,0:0:0:0:
316,259,83261,1,2,1:2:0:0:
186,340,83430,1,8,0:0:0:0:
374,196,83598,6,0,B|403:234|430:256|430:256|402:276|374:335,1,180,6|2,1:2|1:2,0:0:0:0:
192,240,84104,2,0,P|151:265|105:249,1,90,10|2,0:0|0:2,0:0:0:0:
143,185,84441,1,0,1:2:0:0:
255,119,84609,1,2,1:2:0:0:
127,13,84778,2,0,P|82:20|38:30,1,90,8|0,0:0|0:0,0:0:0:0:
192,240,85115,2,0,P|235:249|280:257,1,90,6|0,1:2|0:0,0:0:0:0:
328,43,85452,5,8,0:0:0:0:
255,119,85621,1,0,1:2:0:0:
466,222,85789,5,8,0:0:0:0:
426,130,85958,1,2,1:2:0:0:
284,327,86126,5,8,0:0:0:0:
192,240,86295,2,0,B|108:238|134:289|42:287,1,161.999995056153,6|0,1:2|0:0,0:0:0:0:
15,283,86632,1,8,0:0:0:0:
142,96,86800,1,8,0:0:0:0:
311,236,86969,1,8,0:0:0:0:
196,347,87137,5,2,1:2:0:0:
196,347,87222,1,8,0:0:0:0:
196,347,87306,1,10,0:0:0:0:
196,347,87390,1,8,0:0:0:0:
171,368,87475,5,2,1:2:0:0:
138,365,87559,1,8,0:0:0:0:
105,363,87643,1,8,0:0:0:0:
72,360,87727,1,8,0:0:0:0:
256,192,87812,12,0,89160,0:0:0:0:
