osu file format v14

[General]
AudioFilename: audio.mp3
AudioLeadIn: 0
PreviewTime: 48477
Countdown: 0
SampleSet: Soft
StackLeniency: 0.4
Mode: 0
LetterboxInBreaks: 0
WidescreenStoryboard: 1

[Editor]
Bookmarks: 1128,27152,48838,49471,74862,92212,113899,133417,159441,159621,159712,159893,159983,160164,160344,160525,160706,160887,161067,161248,161338,161519,161700,161881,162061,162152,162423,162603,162784,162965,163146,163236,163417,163597,163778,163959,164140,164320,164411,164501,164591,164682,164772,164862,164953,165134,165314,165405,165585,165766,165856,165947,166037,166127,166308,166489,166579,166670,166850,166941,167031,167121,167212,167302,167393,167573,167754,167935,168115,168296,168477,168658,168838,168929,169109,169200,169290,169471,169652,169832,170013,170103,170194,170374,170555,170736,170917,171097,171188,171368,171549,171730,171911,172091,172272,172362,172453,172543,172634,172724,172814,172995,173085,173176,173266,173356,173447,173537,173627,173718,173808,173899,173989,174170,174350,174531,174712,174893,175073,175254,175525,175706,176790,184380,215826
DistanceSpacing: 1.2
BeatDivisor: 8
GridSize: 32
TimelineZoom: 2.3

[Metadata]
Title:Izanai no Minasoko ~Iriya mie Lip-Aura~
TitleUnicode:誘いの水底 ~Iriya mie Lip-Aura~
Artist:Annabel, Shimotsuki Haruka
ArtistUnicode:Annabel、霜月はるか
Creator:dog food
Version:Collab Hard
Source:
Tags:xiced door weapon T-Bounce japanese folk hana so soujou 花想少女 前奏曲 zensoukyoku HAMOTSUKIN BEST~Original Disc~ 霜月はるかツイン&トリプルボーカルベストアルバム twin & triple best vocal album
BeatmapID:2825673
BeatmapSetID:1362755

[Difficulty]
HPDrainRate:5
CircleSize:4
OverallDifficulty:6
ApproachRate:7.6
SliderMultiplier:2.2
SliderTickRate:1

[Events]
//Background and Video events
0,0,"bg.png",0,0
//Break Periods
2,68556,74052
2,159640,175257
2,200835,206331
//Storyboard Layer 0 (Background)
//Storyboard Layer 1 (Fail)
//Storyboard Layer 2 (Pass)
//Storyboard Layer 3 (Foreground)
//Storyboard Layer 4 (Overlay)
//Storyboard Sound Samples

[TimingPoints]
1128,722.89156626506,3,2,1,30,1,0
9441,-125,3,2,1,30,0,0
9802,-125,3,2,1,35,0,0
22814,-125,3,2,1,30,0,0
23356,-131.578947368421,3,2,1,30,0,0
23537,759.493670886076,3,2,1,30,1,0
23960,-125,3,2,1,30,0,0
25055,697.674418604652,3,2,1,30,1,0
25403,666.666666666668,3,2,1,30,1,0
25403,-125,3,2,1,30,0,0
26069,722.89156626506,3,2,1,30,1,0
26119,-125,3,2,1,30,0,0
27152,722.89156626506,3,2,1,40,1,0
27152,-125,3,2,1,40,0,0
46670,-100,3,2,1,60,0,0
48838,-83.3333333333333,3,2,2,70,0,0
49923,-83.3333333333333,3,2,1,70,0,0
52091,-83.3333333333333,3,2,2,70,0,0
52814,-83.3333333333333,3,2,1,70,0,0
68356,-83.3333333333333,3,2,21,50,0,0
74862,-100,3,2,1,55,0,0
92212,-125,3,2,1,50,0,0
109561,-100,3,2,1,50,0,0
111730,-100,3,2,1,60,0,0
113898,-83.3333333333333,3,2,2,70,0,0
114983,-83.3333333333333,3,2,1,70,0,0
117151,-83.3333333333333,3,2,2,70,0,0
117874,-83.3333333333333,3,2,1,70,0,0
131248,-166.666666666667,3,2,1,40,0,0
133417,-125,3,2,1,50,0,0
157272,-125,3,2,1,60,0,0
158356,-125,3,2,1,50,0,0
159441,-125,3,2,21,50,0,0
176067,-125,3,2,1,50,0,0
176790,-83.3333333333333,3,2,2,70,0,0
177875,-83.3333333333333,3,2,1,70,0,0
180043,-83.3333333333333,3,2,2,70,0,0
180766,-83.3333333333333,3,2,1,70,0,0
193055,705.882352941176,3,2,1,70,1,0
193760,714.285714285713,3,2,1,70,1,0
194117,722.891566265058,3,2,1,70,1,0
194117,-83.3333333333333,3,2,1,70,0,0
196285,-83.3333333333333,3,2,1,60,0,0
197370,731.707317073169,3,2,1,60,1,0
197370,-83.3333333333333,3,2,1,60,0,0
198467,722.891566265058,3,2,1,45,1,0
198467,-83.3333333333333,3,2,1,45,0,0
207141,-125,3,2,1,45,0,0
215816,-142.857142857143,3,2,1,35,0,0
228828,-142.857142857143,3,2,1,30,0,0
233256,-142.857142857143,3,2,1,20,0,0
236067,-142.857142857143,3,2,1,10,0,0
237503,-142.857142857143,3,2,21,10,0,0

[Colours]
Combo1 : 250,180,240
Combo2 : 120,200,230
Combo3 : 255,230,130
Combo4 : 160,230,150

[HitObjects]
196,87,9441,6,0,L|184:139,1,44,2|0,0:0|0:0,0:0:0:0:
117,197,9802,2,0,P|72:174|62:124,2,88,2|0|2,3:2|0:0|0:0,0:0:0:0:
203,280,10887,2,0,P|271:232|375:216,1,176,2|2,0:0|0:0,0:0:0:0:
452,282,11971,2,0,P|489:254|489:209,1,88,2|0,3:2|0:0,0:0:0:0:
397,117,12694,1,2,0:0:0:0:
470,41,13055,2,0,P|435:106|406:225,1,176,2|2,0:0|0:3,0:0:0:0:
446,292,13959,1,2,0:3:0:0:
379,342,14140,6,0,L|327:352,1,44,2|0,3:2|0:0,0:0:0:0:
253,319,14501,1,0,0:0:0:0:
172,351,14682,2,0,P|159:312|164:251,1,88,2|2,0:0|0:0,0:0:0:0:
133,137,15224,2,0,P|119:177|83:201,1,88,2|0,0:0|0:0,0:0:0:0:
41,66,15947,1,2,0:0:0:0:
178,6,16308,2,0,L|230:18,1,44,2|0,1:2|0:0,0:0:0:0:
285,90,16670,2,0,B|372:107|315:182|425:199,1,176,2|2,0:0|0:0,0:0:0:0:
480,121,17754,1,0,0:0:0:0:
497,359,18115,5,2,0:0:0:0:
419,325,18296,1,0,0:0:0:0:
331,342,18477,2,0,P|343:302|358:243,2,88,2|0|2,3:2|0:0|0:0,0:0:0:0:
480,228,19561,2,0,B|501:124|449:167|474:51,1,176,2|0,0:0|0:0,0:0:0:0:
342,133,20646,2,0,P|298:111|296:66,1,88,2|0,3:2|0:0,0:0:0:0:
333,3,21188,1,2,0:0:0:0:
174,97,21549,1,2,0:0:0:0:
174,97,21730,2,0,P|141:97|56:217,1,176,2|0,3:0|3:0,0:0:0:0:
88,276,22814,6,0,L|188:293,1,88,2|0,1:2|0:0,0:0:0:0:
284,222,23356,2,0,P|284:283|348:287,1,129.789000334692,2|2,0:0|0:0,0:0:0:0:
473,265,24296,1,2,0:0:0:0:
430,172,24676,1,2,0:0:0:0:
491,76,25055,1,2,3:2:0:0:
335,138,25403,2,0,B|242:126|294:57|188:30,1,176,2|2,1:2|0:0,0:0:0:0:
31,112,27152,6,0,P|50:73|96:65,1,88,14|0,0:1|3:0,0:0:0:0:
142,140,27694,2,0,P|125:189|112:243,1,88,8|0,0:1|1:0,0:0:0:0:
83,309,28236,1,10,0:1:0:0:
83,309,28417,2,0,P|113:270|204:263,1,132,2|0,3:0|0:0,0:0:0:0:
410,358,29320,5,6,1:2:0:0:
495,224,29682,1,10,0:0:0:0:
399,131,30043,2,0,L|312:117,1,88,8|2,0:1|3:2,0:0:0:0:
153,73,30766,1,2,3:2:0:0:
153,73,30856,1,0,1:0:0:0:
153,73,30947,2,0,L|157:46,1,22,0|0,3:0|3:0,0:0:0:0:
290,276,31489,6,0,P|274:245|221:235,1,88,14|0,0:1|3:0,0:0:0:0:
136,317,32031,2,0,P|89:308|84:269,1,88,2|0,1:0|0:0,0:0:0:0:
19,164,32573,2,0,B|89:178|89:178|129:150|162:102|112:40,1,220,10|2,0:1|0:0,0:0:0:0:
219,129,33658,6,0,P|299:132|320:53,1,176,10|10,0:1|0:1,0:0:0:0:
402,11,34562,1,0,1:0:0:0:
402,11,34742,2,0,L|454:19,1,44,2|0,3:0|0:0,0:0:0:0:
494,95,35103,2,0,P|450:148|395:130,1,132,2|10,0:0|0:1,0:0:0:0:
321,74,35826,1,14,0:1:0:0:
154,230,36188,5,0,3:0:0:0:
154,230,36368,2,0,L|146:274,1,44,2|8,3:0|0:1,0:0:0:0:
189,347,36730,1,0,3:0:0:0:
270,318,36911,2,0,P|317:330|360:338,2,88,10|2|0,0:1|0:0|0:0,0:0:0:0:
196,197,37995,6,0,P|157:215|146:256,1,88,14|0,0:1|1:0,0:0:0:0:
270,318,38718,2,0,P|290:320|330:330,1,44,10|0,0:1|1:2,0:0:0:0:
389,359,39079,1,2,0:0:0:0:
460,314,39260,1,0,1:2:0:0:
419,251,39441,2,0,L|423:232,6,14.6666666666667,0|0|0|0|0|0|2,3:0|3:0|3:0|3:0|3:0|3:0|0:0,0:0:0:0:
255,25,40164,6,0,P|274:63|316:72,1,88,14|0,0:1|3:0,0:0:0:0:
397,40,40706,2,0,L|457:51,1,44,10|0,0:1|0:0,0:0:0:0:
472,132,41067,1,0,1:0:0:0:
472,132,41248,2,0,B|449:172|449:172|468:229,2,88,10|2|0,0:1|0:0|0:0,0:0:0:0:
267,33,42332,6,0,P|221:45|201:96,1,88,10|0,0:1|0:0,0:0:0:0:
141,185,43055,1,10,0:1:0:0:
322,212,43417,2,0,P|300:147|282:134,1,88,2|0,3:0|1:0,0:0:0:0:
149,344,44139,1,2,1:0:0:0:
216,307,44320,1,8,0:1:0:0:
291,340,44501,2,0,L|391:355,1,88,10|0,0:1|1:0,0:0:0:0:
477,182,45224,5,8,0:1:0:0:
414,230,45405,2,0,P|369:224|338:189,1,88,0|0,1:0|1:0,0:0:0:0:
371,107,45947,2,0,L|377:87,6,14.6666666666667,0|0|0|0|0|0|2,3:0|3:0|3:0|3:0|3:0|3:0|0:0,0:0:0:0:
490,374,46670,6,0,B|333:361|442:237|272:238,1,275,14|0,0:1|0:0,0:0:0:0:
175,170,47754,2,0,B|64:197|64:197|97:195|120:225,1,165,14|0,0:1|0:0,0:0:0:0:
44,311,48477,5,0,1:2:0:0:
39,301,48567,1,0,1:2:0:0:
39,289,48657,1,0,1:2:0:0:
48,278,48748,1,0,1:2:0:0:
59,273,48838,6,0,B|126:262|156:301|156:301|175:362|230:359,1,197.99999395752,14|0,0:1|0:0,0:0:0:0:
348,296,49561,2,0,P|347:259|324:234,1,65.9999979858399,8|8,0:1|0:1,0:0:0:0:
164,129,49923,2,0,B|182:192|245:198|245:198|263:152|324:147,1,197.99999395752,14|0,0:0|0:0,0:0:0:0:
391,186,50645,1,2,0:3:0:0:
391,186,50826,1,2,0:3:0:0:
490,141,51007,6,0,L|478:211,1,65.9999979858399,10|0,0:1|0:0,0:0:0:0:
424,313,51368,2,0,B|373:351|373:351|338:290,1,131.99999597168,2|2,0:0|0:0,0:0:0:0:
239,263,51911,1,8,0:1:0:0:
239,263,52091,2,0,B|172:279|201:316|127:326,1,131.99999597168,10|0,0:0|0:0,0:0:0:0:
51,284,52633,1,0,1:2:0:0:
78,203,52814,1,4,0:3:0:0:
240,153,53176,6,0,L|258:19,1,131.99999597168,14|2,0:1|0:0,0:0:0:0:
168,48,53718,1,0,0:0:0:0:
168,48,53898,2,0,P|135:41|104:29,1,65.9999979858399,2|8,0:0|0:1,0:0:0:0:
14,144,54260,2,0,P|76:116|101:117,1,65.9999979858399,10|0,0:0|0:0,0:0:0:0:
164,196,54621,2,0,P|113:247|112:314,1,131.99999597168,2|10,0:0|0:1,0:0:0:0:
269,251,55344,5,14,0:1:0:0:
341,201,55525,2,0,B|391:217|391:217|414:236|414:236|464:249,1,131.99999597168,2|0,0:0|0:0,0:0:0:0:
442,143,56067,2,0,P|437:121|396:94,1,65.9999979858399,2|10,0:0|0:1,0:0:0:0:
327,15,56429,2,0,P|272:48|257:111,1,131.99999597168,10|10,0:0|0:1,0:0:0:0:
288,191,56971,1,10,0:0:0:0:
373,198,57151,1,14,0:0:0:0:
436,256,57332,5,2,0:0:0:0:
436,256,57423,1,2,0:0:0:0:
436,256,57513,2,0,B|496:151|396:173|465:46,1,197.99999395752,14|0,0:1|0:0,0:0:0:0:
371,6,58236,2,0,P|330:21|290:27,1,65.9999979858399,4|8,0:3|0:1,0:0:0:0:
223,75,58597,2,0,P|177:37|98:17,1,131.99999597168,10|0,0:0|0:0,0:0:0:0:
16,164,59320,1,10,0:1:0:0:
16,164,59501,1,2,0:0:0:0:
79,226,59682,6,0,P|67:259|47:326,1,98.9999969787599,10|0,0:1|0:0,0:0:0:0:
51,336,60043,2,0,P|62:362|107:377,1,65.9999979858399,2|8,0:0|0:1,0:0:0:0:
196,319,60405,2,0,L|187:254,1,65.9999979858399,2|8,0:0|0:1,0:0:0:0:
127,159,60766,1,10,0:0:0:0:
230,62,61127,1,10,0:1:0:0:
230,62,61308,1,10,0:0:0:0:
302,17,61489,1,4,0:3:0:0:
382,41,61670,1,4,0:3:0:0:
482,13,61850,6,0,P|461:89|451:143,1,131.99999597168,14|0,0:1|0:0,0:0:0:0:
378,198,62392,1,2,0:0:0:0:
378,198,62573,2,0,P|358:171|370:126,1,65.9999979858399,2|8,0:0|0:1,0:0:0:0:
395,23,62935,2,0,P|359:43|253:71,1,131.99999597168,10|0,0:0|0:0,0:0:0:0:
170,55,63477,1,8,0:0:0:0:
170,55,63658,2,0,P|192:31|203:0,1,65.9999979858399,6|4,0:3|0:3,0:0:0:0:
72,11,64019,6,0,P|143:99|176:190,1,197.99999395752,14|0,0:1|0:0,0:0:0:0:
217,253,64742,2,0,P|246:234|257:203,1,65.9999979858399,6|8,0:3|0:1,0:0:0:0:
240,118,65103,1,10,0:0:0:0:
360,29,65465,1,10,0:0:0:0:
360,29,65645,1,8,0:0:0:0:
413,99,65826,1,6,0:3:0:0:
413,99,66007,1,4,0:3:0:0:
376,174,66188,1,14,0:1:0:0:
256,192,66278,12,2,68356,0:0:0:0:
75,286,74862,6,0,P|100:332|156:329,1,110,14|0,0:1|1:0,0:0:0:0:
245,290,75405,2,0,P|288:308|355:324,1,110,10|0,0:0|0:0,0:0:0:0:
421,374,75947,2,0,P|447:344|443:314,1,55,2|0,1:2|0:0,0:0:0:0:
402,236,76308,2,0,B|404:172|430:187|427:125,1,110,10|8,0:0|0:1,0:0:0:0:
252,42,77031,6,0,L|238:109,1,55,10|0,0:1|0:0,0:0:0:0:
168,154,77393,1,0,3:0:0:0:
168,153,77573,2,0,P|116:139|98:89,1,110,10|0,0:0|3:0,0:0:0:0:
159,21,78115,1,10,0:1:0:0:
269,179,78477,1,10,0:0:0:0:
169,277,78838,2,0,L|159:314,3,27.5,0|0|0|0,3:0|3:0|3:0|3:0,0:0:0:0:
153,317,79200,6,0,P|127:298|89:292,1,55,10|0,0:1|0:0,0:0:0:0:
27,276,79561,1,2,0:0:0:0:
27,276,79742,2,0,P|78:267|98:218,1,110,2|0,1:2|3:0,0:0:0:0:
96,208,80194,1,0,3:0:0:0:
90,200,80284,1,10,0:0:0:0:
11,72,80646,1,10,0:0:0:0:
137,16,81007,2,0,P|170:35|174:64,1,55,10|0,0:1|0:0,0:0:0:0:
171,125,81368,6,0,P|199:80|252:74,1,110,14|0,0:1|0:0,0:0:0:0:
337,133,81911,2,0,P|385:117|389:57,1,110,0|0,1:2|0:0,0:0:0:0:
323,11,82453,1,10,0:0:0:0:
460,160,82814,1,10,0:0:0:0:
356,298,83176,2,0,L|348:340,3,27.5,2|0|2|0,1:2|1:2|1:2|1:2,0:0:0:0:
354,349,83537,6,0,P|395:328|463:321,1,110,14|0,0:1|1:0,0:0:0:0:
410,205,84079,2,0,P|417:152|461:122,1,110,8|0,0:0|0:0,0:0:0:0:
498,226,84621,1,2,1:0:0:0:
330,112,84983,2,0,L|213:95,1,110,10|8,0:0|0:1,0:0:0:0:
29,255,85706,6,0,P|59:216|134:218,1,110,14|0,0:1|0:0,0:0:0:0:
179,270,86248,2,0,B|180:325|180:325|212:277,1,110,10|0,0:0|0:0,0:0:0:0:
293,218,86790,1,2,1:0:0:0:
402,99,87151,1,10,0:0:0:0:
313,19,87513,2,0,L|306:51,3,27.5,0|0|0|0,1:2|1:2|1:2|1:2,0:0:0:0:
297,59,87874,6,0,P|244:64|214:108,1,110,14|0,0:1|0:0,0:0:0:0:
294,201,88417,2,0,B|370:213|341:288|447:294,1,165,2|10,1:2|0:0,0:0:0:0:
449,143,89320,2,0,P|441:93|380:89,1,110,10|10,0:0|0:1,0:0:0:0:
220,160,90043,6,0,L|107:136,1,110,2|2,1:0|3:0,0:0:0:0:
37,86,90585,1,10,0:0:0:0:
72,17,90766,1,0,1:0:0:0:
143,50,90947,1,0,1:0:0:0:
219,20,91127,1,10,0:0:0:0:
468,113,91489,5,10,0:0:0:0:
394,128,91670,1,8,0:0:0:0:
368,205,91850,2,0,L|358:267,1,55,4|0,0:3|3:2,0:0:0:0:
352,272,92121,5,0,3:2:0:0:
352,272,92212,2,0,P|312:274|281:313,1,88,14|0,0:1|3:0,0:0:0:0:
367,368,92754,2,0,P|406:351|451:342,1,88,6|0,0:3|3:0,0:0:0:0:
503,269,93296,1,6,0:3:0:0:
383,100,93658,2,0,P|354:135|349:178,1,88,10|0,0:3|1:0,0:0:0:0:
376,248,94200,1,0,1:0:0:0:
312,302,94380,6,0,L|221:311,1,88,10|2,0:1|3:0,0:0:0:0:
138,326,94923,1,8,0:3:0:0:
138,326,95103,2,0,L|127:379,1,44,2|0,0:0|0:0,0:0:0:0:
41,304,95465,2,0,P|20:256|39:217,1,88,4|10,0:3|0:3,0:0:0:0:
156,136,96188,2,0,L|177:131,3,22,0|0|0|0,1:0|1:0|1:0|1:0,0:0:0:0:
190,131,96549,6,0,B|255:144|255:144|259:148|259:148|332:160,1,132,10|4,0:1|0:3,0:0:0:0:
404,101,97272,2,0,L|395:49,1,44,0|0,1:0|3:0,0:0:0:0:
502,140,97633,2,0,P|491:173|474:241,1,88,6|8,0:3|0:3,0:0:0:0:
429,290,98176,1,8,0:1:0:0:
477,352,98356,1,8,0:1:0:0:
345,227,98718,6,0,P|281:225|271:293,1,132,10|8,0:1|0:3,0:0:0:0:
448,321,99621,1,2,0:0:0:0:
448,321,99802,1,6,0:3:0:0:
395,138,100164,1,6,0:3:0:0:
261,180,100525,1,4,0:3:0:0:
195,139,100706,1,4,0:3:0:0:
130,188,100886,6,0,P|140:218|154:290,1,88,14|8,0:1|0:1,0:0:0:0:
216,340,101429,2,0,P|258:328|276:288,1,88,8|0,0:3|1:0,0:0:0:0:
353,248,101971,2,0,P|347:225|324:207,1,44,10|0,0:3|0:0,0:0:0:0:
259,134,102332,2,0,P|277:84|288:37,1,88,8|4,0:3|0:3,0:0:0:0:
106,80,103055,6,0,P|95:122|80:164,1,88,10|2,0:1|0:0,0:0:0:0:
22,227,103597,1,4,0:3:0:0:
63,296,103778,1,0,0:0:0:0:
184,202,104139,2,0,L|231:214,1,44,6|0,0:3|0:0,0:0:0:0:
283,276,104501,1,4,0:3:0:0:
350,176,104862,2,0,L|346:154,3,22,0|0|0|0,1:2|1:2|1:2|1:2,0:0:0:0:
342,143,105224,6,0,L|353:45,1,88,14|0,0:1|0:0,0:0:0:0:
447,2,105766,1,10,0:3:0:0:
447,2,105947,2,0,P|472:43|456:92,1,88,10|10,0:1|0:1,0:0:0:0:
391,196,106670,1,4,0:3:0:0:
401,271,106850,1,0,1:0:0:0:
414,346,107031,1,6,0:3:0:0:
256,255,107392,6,0,P|211:266|162:274,1,88,10|2,0:1|3:0,0:0:0:0:
76,322,107935,2,0,P|50:283|67:239,1,88,8|0,0:3|0:0,0:0:0:0:
100,165,108477,2,0,L|90:117,1,44,6|0,0:3|0:0,0:0:0:0:
149,5,108838,1,10,0:0:0:0:
215,55,109019,1,8,0:3:0:0:
292,19,109200,2,0,L|391:34,1,88,6|14,0:3|0:1,0:0:0:0:
485,195,109923,5,0,3:0:0:0:
485,195,110103,2,0,B|432:178|432:178|377:216|406:288,1,165,6|10,0:3|0:1,0:0:0:0:
258,354,111007,1,6,0:3:0:0:
107,301,111368,1,6,0:3:0:0:
87,225,111549,1,0,1:0:0:0:
157,180,111730,6,0,B|184:110|254:108|302:142|302:142|257:164|282:189|223:222,1,275,14|0,0:1|0:0,0:0:0:0:
304,294,112814,2,0,B|363:309|363:309|389:342|389:342|448:356,1,165,14|4,0:1|0:3,0:0:0:0:
499,282,113537,1,6,0:3:0:0:
341,114,113898,6,0,B|330:64|347:9|389:-11|389:-11|386:27|358:43,1,197.99999395752,14|8,0:1|0:1,0:0:0:0:
432,116,114621,2,0,P|451:143|482:155,1,65.9999979858399,8|8,0:1|0:1,0:0:0:0:
414,243,114983,2,0,B|311:257|358:333|238:338,1,197.99999395752,14|0,0:0|0:0,0:0:0:0:
167,264,115705,1,2,0:3:0:0:
167,264,115886,1,2,0:3:0:0:
60,305,116067,6,0,P|70:273|74:241,1,65.9999979858399,10|0,0:1|0:0,0:0:0:0:
5,150,116428,2,0,P|64:156|78:97,1,131.99999597168,2|2,0:0|0:0,0:0:0:0:
106,13,116971,1,8,0:1:0:0:
187,37,117151,2,0,B|238:55|238:55|255:78|255:78|304:93,1,131.99999597168,10|0,0:0|3:2,0:0:0:0:
387,83,117693,1,8,0:0:0:0:
425,10,117874,1,4,0:3:0:0:
490,174,118236,6,0,L|464:303,1,131.99999597168,14|2,0:1|0:0,0:0:0:0:
401,359,118778,1,0,0:0:0:0:
401,359,118958,2,0,P|368:352|346:323,1,65.9999979858399,2|8,0:0|0:1,0:0:0:0:
271,273,119320,2,0,P|290:242|321:233,1,65.9999979858399,10|0,0:0|0:0,0:0:0:0:
415,276,119681,2,0,P|431:206|451:135,1,131.99999597168,2|10,0:0|0:1,0:0:0:0:
270,15,120404,5,14,0:1:0:0:
270,15,120585,2,0,B|195:31|195:31|179:65|206:91,1,131.99999597168,2|0,0:0|0:0,0:0:0:0:
248,155,121127,2,0,P|276:135|285:87,1,65.9999979858399,0|8,0:0|0:1,0:0:0:0:
373,79,121489,2,0,P|330:27|262:16,1,131.99999597168,10|10,0:0|0:1,0:0:0:0:
193,32,122031,1,8,0:0:0:0:
111,14,122211,1,14,0:0:0:0:
36,52,122392,5,2,0:0:0:0:
36,52,122483,1,2,0:0:0:0:
36,52,122573,2,0,B|72:179|72:179|88:136|135:131,1,197.99999395752,14|0,0:1|0:0,0:0:0:0:
208,184,123296,2,0,P|240:176|262:150,1,65.9999979858399,8|8,0:1|0:1,0:0:0:0:
338,89,123657,2,0,P|401:108|466:120,1,131.99999597168,10|0,0:0|0:0,0:0:0:0:
478,358,124380,1,10,0:1:0:0:
478,358,124561,1,2,0:0:0:0:
396,296,124742,6,0,P|391:243|426:201,1,98.9999969787599,10|0,0:1|0:0,0:0:0:0:
428,206,125103,2,0,L|501:217,1,65.9999979858399,2|8,0:0|0:0,0:0:0:0:
465,120,125465,2,0,P|453:94|456:55,1,65.9999979858399,2|8,0:0|0:1,0:0:0:0:
512,1,125826,1,10,0:0:0:0:
330,94,126188,2,0,P|298:79|262:73,1,65.9999979858399,10|10,0:1|0:0,0:0:0:0:
206,21,126549,1,4,0:3:0:0:
136,66,126730,1,4,0:3:0:0:
191,135,126910,6,0,P|166:214|153:273,1,131.99999597168,14|0,0:1|0:0,0:0:0:0:
219,320,127452,1,2,0:0:0:0:
219,320,127633,2,0,P|256:310|269:270,1,65.9999979858399,2|8,0:0|0:1,0:0:0:0:
321,201,127995,2,0,P|385:217|449:230,1,131.99999597168,10|10,0:0|0:1,0:0:0:0:
450,115,128537,1,10,0:0:0:0:
450,115,128718,2,0,P|452:83|475:54,1,65.9999979858399,6|4,0:3|0:3,0:0:0:0:
375,0,129079,6,0,P|317:78|226:113,1,197.99999395752,14|0,0:1|0:0,0:0:0:0:
148,102,129802,2,0,P|158:63|187:45,1,65.9999979858399,6|8,0:3|0:1,0:0:0:0:
261,15,130164,1,10,0:0:0:0:
420,211,130525,1,10,0:0:0:0:
420,211,130705,1,8,0:0:0:0:
473,281,130886,1,10,0:0:0:0:
473,281,131067,1,8,0:0:0:0:
426,346,131248,2,0,L|65:289,1,362.99998892212,2|0,0:0|0:0,0:0:0:0:
12,200,133417,6,0,P|10:164|49:126,1,88,14|0,0:1|0:0,0:0:0:0:
138,88,133959,2,0,P|179:103|221:114,1,88,8|8,0:1|0:1,0:0:0:0:
298,171,134501,1,10,0:0:0:0:
354,105,134682,1,0,1:0:0:0:
311,32,134862,2,0,P|270:17|227:5,1,88,2|8,1:0|0:1,0:0:0:0:
59,81,135585,6,0,P|26:71|22:17,2,88,10|0|2,0:1|0:0|0:0,0:0:0:0:
119,149,136489,1,8,0:1:0:0:
119,149,136670,2,0,L|99:234,1,88,10|0,0:0|0:0,0:0:0:0:
58,313,137212,1,0,1:0:0:0:
0,258,137392,1,2,1:0:0:0:
221,248,137754,6,0,B|328:256|258:333|369:329,1,176,10|2,0:1|0:0,0:0:0:0:
484,174,138838,1,10,0:0:0:0:
412,214,139019,1,0,1:0:0:0:
355,156,139200,2,0,L|364:113,1,44,2|0,1:0|0:0,0:0:0:0:
287,31,139561,2,0,L|277:73,1,44,2|0,1:0|0:0,0:0:0:0:
188,115,139923,6,0,P|146:106|129:65,2,88,10|0|2,0:1|0:0|0:0,0:0:0:0:
256,163,140826,1,8,0:1:0:0:
211,230,141007,1,10,0:0:0:0:
211,230,141188,2,0,L|190:332,1,88,0|10,1:2|0:0,0:0:0:0:
309,282,141730,2,0,P|314:259|307:235,1,44,0|0,1:0|3:0,0:0:0:0:
249,149,142091,6,0,P|205:141|158:123,1,88,14|0,0:1|0:0,0:0:0:0:
191,40,142633,2,0,P|235:48|282:66,1,88,8|8,0:1|0:1,0:0:0:0:
343,137,143175,1,10,0:0:0:0:
305,210,143356,1,0,1:0:0:0:
366,269,143536,2,0,P|406:277|440:228,1,88,2|8,1:0|0:1,0:0:0:0:
482,116,144260,6,0,P|489:72|502:30,2,88,10|0|2,0:1|0:0|0:0,0:0:0:0:
403,49,145163,1,8,0:1:0:0:
403,49,145344,2,0,P|361:51|332:91,1,88,10|0,0:0|0:0,0:0:0:0:
302,158,145886,1,0,1:0:0:0:
375,190,146067,1,2,1:0:0:0:
267,324,146428,6,0,B|214:237|106:329|171:361,1,176,10|2,0:1|0:0,0:0:0:0:
197,264,147332,1,8,0:1:0:0:
197,264,147513,2,0,P|187:226|172:212,1,44,10|0,0:0|1:0,0:0:0:0:
110,169,147874,2,0,L|53:178,1,44,2|0,1:0|0:0,0:0:0:0:
133,60,148236,2,0,L|76:69,1,44,2|0,1:0|0:0,0:0:0:0:
204,129,148597,6,0,P|222:168|269:177,1,88,10|0,0:1|0:0,0:0:0:0:
361,156,149139,2,0,P|403:166|450:178,1,88,2|8,1:2|0:1,0:0:0:0:
491,269,149682,1,10,0:0:0:0:
491,269,149862,1,0,1:0:0:0:
407,310,150043,2,0,P|396:334|396:356,1,44,6|0,0:3|1:0,0:0:0:0:
301,309,150405,1,6,0:3:0:0:
349,237,150585,1,8,0:0:0:0:
287,160,150766,6,0,B|282:193|259:212|259:212|263:134|220:91,1,176,14|0,0:1|0:0,0:0:0:0:
145,57,151670,1,8,0:1:0:0:
145,57,151850,2,0,L|97:67,1,44,10|0,0:0|1:0,0:0:0:0:
55,143,152212,2,0,P|21:174|32:224,1,88,2|10,1:0|0:1,0:0:0:0:
176,334,152935,6,0,B|266:354,2,88,10|0|2,0:1|0:0|0:0,0:0:0:0:
230,256,153838,1,8,0:1:0:0:
197,180,154019,1,10,0:0:0:0:
197,180,154200,2,0,P|197:124|230:86,1,88,0|10,1:2|0:0,0:0:0:0:
298,64,154742,1,0,1:0:0:0:
444,174,155103,6,0,P|433:225|424:270,1,88,10|0,0:1|0:0,0:0:0:0:
336,309,155645,2,0,P|311:273|324:225,1,88,2|8,0:0|0:1,0:0:0:0:
402,160,156188,2,0,P|422:169|445:173,1,44,10|0,0:0|1:0,0:0:0:0:
495,105,156549,5,10,0:0:0:0:
495,105,156730,1,4,0:3:0:0:
458,21,156911,1,4,0:3:0:0:
458,21,157091,1,4,0:3:0:0:
380,62,157272,6,0,B|328:45|289:80|289:80|285:102|285:102|255:147|195:135,1,220,14|0,0:1|0:0,0:0:0:0:
114,234,158356,2,0,B|68:188|78:112|78:112|63:183|8:223,1,264,14|0,0:1|0:0,0:0:0:0:
143,36,176067,6,0,L|154:-9,2,29.3333333333333,2|2|2,0:0|0:0|0:0,0:0:0:0:
52,82,176429,2,0,L|41:37,2,29.3333333333333,2|2|2,0:0|0:0|0:0,0:0:0:0:
110,148,176790,6,0,B|176:151|217:195|217:195|202:139|162:137,1,197.99999395752,14|0,0:1|0:0,0:0:0:0:
129,247,177513,2,0,P|106:273|102:309,1,65.9999979858399,8|8,0:1|0:1,0:0:0:0:
220,312,177875,2,0,B|328:303|273:226|372:203,1,197.99999395752,14|0,0:0|0:0,0:0:0:0:
454,268,178597,1,10,0:1:0:0:
454,268,178778,1,2,0:3:0:0:
512,188,178959,6,0,L|500:122,1,65.9999979858399,10|0,0:1|0:0,0:0:0:0:
437,42,179320,2,0,P|385:38|377:111,1,131.99999597168,2|2,0:0|0:0,0:0:0:0:
388,199,179863,1,8,0:1:0:0:
388,199,180043,2,0,B|338:211|338:211|319:235|319:235|262:245,1,131.99999597168,10|0,0:0|0:0,0:0:0:0:
186,222,180585,1,8,0:3:0:0:
122,280,180766,1,4,0:3:0:0:
41,162,181128,6,0,P|56:96|66:31,1,131.99999597168,14|2,0:1|0:0,0:0:0:0:
149,14,181670,1,0,0:0:0:0:
149,14,181850,2,0,P|181:22|207:52,1,65.9999979858399,2|8,0:0|0:1,0:0:0:0:
127,121,182212,2,0,P|96:126|62:136,1,65.9999979858399,10|0,0:0|0:0,0:0:0:0:
116,214,182573,2,0,P|121:274|181:283,1,131.99999597168,2|10,0:0|0:1,0:0:0:0:
488,339,183296,5,14,0:1:0:0:
426,271,183477,2,0,B|349:275|387:318|303:319,1,131.99999597168,2|0,0:0|0:0,0:0:0:0:
246,249,184019,2,0,P|256:217|266:176,1,65.9999979858399,0|8,0:0|0:1,0:0:0:0:
217,60,184381,2,0,P|161:92|163:162,1,131.99999597168,10|10,0:0|0:1,0:0:0:0:
156,243,184923,1,8,0:0:0:0:
156,243,185103,1,14,0:0:0:0:
266,272,185284,5,2,0:0:0:0:
266,272,185375,1,2,0:0:0:0:
266,272,185465,2,0,B|382:299|333:209|475:241,1,197.99999395752,14|0,0:1|0:0,0:0:0:0:
435,117,186188,2,0,B|410:139|410:139|412:107,1,65.9999979858399,8|8,0:1|0:1,0:0:0:0:
356,30,186549,2,0,P|290:25|241:78,1,131.99999597168,10|0,0:0|0:0,0:0:0:0:
67,134,187272,1,10,0:1:0:0:
67,134,187453,1,2,0:0:0:0:
92,218,187633,6,0,B|84:273|115:269|111:318,1,98.9999969787599,10|0,0:1|0:0,0:0:0:0:
109,327,187995,2,0,P|130:351|165:353,1,65.9999979858399,2|8,0:0|0:0,0:0:0:0:
277,287,188356,2,0,B|267:263|280:250|261:219,1,65.9999979858399,2|8,0:0|0:1,0:0:0:0:
183,275,188718,1,10,0:0:0:0:
352,339,189079,1,10,0:1:0:0:
435,356,189260,1,10,0:0:0:0:
453,272,189441,1,4,0:3:0:0:
369,255,189621,1,4,0:3:0:0:
277,287,189802,6,0,B|223:262|206:299|143:276,1,131.99999597168,14|0,0:1|0:0,0:0:0:0:
56,246,190344,1,2,0:0:0:0:
56,246,190525,2,0,P|55:212|91:183,1,65.9999979858399,2|8,0:0|0:1,0:0:0:0:
70,92,190887,2,0,P|139:107|180:177,1,131.99999597168,10|10,0:0|0:1,0:0:0:0:
214,231,191429,1,10,0:0:0:0:
214,231,191610,2,0,P|240:210|252:179,1,65.9999979858399,6|4,0:3|0:3,0:0:0:0:
231,89,191971,6,0,B|333:45|333:157|438:118,1,197.99999395752,14|0,0:1|0:0,0:0:0:0:
447,4,192694,2,0,P|414:14|396:41,1,65.9999979858399,6|8,0:3|0:1,0:0:0:0:
489,82,193055,1,10,0:0:0:0:
455,232,193407,1,10,0:0:0:0:
455,232,193584,1,4,0:3:0:0:
413,299,193760,1,6,0:3:0:0:
333,299,193938,1,4,0:3:0:0:
289,232,194117,6,0,B|271:157|323:186|297:84,1,131.99999597168,14|0,0:1|0:0,0:0:0:0:
244,42,194659,1,2,0:0:0:0:
244,42,194839,2,0,L|176:31,1,65.9999979858399,2|8,0:0|0:1,0:0:0:0:
71,65,195201,2,0,P|69:121|134:140,1,131.99999597168,10|8,0:0|0:1,0:0:0:0:
207,203,195743,1,8,0:0:0:0:
207,203,195924,2,0,P|230:180|236:148,1,65.9999979858399,6|6,0:3|0:3,0:0:0:0:
244,42,196285,6,0,B|429:62|304:219|502:218,1,329.9999899292,14|0,0:1|0:0,0:0:0:0:
454,93,197370,2,0,B|339:105|417:202|294:201,1,197.99999395752,14|8,0:1|0:3,0:0:0:0:
219,153,198101,1,4,0:3:0:0:
55,278,198467,5,14,0:1:0:0:
256,192,198557,12,10,200635,0:1:0:0:
268,29,207141,6,0,P|316:30|359:60,1,88,14|0,0:1|0:0,0:0:0:0:
397,127,207683,1,0,3:0:0:0:
397,127,207864,2,0,L|445:120,1,44,2|0,0:0|0:0,0:0:0:0:
495,231,208225,2,0,B|414:215|416:294|316:278,1,176,2|0,1:0|0:0,0:0:0:0:
370,126,209310,6,0,P|345:130|331:143,1,44,10|0,0:1|0:0,0:0:0:0:
276,213,209671,2,0,L|232:203,1,44,2|0,3:0|0:0,0:0:0:0:
139,173,210032,2,0,L|33:187,1,88,2|0,0:0|1:0,0:0:0:0:
80,59,210756,2,0,L|68:8,2,44,2|0|2,0:0|1:0|3:0,0:0:0:0:
210,30,211478,6,0,P|242:58|285:61,1,88,10|0,0:1|3:0,0:0:0:0:
361,26,212020,1,0,3:0:0:0:
361,26,212201,2,0,L|405:33,1,44,2|0,0:0|0:0,0:0:0:0:
468,110,212563,2,0,L|512:117,1,44,2|0,1:0|0:0,0:0:0:0:
381,187,212925,2,0,P|339:191|279:204,1,88,0|0,3:0|0:0,0:0:0:0:
124,346,213647,6,0,P|128:303|165:281,1,88,10|0,0:1|3:0,0:0:0:0:
243,312,214189,1,0,3:0:0:0:
243,312,214370,2,0,L|303:322,1,44,2|0,0:0|0:0,0:0:0:0:
382,363,214731,2,0,P|394:319|409:279,1,88,2|0,1:0|3:0,0:0:0:0:
480,228,215273,1,0,1:0:0:0:
480,228,215455,2,0,P|466:210|442:204,1,44,0|8,1:0|0:1,0:0:0:0:
344,232,215816,6,0,P|332:256|326:279,1,38.4999988250733,14|0,0:1|0:0,0:0:0:0:
261,202,216178,2,0,P|249:226|243:249,1,38.4999988250733,2|0,0:0|0:0,0:0:0:0:
258,326,216539,1,2,0:0:0:0:
258,326,216720,1,2,0:0:0:0:
181,359,216901,2,0,L|98:368,2,76.9999976501466,2|0|2,1:0|0:0|0:0,0:0:0:0:
169,198,217985,6,0,P|187:211|193:227,1,38.4999988250733,10|0,0:1|0:0,0:0:0:0:
111,273,218346,2,0,L|32:263,1,76.9999976501466,2|0,3:0|0:0,0:0:0:0:
64,180,218888,1,10,0:1:0:0:
64,180,219069,2,0,L|58:136,1,38.4999988250733,2|0,1:0|0:0,0:0:0:0:
18,61,219431,1,2,0:0:0:0:
146,10,219792,1,10,0:1:0:0:
259,84,220154,6,0,P|297:88|334:96,1,76.9999976501466,10|2,0:1|0:0,0:0:0:0:
419,74,220696,1,0,0:0:0:0:
419,74,220876,2,0,P|427:50|429:30,1,38.4999988250733,2|8,0:0|0:1,0:0:0:0:
498,115,221238,2,0,P|483:160|475:202,2,76.9999976501466,2|0|0,1:0|0:0|0:0,0:0:0:0:
353,184,222322,6,0,L|314:188,1,38.4999988250733,10|0,0:1|0:0,0:0:0:0:
221,243,222684,2,0,L|204:318,1,76.9999976501466,2|0,0:0|0:0,0:0:0:0:
296,369,223226,1,10,0:1:0:0:
296,369,223407,2,0,P|332:371|368:342,1,76.9999976501466,2|0,1:0|0:0,0:0:0:0:
372,271,223949,1,0,1:0:0:0:
372,271,224129,1,0,3:0:0:0:
192,108,224491,6,0,L|200:58,1,38.4999988250733,14|0,0:1|0:0,0:0:0:0:
282,43,224852,2,0,L|290:-7,1,38.4999988250733,2|0,0:0|0:0,0:0:0:0:
385,57,225214,1,2,0:0:0:0:
385,57,225395,1,2,0:0:0:0:
343,148,225576,2,0,P|300:145|268:118,2,76.9999976501466,2|0|2,1:0|0:0|0:0,0:0:0:0:
470,194,226660,6,0,P|459:219|453:241,1,38.4999988250733,10|0,0:1|0:0,0:0:0:0:
372,271,227021,2,0,L|295:280,1,76.9999976501466,2|0,3:0|0:0,0:0:0:0:
227,336,227563,1,10,0:1:0:0:
227,336,227744,2,0,L|178:329,1,38.4999988250733,2|0,1:0|0:0,0:0:0:0:
105,358,228106,1,2,0:0:0:0:
11,292,228467,1,10,0:1:0:0:
137,175,228829,6,0,P|101:172|77:137,1,76.9999976501466,10|2,0:1|0:0,0:0:0:0:
46,68,229370,1,2,0:0:0:0:
46,68,229551,2,0,L|59:31,1,38.4999988250733,2|8,0:0|0:1,0:0:0:0:
161,11,229913,2,0,L|143:87,2,76.9999976501466,2|0|0,1:0|0:0|0:0,0:0:0:0:
274,70,230816,5,8,0:1:0:0:
274,70,230997,2,0,L|280:116,1,38.4999988250733,10|0,0:1|0:0,0:0:0:0:
350,172,231359,2,0,P|399:158|407:124,1,76.9999976501466,2|0,0:0|0:0,0:0:0:0:
429,65,231901,1,10,0:1:0:0:
429,65,232081,2,0,L|506:79,1,76.9999976501466,2|0,1:0|0:0,0:0:0:0:
492,174,232623,1,0,1:0:0:0:
492,174,232804,2,0,L|444:184,1,38.4999988250733,0|8,1:0|0:1,0:0:0:0:
382,149,233166,5,14,0:1:0:0:
256,192,233256,12,0,237503,0:0:0:0:
