osu file format v14

[General]
AudioFilename: audio.mp3
AudioLeadIn: 0
PreviewTime: 135951
Countdown: 0
SampleSet: Normal
StackLeniency: 0.7
Mode: 1
LetterboxInBreaks: 0
WidescreenStoryboard: 0

[Editor]
Bookmarks: 282,9615,20615,29948,39448,48614,59947,70613,81280,91947,103282,113948,124616,135951,146617,157284,167950,178617,189284,199950,210617,221284,231950
DistanceSpacing: 1.5
BeatDivisor: 12
GridSize: 32
TimelineZoom: 2.3

[Metadata]
Title:wormhole
TitleUnicode:wormhole
Artist:Annabel
ArtistUnicode:Annabel
Creator:doulph
Version:reflection of a broken world.
Source:
Tags:rycy japanese rock j-rock jrock jazz fall into a lilac slumber fa osu!taiko featured artist cup #1 o!tfac#1 田口囁一 taguchi shōichi shouichi
BeatmapID:3527454
BeatmapSetID:1726067

[Difficulty]
HPDrainRate:6
CircleSize:5
OverallDifficulty:6
ApproachRate:5
SliderMultiplier:1.4
SliderTickRate:1

[Events]
//Background and Video events
0,0,"bg.jpg",0,0
//Break Periods
//Storyboard Layer 0 (Background)
//Storyboard Layer 1 (Fail)
//Storyboard Layer 2 (Pass)
//Storyboard Layer 3 (Foreground)
//Storyboard Layer 4 (Overlay)
//Storyboard Sound Samples

[TimingPoints]
292,333.333333333333,7,1,0,30,1,0
292,-588.235294117647,7,1,0,30,0,0
791,-625,7,1,0,30,0,0
1291,-666.666666666667,7,1,0,30,0,0
1791,-714.285714285714,7,1,0,30,0,0
2291,-769.230769230769,7,1,0,30,0,0
2625,-588.235294117647,7,1,0,30,0,0
3125,-625,7,1,0,30,0,0
3625,-666.666666666667,7,1,0,30,0,0
4125,-714.285714285714,7,1,0,30,0,0
4625,-769.230769230769,7,1,0,30,0,0
4958,-588.235294117647,7,1,0,30,0,0
5458,-625,7,1,0,30,0,0
5958,-666.666666666667,7,1,0,30,0,0
6458,-714.285714285714,7,1,0,30,0,0
6958,-769.230769230769,7,1,0,30,0,0
7291,-588.235294117647,7,1,0,30,0,0
7791,-625,7,1,0,30,0,0
8291,-666.666666666667,7,1,0,30,0,0
8791,-714.285714285714,7,1,0,30,0,0
9291,-66.6666666666667,7,1,0,45,0,0
9625,-66.6666666666667,7,1,0,60,0,1
9958,-100,7,1,0,60,0,1
11958,333.333333333333,8,1,0,60,1,1
14625,333.333333333333,7,1,0,60,1,1
16958,333.333333333333,11,1,0,60,1,1
18291,-97.5609756097561,7,1,0,60,0,1
18458,-90.9090909090909,7,1,0,60,0,1
18791,-95.2380952380952,7,1,0,60,0,1
18957,-83.3333333333333,7,1,0,60,0,1
19291,-93.0232558139535,7,1,0,60,0,1
19457,-76.9230769230769,7,1,0,60,0,1
19791,-90.9090909090909,7,1,0,60,0,1
19957,-71.4285714285714,7,1,0,60,0,1
20291,-88.8888888888889,7,1,0,60,0,1
20624,-66.6666666666667,7,1,0,60,0,0
20625,333.333333333333,7,1,0,60,1,8
20958,-200,7,1,0,30,0,0
39458,-133.333333333333,7,1,0,40,0,0
48624,-111.111111111111,7,1,0,50,0,0
50958,333.333333333333,8,1,0,50,1,0
50958,-111.111111111111,8,1,0,50,0,0
53624,333.333333333333,7,1,0,50,1,0
53624,-111.111111111111,7,1,0,50,0,0
55957,333.333333333333,12,1,0,50,1,0
55957,-100,7,1,0,50,0,0
57457,-90.9090909090909,7,1,0,50,0,0
57790,-95.2380952380952,7,1,0,50,0,0
57957,-83.3333333333333,7,1,0,50,0,0
58290,-90.9090909090909,7,1,0,50,0,0
58457,-76.9230769230769,7,1,0,50,0,0
58790,-86.9565217391304,7,1,0,50,0,0
58957,-71.4285714285714,7,1,0,50,0,0
59512,-83.3333333333333,7,1,0,50,0,0
59956,-66.6666666666667,4,1,0,60,0,0
59957,333.333333333333,4,1,0,60,1,9
70623,-66.6666666666667,4,1,0,60,0,1
70845,-100,4,1,0,60,0,1
75956,-80,4,1,0,60,0,1
76179,-100,4,1,0,60,0,1
78623,-66.6666666666667,4,1,0,60,0,1
78901,-100,4,1,0,60,0,1
81290,-57.1428571428571,4,1,0,60,0,1
81456,-80,4,1,0,60,0,1
83956,-57.1428571428571,4,1,0,60,0,1
84290,-80,4,1,0,60,0,1
86623,-57.1428571428571,4,1,0,60,0,1
86956,-100,4,1,0,60,0,1
89290,-80,4,1,0,60,0,1
89623,-100,4,1,0,60,0,1
90456,-66.6666666666667,4,1,0,60,0,1
90623,-100,4,1,0,60,0,1
91956,-57.1428571428571,7,1,0,60,0,1
91957,333.333333333333,7,1,0,60,1,8
93123,-80,7,1,0,60,0,0
93234,-100,7,1,0,60,0,0
94290,333.333333333333,8,1,0,60,1,0
94290,-66.6666666666667,7,1,0,60,0,0
94623,-100,7,1,0,60,0,0
96956,-80,7,1,0,60,0,0
96958,333.333333333333,7,1,0,60,1,8
97458,-72.7272727272727,7,1,0,60,0,0
97624,-100,7,1,0,60,0,0
98124,-66.6666666666667,7,1,0,60,0,0
98235,-100,7,1,0,60,0,0
98458,-61.5384615384615,7,1,0,60,0,0
98624,-100,7,1,0,60,0,0
99291,333.333333333333,12,1,0,60,1,0
99291,-57.1428571428571,7,1,0,60,0,0
99624,-100,7,1,0,60,0,0
100791,-90.9090909090909,7,1,0,60,0,0
101124,-95.2380952380952,7,1,0,60,0,0
101291,-83.3333333333333,7,1,0,60,0,0
101624,-90.9090909090909,7,1,0,60,0,0
101791,-71.4285714285714,7,1,0,60,0,0
102124,-86.9565217391304,7,1,0,60,0,0
102291,-62.5,7,1,0,60,0,0
102624,-83.3333333333333,7,1,0,60,0,0
102791,-55.5555555555556,7,1,0,60,0,0
103124,-80,7,1,0,60,0,0
103291,-50,4,1,0,60,0,0
103292,333.333333333333,4,1,0,60,1,8
103625,-133.333333333333,4,1,0,40,0,0
113514,-100,4,1,0,40,0,0
113736,-80,4,1,0,40,0,0
113958,-66.6666666666667,4,1,0,40,0,0
114291,-133.333333333333,4,1,0,40,0,0
124625,-100,7,1,0,50,0,0
124626,333.333333333333,7,1,0,50,1,8
124626,-111.111111111111,7,1,0,50,0,0
126959,333.333333333333,8,1,0,50,1,0
126959,-111.111111111111,8,1,0,50,0,0
129627,333.333333333333,7,1,0,50,1,8
129627,-111.111111111111,7,1,0,50,0,0
131960,333.333333333333,12,1,0,50,1,0
131960,-86.9565217391304,7,1,0,50,0,0
132293,-100,7,1,0,50,0,0
133460,-76.9230769230769,7,1,0,50,0,0
133737,-95.2380952380952,7,1,0,50,0,0
134293,-90.9090909090909,7,1,0,50,0,0
134460,-68.9655172413793,7,1,0,50,0,0
134737,-86.9565217391304,7,1,0,50,0,0
134960,-83.3333333333333,7,1,0,50,0,0
135293,-90.9090909090909,7,1,0,50,0,0
135960,-57.1428571428571,4,1,0,60,0,0
135961,333.333333333333,4,1,0,60,1,9
141294,-66.6666666666667,4,1,0,60,0,1
141516,-100,4,1,0,60,0,1
146627,-57.1428571428571,4,1,0,60,0,1
146849,-100,4,1,0,60,0,1
151516,-66.6666666666667,4,1,0,60,0,1
151738,-57.1428571428571,4,1,0,60,0,1
151960,-50,4,1,0,60,0,1
152183,-100,4,1,0,60,0,1
157294,-50,4,1,0,60,0,1
157460,-100,4,1,0,60,0,1
162627,-57.1428571428571,4,1,0,60,0,1
162849,-100,4,1,0,60,0,1
166627,-57.1428571428571,4,1,0,60,0,1
166849,-100,4,1,0,60,0,1
167072,-53.3333333333333,4,1,0,60,0,1
167294,-50,4,1,0,60,0,1
167405,-100,4,1,0,60,0,1
167960,-44.4444444444445,4,1,0,60,0,1
168183,-100,4,1,0,60,0,1
170627,-50,4,1,0,60,0,1
170849,-100,4,1,0,60,0,1
173294,-47.0588235294118,4,1,0,60,0,1
173516,-100,4,1,0,60,0,1
175960,-44.4444444444445,4,1,0,60,0,1
176183,-100,4,1,0,60,0,1
178627,-40,4,1,0,60,0,1
178849,-80,4,1,0,60,0,1
179072,-40,4,1,0,60,0,1
179294,-80,4,1,0,60,0,1
179516,-40,4,1,0,60,0,1
179738,-80,4,1,0,60,0,1
179960,-40,4,1,0,60,0,1
180183,-80,4,1,0,60,0,1
180405,-40,4,1,0,60,0,1
181183,-80,4,1,0,60,0,1
181294,-40,4,1,0,60,0,1
181516,-80,4,1,0,60,0,1
181738,-40,4,1,0,60,0,1
182516,-80,4,1,0,60,0,1
182627,-40,4,1,0,60,0,1
182849,-80,4,1,0,60,0,1
183072,-40,4,1,0,60,0,1
183294,-80,4,1,0,60,0,1
183516,-40,4,1,0,60,0,1
183738,-80,4,1,0,60,0,1
183960,-40,4,1,0,60,0,1
184183,-100,4,1,0,60,0,1
187960,-66.6666666666667,4,1,0,60,0,1
188183,-57.1428571428571,4,1,0,60,0,1
188294,-100,4,1,0,60,0,1
188627,-50,4,1,0,60,0,1
188849,-44.4444444444445,4,1,0,60,0,1
188960,-100,4,1,0,60,0,1
189294,-40,4,1,0,60,0,0
189516,-100,4,1,0,60,0,0
189738,-40,4,1,0,60,0,0
189960,-100,4,1,0,60,0,0
190183,-40,4,1,0,60,0,0
190405,-100,4,1,0,60,0,0
190627,-40,4,1,0,60,0,0
190738,-100,4,1,0,60,0,0
191072,-40,4,1,0,60,0,0
191294,-100,4,1,0,60,0,0
191516,-40,4,1,0,60,0,0
191738,-100,4,1,0,60,0,0
191960,-40,4,1,0,60,0,0
192183,-100,4,1,0,60,0,0
192405,-40,4,1,0,60,0,0
192627,-100,4,1,0,60,0,0
192849,-40,4,1,0,60,0,0
192960,-100,4,1,0,60,0,0
193294,-40,4,1,0,60,0,0
193960,-100,4,1,0,60,0,0
194183,-40,4,1,0,60,0,0
194460,-100,4,1,0,60,0,0
194627,-40,4,1,0,60,0,0
194849,-100,4,1,0,60,0,0
195072,-40,4,1,0,60,0,0
195294,-100,4,1,0,60,0,0
195516,-40,4,1,0,60,0,0
195738,-100,4,1,0,60,0,0
195960,-40,4,1,0,60,0,0
196072,-100,4,1,0,60,0,0
196405,-40,4,1,0,60,0,0
196669,-100,4,1,0,60,0,0
196877,-40,4,1,0,60,0,0
197002,-100,4,1,0,60,0,0
197294,-40,4,1,0,60,0,0
197516,-100,4,1,0,60,0,0
198627,-40,4,1,0,60,0,0
199294,-66.6666666666667,4,1,0,50,0,0
199960,-100,4,1,0,40,0,0
200655,-200,4,1,0,30,0,0
200794,-200.721392685311,4,1,0,30,0,0
201044,-202.032446410894,4,1,0,30,0,0
201294,-203.361153139083,4,1,0,30,0,0
201377,-203.807947694728,4,1,0,30,0,0
201710,-205.614932578864,4,1,0,30,0,0
201988,-207.145268905631,4,1,0,30,0,0
202127,-207.918795235333,4,1,0,30,0,0
202627,-210.753041693274,4,1,0,30,0,0
203044,-213.174617724617,4,1,0,30,0,0
203322,-214.820002320056,4,1,0,30,0,0
203460,-215.652023894244,4,1,0,30,0,0
203738,-217.336025402235,4,1,0,30,0,0
203960,-218.702568880374,4,1,0,30,0,0
204072,-219.392064589024,4,1,0,30,0,0
204627,-222.906296879981,4,1,0,30,0,0
204766,-223.802767097412,4,1,0,30,0,0
205294,-227.274793407213,4,1,0,30,0,0
205349,-227.646792342873,4,1,0,30,0,0
205405,-228.020011036169,4,1,0,30,0,0
205710,-230.093463965063,4,1,0,30,0,0
205988,-232.011563456323,4,1,0,30,0,0
206127,-232.982927011109,4,1,0,30,0,0
206405,-234.949709014785,4,1,0,30,0,0
206627,-236.546981778786,4,1,0,30,0,0
206710,-237.151713065399,4,1,0,30,0,0
207322,-241.682496870212,4,1,0,30,0,0
207460,-242.736710771927,4,1,0,30,0,0
207710,-244.656697721757,4,1,0,30,0,0
207960,-246.607908222401,4,1,0,30,0,0
208016,-247.045948075883,4,1,0,30,0,0
208072,-247.484934354621,4,1,0,30,0,0
208127,-247.926098188652,4,1,0,30,0,0
208405,-250.154470385463,4,1,0,30,0,0
208655,-252.194724590751,4,1,0,30,0,0
208794,-253.342217200417,4,1,0,30,0,0
209016,-255.20099630469,4,1,0,30,0,0
209294,-257.562684318296,4,1,0,30,0,0
209322,-257.801060077959,4,1,0,30,0,0
210627,-269.53596687942,4,1,0,30,0,0
210710,-270.321412159057,4,1,0,30,0,0
210849,-133.333333333333,4,1,0,30,0,0
211044,-273.508761853186,4,1,0,30,0,0
211322,-276.223254683365,4,1,0,30,0,0
211460,-277.601192574723,4,1,0,30,0,0
211683,-279.833778735431,4,1,0,30,0,0
211960,-282.675923360904,4,1,0,30,0,0
211988,-282.963876831484,4,1,0,30,0,0
212655,-290.040866758126,4,1,0,30,0,0
212794,-291.560490054872,4,1,0,30,0,0
213016,-294.024251120232,4,1,0,30,0,0
213294,-297.163573689137,4,1,0,30,0,0
213738,-302.328534371731,4,1,0,30,0,0
213988,-305.313679274086,4,1,0,30,0,0
214127,-306.998019862772,4,1,0,30,0,0
214294,-309.04258606836,4,1,0,30,0,0
214627,-313.216482704186,4,1,0,30,0,0
214655,-313.56907456359,4,1,0,30,0,0
215322,-322.284351483314,4,1,0,30,0,0
215960,-166.666666666667,4,1,0,30,0,0
216349,-336.710540050035,4,1,0,30,0,0
216627,-340.833952515014,4,1,0,30,0,0
216766,-342.934352076982,4,1,0,30,0,0
216960,-345.917823761787,4,1,0,30,0,0
217294,-351.155653254862,4,1,0,30,0,0
217322,-351.598895979467,4,1,0,30,0,0
217960,-362.120723806903,4,1,0,30,0,0
218099,-364.492589865648,4,1,0,30,0,0
218294,-367.864802327848,4,1,0,30,0,0
218627,-373.792649741335,4,1,0,30,0,0
219044,-381.478457911482,4,1,0,30,0,0
219322,-386.779864240268,4,1,0,30,0,0
219460,-389.486967766059,4,1,0,30,0,0
219627,-392.785319255908,4,1,0,30,0,0
219960,-399.550904783024,4,1,0,30,0,0
220488,-410.755214537449,4,1,0,30,0,0
220822,-418.161594366527,4,1,0,30,0,0
220960,-421.325828115915,4,1,0,30,0,0
221294,-429.121930705391,4,1,0,30,0,0
221572,-200,4,1,0,30,0,0
221738,-439.976241282971,4,1,0,30,0,0
222016,-447.043255905441,4,1,0,30,0,0
222155,-450.663602154172,4,1,0,30,0,0
222322,-455.083280240284,4,1,0,30,0,0
222627,-463.419946521338,4,1,0,30,0,0
223294,-482.709351045548,4,1,0,30,0,0
223433,-486.933148947981,4,1,0,30,0,0
223627,-492.970244316053,4,1,0,30,0,0
223960,-503.676840938854,4,1,0,30,0,0
224349,-516.769159216578,4,1,0,30,0,0
224655,-527.543021133373,4,1,0,30,0,0
224794,-532.591965317611,4,1,0,30,0,0
225016,-540.870910339829,4,1,0,30,0,0
225294,-551.590234646486,4,1,0,30,0,0
225322,-552.687720384228,4,1,0,30,0,0
226016,-581.561026106275,4,1,0,30,0,0
226266,-592.704987019761,4,1,0,30,0,0
226627,-609.581400452309,4,1,0,30,0,0
227294,-643.405416186793,4,1,0,30,0,0
227433,-650.92724586173,4,1,0,30,0,0
227627,-661.760813171687,4,1,0,30,0,0
227933,-679.537099327938,4,1,0,30,0,0
227960,-681.198910081744,4,1,0,30,0,0
228655,-725.599889708817,4,1,0,30,0,0
228794,-735.180597113681,4,1,0,30,0,0
228960,-747.021252754641,4,1,0,30,0,0
229294,-771.884865653439,4,1,0,30,0,0
229377,-778.361548939482,4,1,0,30,0,0
229794,-812.440082543912,4,1,0,30,0,0
230127,-841.935103642211,4,1,0,30,0,0
230266,-854.868905853287,4,1,0,30,0,0
230572,-884.7600088476,4,1,0,30,0,0
230627,-890.424376257724,4,1,0,30,0,0
230877,-916.817177486637,4,1,0,30,0,0
231322,-500,4,1,0,30,0,0
231572,-999.100809271656,4,1,0,30,0,0

[HitObjects]
256,192,292,5,0,0:0:0:0:
256,192,791,1,0,0:0:0:0:
256,192,1291,1,8,0:0:0:0:
256,192,1791,1,0,0:0:0:0:
256,192,2291,1,0,0:0:0:0:
256,192,2625,1,0,0:0:0:0:
256,192,3125,1,0,0:0:0:0:
256,192,3625,1,8,0:0:0:0:
256,192,4125,1,0,0:0:0:0:
256,192,4625,1,0,0:0:0:0:
256,192,4958,1,0,0:0:0:0:
256,192,5458,1,0,0:0:0:0:
256,192,5958,1,8,0:0:0:0:
256,192,6458,1,0,0:0:0:0:
256,192,6958,1,0,0:0:0:0:
256,192,7291,1,0,0:0:0:0:
256,192,7791,1,0,0:0:0:0:
256,192,8291,1,8,0:0:0:0:
256,192,8791,1,0,0:0:0:0:
256,192,9291,1,4,0:0:0:0:
256,192,9625,1,12,0:0:0:0:
256,192,9958,1,8,0:0:0:0:
256,192,10041,1,0,0:0:0:0:
256,192,10125,1,0,0:0:0:0:
256,192,10291,1,8,0:0:0:0:
256,192,10458,1,0,0:0:0:0:
256,192,10625,1,0,0:0:0:0:
256,192,10791,1,8,0:0:0:0:
256,192,10903,1,8,0:0:0:0:
256,192,10958,1,0,0:0:0:0:
256,192,11041,1,8,0:0:0:0:
256,192,11125,1,0,0:0:0:0:
256,192,11291,1,8,0:0:0:0:
256,192,11375,1,8,0:0:0:0:
256,192,11458,1,0,0:0:0:0:
256,192,11541,1,0,0:0:0:0:
256,192,11625,1,8,0:0:0:0:
256,192,11875,1,0,0:0:0:0:
256,192,11958,1,8,0:0:0:0:
256,192,12124,1,0,0:0:0:0:
256,192,12291,1,8,0:0:0:0:
256,192,12374,1,8,0:0:0:0:
256,192,12458,1,0,0:0:0:0:
256,192,12624,1,8,0:0:0:0:
256,192,12902,1,8,0:0:0:0:
256,192,12957,1,0,0:0:0:0:
256,192,13124,1,8,0:0:0:0:
256,192,13291,1,0,0:0:0:0:
256,192,13374,1,8,0:0:0:0:
256,192,13457,1,0,0:0:0:0:
256,192,13624,1,8,0:0:0:0:
256,192,13707,1,8,0:0:0:0:
256,192,13791,1,0,0:0:0:0:
256,192,13874,1,8,0:0:0:0:
256,192,13957,1,0,0:0:0:0:
256,192,14124,1,0,0:0:0:0:
256,192,14291,1,8,0:0:0:0:
256,192,14457,1,8,0:0:0:0:
256,192,14541,1,8,0:0:0:0:
256,192,14625,1,0,0:0:0:0:
256,192,14958,1,8,0:0:0:0:
256,192,15041,1,0,0:0:0:0:
256,192,15125,1,0,0:0:0:0:
256,192,15291,1,8,0:0:0:0:
256,192,15458,1,8,0:0:0:0:
256,192,15541,1,8,0:0:0:0:
256,192,15624,1,0,0:0:0:0:
256,192,15791,1,8,0:0:0:0:
256,192,15902,1,8,0:0:0:0:
256,192,15958,1,0,0:0:0:0:
256,192,16041,1,0,0:0:0:0:
256,192,16124,1,8,0:0:0:0:
256,192,16291,1,0,0:0:0:0:
256,192,16347,1,8,0:0:0:0:
256,192,16458,1,0,0:0:0:0:
256,192,16541,1,8,0:0:0:0:
256,192,16624,1,0,0:0:0:0:
256,192,16791,1,8,0:0:0:0:
256,192,16874,1,8,0:0:0:0:
256,192,16958,1,0,0:0:0:0:
256,192,17124,1,0,0:0:0:0:
256,192,17208,1,0,0:0:0:0:
256,192,17291,1,8,0:0:0:0:
256,192,17458,1,0,0:0:0:0:
256,192,17624,1,8,0:0:0:0:
256,192,17958,1,8,0:0:0:0:
256,192,18291,1,0,0:0:0:0:
256,192,18458,1,12,0:0:0:0:
256,192,18791,1,0,0:0:0:0:
256,192,18957,1,12,0:0:0:0:
256,192,19291,1,0,0:0:0:0:
256,192,19457,1,12,0:0:0:0:
256,192,19791,1,0,0:0:0:0:
256,192,19957,1,12,0:0:0:0:
256,192,20291,1,8,0:0:0:0:
256,192,20624,1,4,0:0:0:0:
256,192,20958,1,0,0:0:0:0:
256,192,21291,1,8,0:0:0:0:
256,192,21541,1,8,0:0:0:0:
256,192,21625,1,0,0:0:0:0:
256,192,21791,1,8,0:0:0:0:
256,192,22125,1,0,0:0:0:0:
256,192,22291,1,8,0:0:0:0:
256,192,22541,1,8,0:0:0:0:
256,192,22624,1,0,0:0:0:0:
256,192,22791,1,8,0:0:0:0:
256,192,22958,1,0,0:0:0:0:
256,192,23291,1,0,0:0:0:0:
256,192,23624,1,8,0:0:0:0:
256,192,23874,1,8,0:0:0:0:
256,192,23958,1,0,0:0:0:0:
256,192,24124,1,8,0:0:0:0:
256,192,24458,1,0,0:0:0:0:
256,192,24624,1,8,0:0:0:0:
256,192,24791,1,0,0:0:0:0:
256,192,24874,1,8,0:0:0:0:
256,192,24958,1,0,0:0:0:0:
256,192,25124,1,8,0:0:0:0:
256,192,25291,1,0,0:0:0:0:
256,192,25624,1,0,0:0:0:0:
256,192,25958,1,8,0:0:0:0:
256,192,26208,1,8,0:0:0:0:
256,192,26291,1,0,0:0:0:0:
256,192,26458,1,8,0:0:0:0:
256,192,26791,1,0,0:0:0:0:
256,192,26958,1,8,0:0:0:0:
256,192,27208,1,8,0:0:0:0:
256,192,27291,1,0,0:0:0:0:
256,192,27458,1,8,0:0:0:0:
256,192,27624,1,0,0:0:0:0:
256,192,27958,1,0,0:0:0:0:
256,192,28291,1,8,0:0:0:0:
256,192,28541,1,8,0:0:0:0:
256,192,28624,1,0,0:0:0:0:
256,192,28791,1,8,0:0:0:0:
256,192,28958,1,0,0:0:0:0:
256,192,29013,1,8,0:0:0:0:
256,192,29291,1,8,0:0:0:0:
256,192,29541,1,8,0:0:0:0:
256,192,29624,1,0,0:0:0:0:
256,192,29791,1,8,0:0:0:0:
256,192,29958,1,8,0:0:0:0:
256,192,30291,1,0,0:0:0:0:
256,192,30624,1,8,0:0:0:0:
256,192,30874,1,8,0:0:0:0:
256,192,30958,1,0,0:0:0:0:
256,192,31124,1,8,0:0:0:0:
256,192,31458,1,0,0:0:0:0:
256,192,31624,1,8,0:0:0:0:
256,192,31874,1,8,0:0:0:0:
256,192,31958,1,0,0:0:0:0:
256,192,32124,1,8,0:0:0:0:
256,192,32291,1,0,0:0:0:0:
256,192,32624,1,8,0:0:0:0:
256,192,32958,1,8,0:0:0:0:
256,192,33208,1,8,0:0:0:0:
256,192,33291,1,0,0:0:0:0:
256,192,33458,1,8,0:0:0:0:
256,192,33791,1,0,0:0:0:0:
256,192,33958,1,8,0:0:0:0:
256,192,34208,1,8,0:0:0:0:
256,192,34291,1,0,0:0:0:0:
256,192,34374,1,8,0:0:0:0:
256,192,34541,1,8,0:0:0:0:
256,192,34624,1,0,0:0:0:0:
256,192,34958,1,0,0:0:0:0:
256,192,35291,1,8,0:0:0:0:
256,192,35541,1,8,0:0:0:0:
256,192,35624,1,0,0:0:0:0:
256,192,35791,1,8,0:0:0:0:
256,192,36124,1,0,0:0:0:0:
256,192,36291,1,8,0:0:0:0:
256,192,36541,1,8,0:0:0:0:
256,192,36624,1,0,0:0:0:0:
256,192,36791,1,8,0:0:0:0:
256,192,36958,1,0,0:0:0:0:
256,192,37291,1,0,0:0:0:0:
256,192,37624,1,8,0:0:0:0:
256,192,37874,1,8,0:0:0:0:
256,192,37958,1,0,0:0:0:0:
256,192,38124,1,8,0:0:0:0:
256,192,38291,1,0,0:0:0:0:
256,192,38624,1,8,0:0:0:0:
256,192,38791,1,0,0:0:0:0:
256,192,38958,1,8,0:0:0:0:
256,192,39458,1,12,0:0:0:0:
256,192,39624,1,0,0:0:0:0:
256,192,39791,1,0,0:0:0:0:
256,192,39874,1,0,0:0:0:0:
256,192,39958,1,8,0:0:0:0:
256,192,40291,1,0,0:0:0:0:
256,192,40458,1,8,0:0:0:0:
256,192,40791,1,0,0:0:0:0:
256,192,40958,1,8,0:0:0:0:
256,192,41208,1,8,0:0:0:0:
256,192,41291,1,0,0:0:0:0:
256,192,41458,1,8,0:0:0:0:
256,192,41541,1,8,0:0:0:0:
256,192,41624,1,0,0:0:0:0:
256,192,41791,1,0,0:0:0:0:
256,192,41958,1,8,0:0:0:0:
256,192,42291,1,0,0:0:0:0:
256,192,42624,1,0,0:0:0:0:
256,192,42791,1,8,0:0:0:0:
256,192,42958,1,8,0:0:0:0:
256,192,43041,1,8,0:0:0:0:
256,192,43124,1,0,0:0:0:0:
256,192,43291,1,8,0:0:0:0:
256,192,43458,1,0,0:0:0:0:
256,192,43624,1,8,0:0:0:0:
256,192,43791,1,0,0:0:0:0:
256,192,43874,1,8,0:0:0:0:
256,192,43958,1,0,0:0:0:0:
256,192,44291,1,0,0:0:0:0:
256,192,44569,1,0,0:0:0:0:
256,192,44624,1,8,0:0:0:0:
256,192,44791,1,8,0:0:0:0:
256,192,44902,1,8,0:0:0:0:
256,192,44958,1,0,0:0:0:0:
256,192,45124,1,0,0:0:0:0:
256,192,45291,1,8,0:0:0:0:
256,192,45374,1,8,0:0:0:0:
256,192,45458,1,0,0:0:0:0:
256,192,45541,1,0,0:0:0:0:
256,192,45624,1,8,0:0:0:0:
256,192,45874,1,8,0:0:0:0:
256,192,45958,1,0,0:0:0:0:
256,192,46124,1,8,0:0:0:0:
256,192,46291,1,8,0:0:0:0:
256,192,46458,1,0,0:0:0:0:
256,192,46624,1,8,0:0:0:0:
256,192,46791,1,0,0:0:0:0:
256,192,46902,1,0,0:0:0:0:
256,192,46958,1,8,0:0:0:0:
256,192,47208,1,8,0:0:0:0:
256,192,47291,1,0,0:0:0:0:
256,192,47458,1,8,0:0:0:0:
256,192,47624,1,0,0:0:0:0:
256,192,47791,1,0,0:0:0:0:
256,192,47958,1,8,0:0:0:0:
256,192,48124,1,0,0:0:0:0:
256,192,48291,1,8,0:0:0:0:
256,192,48374,1,8,0:0:0:0:
256,192,48458,1,8,0:0:0:0:
256,192,48541,1,8,0:0:0:0:
256,192,48624,1,4,0:0:0:0:
256,192,48958,1,8,0:0:0:0:
256,192,49124,1,0,0:0:0:0:
256,192,49236,1,0,0:0:0:0:
256,192,49291,1,8,0:0:0:0:
256,192,49624,1,0,0:0:0:0:
256,192,49791,1,8,0:0:0:0:
256,192,50069,1,0,0:0:0:0:
256,192,50124,1,8,0:0:0:0:
256,192,50374,1,8,0:0:0:0:
256,192,50458,1,0,0:0:0:0:
256,192,50624,1,8,0:0:0:0:
256,192,50791,1,8,0:0:0:0:
256,192,50874,1,8,0:0:0:0:
256,192,50958,1,0,0:0:0:0:
256,192,51124,1,0,0:0:0:0:
256,192,51291,1,8,0:0:0:0:
256,192,51624,1,8,0:0:0:0:
256,192,51791,1,8,0:0:0:0:
256,192,51874,1,8,0:0:0:0:
256,192,51958,1,0,0:0:0:0:
256,192,52124,1,8,0:0:0:0:
256,192,52235,1,8,0:0:0:0:
256,192,52291,1,0,0:0:0:0:
256,192,52374,1,0,0:0:0:0:
256,192,52458,1,8,0:0:0:0:
256,192,52624,1,8,0:0:0:0:
256,192,52791,1,0,0:0:0:0:
256,192,52874,1,8,0:0:0:0:
256,192,52958,1,0,0:0:0:0:
256,192,53124,1,8,0:0:0:0:
256,192,53291,1,8,0:0:0:0:
256,192,53458,1,0,0:0:0:0:
256,192,53624,1,8,0:0:0:0:
256,192,53957,1,0,0:0:0:0:
256,192,54124,1,8,0:0:0:0:
256,192,54290,1,0,0:0:0:0:
256,192,54457,1,8,0:0:0:0:
256,192,54568,1,8,0:0:0:0:
256,192,54624,1,0,0:0:0:0:
256,192,54818,1,0,0:0:0:0:
256,192,54901,1,8,0:0:0:0:
256,192,55124,1,8,0:0:0:0:
256,192,55374,1,8,0:0:0:0:
256,192,55457,1,0,0:0:0:0:
256,192,55540,1,0,0:0:0:0:
256,192,55624,1,8,0:0:0:0:
256,192,55874,1,0,0:0:0:0:
256,192,55957,1,12,0:0:0:0:
256,192,56290,1,0,0:0:0:0:
256,192,56457,1,8,0:0:0:0:
256,192,56623,1,8,0:0:0:0:
256,192,56873,1,8,0:0:0:0:
256,192,56957,1,0,0:0:0:0:
256,192,57123,1,8,0:0:0:0:
256,192,57179,1,8,0:0:0:0:
256,192,57234,1,0,0:0:0:0:
256,192,57290,1,0,0:0:0:0:
256,192,57457,1,12,0:0:0:0:
256,192,57790,1,0,0:0:0:0:
256,192,57957,1,12,0:0:0:0:
256,192,58290,1,0,0:0:0:0:
256,192,58457,1,12,0:0:0:0:
256,192,58790,1,0,0:0:0:0:
190,224,58957,1,12,0:0:0:0:
256,192,59512,1,0,0:0:0:0:
256,192,59568,1,0,0:0:0:0:
256,192,59623,1,8,0:0:0:0:
256,192,59679,1,8,0:0:0:0:
256,192,59734,1,0,0:0:0:0:
256,192,59790,1,0,0:0:0:0:
256,192,59845,1,8,0:0:0:0:
256,192,59901,1,8,0:0:0:0:
256,192,59956,1,4,0:0:0:0:
256,192,60179,1,0,0:0:0:0:
256,192,60290,1,8,0:0:0:0:
256,192,60401,1,8,0:0:0:0:
256,192,60457,1,0,0:0:0:0:
256,192,60623,1,8,0:0:0:0:
256,192,60845,1,0,0:0:0:0:
256,192,60957,1,8,0:0:0:0:
256,192,61068,1,8,0:0:0:0:
256,192,61179,1,8,0:0:0:0:
256,192,61290,1,0,0:0:0:0:
256,192,61512,1,0,0:0:0:0:
256,192,61623,1,0,0:0:0:0:
256,192,61734,1,8,0:0:0:0:
256,192,61957,1,8,0:0:0:0:
256,192,62123,1,0,0:0:0:0:
256,192,62179,1,8,0:0:0:0:
256,192,62290,1,0,0:0:0:0:
256,192,62401,1,0,0:0:0:0:
256,192,62512,1,0,0:0:0:0:
256,192,62623,1,8,0:0:0:0:
256,192,62845,1,0,0:0:0:0:
256,192,62957,1,8,0:0:0:0:
256,192,63068,1,8,0:0:0:0:
256,192,63123,1,0,0:0:0:0:
256,192,63290,1,8,0:0:0:0:
256,192,63512,1,8,0:0:0:0:
256,192,63623,1,0,0:0:0:0:
256,192,63734,1,0,0:0:0:0:
256,192,63845,1,0,0:0:0:0:
256,192,63956,1,8,0:0:0:0:
256,192,64123,1,8,0:0:0:0:
256,192,64179,1,0,0:0:0:0:
256,192,64290,1,8,0:0:0:0:
256,192,64401,1,0,0:0:0:0:
256,192,64623,1,8,0:0:0:0:
256,192,64734,1,0,0:0:0:0:
256,192,64790,1,0,0:0:0:0:
256,192,64845,1,8,0:0:0:0:
256,192,64956,1,0,0:0:0:0:
256,192,65068,1,8,0:0:0:0:
256,192,65179,1,8,0:0:0:0:
256,192,65290,1,0,0:0:0:0:
256,192,65512,1,0,0:0:0:0:
256,192,65623,1,0,0:0:0:0:
256,192,65734,1,0,0:0:0:0:
256,192,65790,1,8,0:0:0:0:
256,192,65957,1,8,0:0:0:0:
256,192,66179,1,0,0:0:0:0:
256,192,66290,1,8,0:0:0:0:
256,192,66401,1,0,0:0:0:0:
256,192,66457,1,0,0:0:0:0:
256,192,66512,1,8,0:0:0:0:
256,192,66623,1,0,0:0:0:0:
256,192,66845,1,0,0:0:0:0:
256,192,66957,1,8,0:0:0:0:
256,192,67068,1,0,0:0:0:0:
256,192,67290,1,8,0:0:0:0:
256,192,67512,1,0,0:0:0:0:
256,192,67623,1,8,0:0:0:0:
256,192,67734,1,0,0:0:0:0:
256,192,67845,1,0,0:0:0:0:
256,192,67956,1,8,0:0:0:0:
256,192,68179,1,0,0:0:0:0:
256,192,68290,1,8,0:0:0:0:
256,192,68401,1,8,0:0:0:0:
256,192,68456,1,0,0:0:0:0:
256,192,68623,1,8,0:0:0:0:
256,192,68845,1,0,0:0:0:0:
256,192,68956,1,8,0:0:0:0:
256,192,69068,1,8,0:0:0:0:
256,192,69123,1,0,0:0:0:0:
256,192,69179,1,8,0:0:0:0:
256,192,69290,1,0,0:0:0:0:
256,192,69512,1,0,0:0:0:0:
256,192,69623,1,8,0:0:0:0:
256,192,69734,1,0,0:0:0:0:
256,192,69790,1,0,0:0:0:0:
256,192,69845,1,8,0:0:0:0:
256,192,69956,1,0,0:0:0:0:
256,192,70068,1,8,0:0:0:0:
256,192,70179,1,8,0:0:0:0:
256,192,70290,1,0,0:0:0:0:
256,192,70401,1,0,0:0:0:0:
256,192,70512,1,0,0:0:0:0:
256,192,70623,1,12,0:0:0:0:
256,192,70845,1,0,0:0:0:0:
256,192,70956,1,8,0:0:0:0:
256,192,71068,1,8,0:0:0:0:
256,192,71123,1,0,0:0:0:0:
256,192,71290,1,8,0:0:0:0:
256,192,71456,1,0,0:0:0:0:
256,192,71512,1,8,0:0:0:0:
256,192,71623,1,0,0:0:0:0:
256,192,71734,1,0,0:0:0:0:
256,192,71845,1,0,0:0:0:0:
256,192,71956,1,8,0:0:0:0:
256,192,72068,1,0,0:0:0:0:
256,192,72123,1,0,0:0:0:0:
256,192,72179,1,8,0:0:0:0:
256,192,72290,1,8,0:0:0:0:
256,192,72401,1,0,0:0:0:0:
256,192,72623,1,8,0:0:0:0:
256,192,72845,1,0,0:0:0:0:
256,192,72956,1,8,0:0:0:0:
256,192,73068,1,8,0:0:0:0:
256,192,73179,1,8,0:0:0:0:
256,192,73290,1,0,0:0:0:0:
256,192,73512,1,0,0:0:0:0:
256,192,73623,1,8,0:0:0:0:
256,192,73734,1,8,0:0:0:0:
256,192,73790,1,0,0:0:0:0:
256,192,73956,1,8,0:0:0:0:
256,192,74179,1,0,0:0:0:0:
256,192,74290,1,0,0:0:0:0:
256,192,74401,1,8,0:0:0:0:
256,192,74512,1,8,0:0:0:0:
256,192,74623,1,0,0:0:0:0:
256,192,74790,1,8,0:0:0:0:
256,192,74845,1,0,0:0:0:0:
256,192,74956,1,8,0:0:0:0:
256,192,75068,1,0,0:0:0:0:
256,192,75290,1,8,0:0:0:0:
256,192,75401,1,0,0:0:0:0:
256,192,75512,1,0,0:0:0:0:
256,192,75623,1,8,0:0:0:0:
256,192,75734,1,8,0:0:0:0:
256,192,75845,1,8,0:0:0:0:
256,192,75956,1,4,0:0:0:0:
256,192,76179,1,0,0:0:0:0:
256,192,76290,1,0,0:0:0:0:
256,192,76401,1,0,0:0:0:0:
256,192,76456,1,8,0:0:0:0:
256,192,76623,1,8,0:0:0:0:
256,192,76845,1,0,0:0:0:0:
256,192,76956,1,8,0:0:0:0:
256,192,77068,1,0,0:0:0:0:
256,192,77123,1,0,0:0:0:0:
256,192,77179,1,8,0:0:0:0:
256,192,77290,1,8,0:0:0:0:
256,192,77401,1,0,0:0:0:0:
256,192,77512,1,0,0:0:0:0:
256,192,77623,1,0,0:0:0:0:
256,192,77734,1,8,0:0:0:0:
256,192,77956,1,8,0:0:0:0:
256,192,78179,1,0,0:0:0:0:
256,192,78290,1,8,0:0:0:0:
256,192,78401,1,8,0:0:0:0:
256,192,78512,1,8,0:0:0:0:
256,192,78623,1,4,0:0:0:0:
256,192,78901,1,8,0:0:0:0:
256,192,79040,1,8,0:0:0:0:
256,192,79123,1,0,0:0:0:0:
256,192,79290,1,8,0:0:0:0:
256,192,79512,1,8,0:0:0:0:
256,192,79623,1,0,0:0:0:0:
256,192,79845,1,8,0:0:0:0:
256,192,79956,1,8,0:0:0:0:
256,192,80123,1,0,0:0:0:0:
256,192,80290,1,8,0:0:0:0:
256,192,80456,1,0,0:0:0:0:
256,192,80623,1,8,0:0:0:0:
256,192,80706,1,8,0:0:0:0:
256,192,80790,1,8,0:0:0:0:
256,192,80873,1,8,0:0:0:0:
256,192,80956,1,0,0:0:0:0:
256,192,81040,1,0,0:0:0:0:
256,192,81123,1,0,0:0:0:0:
256,192,81206,1,0,0:0:0:0:
256,192,81290,1,12,0:0:0:0:
256,192,81456,1,0,0:0:0:0:
256,192,81623,1,8,0:0:0:0:
256,192,81790,1,0,0:0:0:0:
256,192,81956,1,8,0:0:0:0:
256,192,82123,1,0,0:0:0:0:
256,192,82290,1,0,0:0:0:0:
256,192,82456,1,8,0:0:0:0:
256,192,82790,1,0,0:0:0:0:
256,192,82956,1,8,0:0:0:0:
256,192,83123,1,0,0:0:0:0:
256,192,83290,1,8,0:0:0:0:
256,192,83568,1,8,0:0:0:0:
256,192,83623,1,0,0:0:0:0:
256,192,83790,1,8,0:0:0:0:
256,192,83956,1,12,0:0:0:0:
256,192,84290,1,8,0:0:0:0:
256,192,84456,1,0,0:0:0:0:
256,192,84623,1,8,0:0:0:0:
256,192,84790,1,0,0:0:0:0:
256,192,84956,1,8,0:0:0:0:
256,192,85123,1,8,0:0:0:0:
256,192,85401,1,8,0:0:0:0:
256,192,85456,1,0,0:0:0:0:
256,192,85623,1,8,0:0:0:0:
256,192,85790,1,0,0:0:0:0:
256,192,85956,1,8,0:0:0:0:
256,192,86040,1,8,0:0:0:0:
256,192,86123,1,8,0:0:0:0:
256,192,86206,1,8,0:0:0:0:
256,192,86290,1,0,0:0:0:0:
256,192,86373,1,0,0:0:0:0:
256,192,86456,1,0,0:0:0:0:
256,192,86540,1,0,0:0:0:0:
256,192,86623,1,12,0:0:0:0:
256,192,86956,1,8,0:0:0:0:
256,192,87123,1,0,0:0:0:0:
256,192,87234,1,0,0:0:0:0:
256,192,87290,1,8,0:0:0:0:
256,192,87373,1,8,0:0:0:0:
256,192,87456,1,0,0:0:0:0:
256,192,87623,1,0,0:0:0:0:
256,192,87790,1,8,0:0:0:0:
256,192,88123,1,0,0:0:0:0:
256,192,88290,1,8,0:0:0:0:
256,192,88456,1,8,0:0:0:0:
256,192,88540,1,8,0:0:0:0:
256,192,88623,1,0,0:0:0:0:
256,192,88790,1,8,0:0:0:0:
256,192,88956,1,0,0:0:0:0:
256,192,89123,1,0,0:0:0:0:
256,192,89206,1,0,0:0:0:0:
256,192,89290,1,12,0:0:0:0:
256,192,89623,1,0,0:0:0:0:
256,192,89790,1,0,0:0:0:0:
256,192,89873,1,0,0:0:0:0:
256,192,89956,1,8,0:0:0:0:
256,192,90040,1,8,0:0:0:0:
256,192,90123,1,0,0:0:0:0:
256,192,90290,1,0,0:0:0:0:
256,192,90456,1,12,0:0:0:0:
256,192,90790,1,8,0:0:0:0:
256,192,90956,1,8,0:0:0:0:
256,192,91123,1,8,0:0:0:0:
256,192,91206,1,8,0:0:0:0:
256,192,91290,1,0,0:0:0:0:
256,192,91373,1,8,0:0:0:0:
256,192,91456,1,0,0:0:0:0:
256,192,91540,1,0,0:0:0:0:
256,192,91623,1,8,0:0:0:0:
256,192,91706,1,8,0:0:0:0:
256,192,91790,1,0,0:0:0:0:
256,192,91845,1,8,0:0:0:0:
256,192,91956,1,12,0:0:0:0:
256,192,92290,1,8,0:0:0:0:
256,192,92457,1,0,0:0:0:0:
256,192,92623,1,8,0:0:0:0:
256,192,92790,1,0,0:0:0:0:
256,192,92957,1,0,0:0:0:0:
256,192,93123,1,12,0:0:0:0:
256,192,93234,1,8,0:0:0:0:
256,192,93290,1,0,0:0:0:0:
256,192,93457,1,0,0:0:0:0:
256,192,93623,1,8,0:0:0:0:
256,192,93707,1,8,0:0:0:0:
256,192,93790,1,0,0:0:0:0:
256,192,93873,1,8,0:0:0:0:
256,192,93957,1,0,0:0:0:0:
256,192,94040,1,0,0:0:0:0:
256,192,94207,1,0,0:0:0:0:
256,192,94290,1,12,0:0:0:0:
256,192,94623,1,0,0:0:0:0:
256,192,94790,1,0,0:0:0:0:
256,192,94956,1,8,0:0:0:0:
256,192,95123,1,8,0:0:0:0:
256,192,95206,1,8,0:0:0:0:
256,192,95290,1,0,0:0:0:0:
256,192,95456,1,8,0:0:0:0:
256,192,95567,1,8,0:0:0:0:
256,192,95623,1,0,0:0:0:0:
256,192,95790,1,0,0:0:0:0:
256,192,95956,1,8,0:0:0:0:
256,192,96123,1,0,0:0:0:0:
256,192,96178,1,0,0:0:0:0:
256,192,96234,1,8,0:0:0:0:
256,192,96290,1,0,0:0:0:0:
256,192,96456,1,0,0:0:0:0:
256,192,96540,1,8,0:0:0:0:
256,192,96623,1,0,0:0:0:0:
256,192,96706,1,8,0:0:0:0:
256,192,96790,1,0,0:0:0:0:
256,192,96845,1,0,0:0:0:0:
256,192,96956,1,12,0:0:0:0:
256,192,97291,1,0,0:0:0:0:
256,192,97458,1,12,0:0:0:0:
256,192,97624,1,8,0:0:0:0:
256,192,97846,1,8,0:0:0:0:
256,192,97958,1,0,0:0:0:0:
256,192,98124,1,4,0:0:0:0:
256,192,98235,1,8,0:0:0:0:
256,192,98291,1,0,0:0:0:0:
256,192,98458,1,4,0:0:0:0:
256,192,98624,1,8,0:0:0:0:
256,192,98791,1,0,0:0:0:0:
256,192,98874,1,8,0:0:0:0:
256,192,98958,1,0,0:0:0:0:
256,192,99124,1,0,0:0:0:0:
256,192,99208,1,0,0:0:0:0:
256,192,99291,1,12,0:0:0:0:
256,192,99624,1,0,0:0:0:0:
256,192,99791,1,8,0:0:0:0:
256,192,99957,1,8,0:0:0:0:
256,192,100013,1,0,0:0:0:0:
256,192,100068,1,0,0:0:0:0:
256,192,100124,1,8,0:0:0:0:
256,192,100235,1,8,0:0:0:0:
256,192,100291,1,0,0:0:0:0:
256,192,100457,1,0,0:0:0:0:
256,192,100513,1,8,0:0:0:0:
256,192,100568,1,8,0:0:0:0:
256,192,100624,1,0,0:0:0:0:
256,192,100791,1,12,0:0:0:0:
256,192,101124,1,0,0:0:0:0:
256,192,101291,1,12,0:0:0:0:
256,192,101624,1,0,0:0:0:0:
256,192,101791,1,12,0:0:0:0:
256,192,102124,1,0,0:0:0:0:
256,192,102291,1,12,0:0:0:0:
256,192,102624,1,0,0:0:0:0:
256,192,102791,1,12,0:0:0:0:
256,192,103124,1,8,0:0:0:0:
256,192,103291,1,4,0:0:0:0:
256,192,103625,1,0,0:0:0:0:
256,192,103736,1,8,0:0:0:0:
256,192,103792,1,0,0:0:0:0:
256,192,103958,1,8,0:0:0:0:
256,192,104236,1,0,0:0:0:0:
256,192,104292,1,8,0:0:0:0:
256,192,104458,1,0,0:0:0:0:
256,192,104625,1,8,0:0:0:0:
256,192,104792,1,0,0:0:0:0:
256,192,104958,1,8,0:0:0:0:
256,192,105125,1,0,0:0:0:0:
256,192,105236,1,0,0:0:0:0:
256,192,105292,1,8,0:0:0:0:
256,192,105514,1,0,0:0:0:0:
256,192,105625,1,8,0:0:0:0:
256,192,105736,1,0,0:0:0:0:
256,192,105792,1,0,0:0:0:0:
256,192,105847,1,8,0:0:0:0:
256,192,105958,1,0,0:0:0:0:
256,192,106292,1,0,0:0:0:0:
256,192,106625,1,8,0:0:0:0:
256,192,106847,1,8,0:0:0:0:
256,192,106903,1,8,0:0:0:0:
256,192,106958,1,0,0:0:0:0:
256,192,107125,1,0,0:0:0:0:
256,192,107180,1,0,0:0:0:0:
256,192,107292,1,8,0:0:0:0:
256,192,107458,1,0,0:0:0:0:
256,192,107514,1,0,0:0:0:0:
256,192,107569,1,0,0:0:0:0:
256,192,107625,1,8,0:0:0:0:
256,192,107792,1,0,0:0:0:0:
256,192,107958,1,8,0:0:0:0:
256,192,108125,1,0,0:0:0:0:
256,192,108208,1,0,0:0:0:0:
256,192,108292,1,8,0:0:0:0:
256,192,108458,1,8,0:0:0:0:
256,192,108625,1,0,0:0:0:0:
256,192,108958,1,0,0:0:0:0:
256,192,109292,1,8,0:0:0:0:
256,192,109625,1,8,0:0:0:0:
256,192,109792,1,0,0:0:0:0:
256,192,109958,1,8,0:0:0:0:
256,192,110125,1,0,0:0:0:0:
256,192,110292,1,8,0:0:0:0:
256,192,110625,1,8,0:0:0:0:
256,192,110791,1,8,0:0:0:0:
256,192,110847,1,0,0:0:0:0:
256,192,110958,1,8,0:0:0:0:
256,192,111125,1,0,0:0:0:0:
256,192,111291,1,8,0:0:0:0:
256,192,111625,1,0,0:0:0:0:
256,192,111958,1,8,0:0:0:0:
256,192,112180,1,8,0:0:0:0:
256,192,112236,1,8,0:0:0:0:
256,192,112291,1,0,0:0:0:0:
256,192,112458,1,8,0:0:0:0:
256,192,112625,1,0,0:0:0:0:
256,192,112791,1,0,0:0:0:0:
256,192,112958,1,8,0:0:0:0:
256,192,113291,1,0,0:0:0:0:
256,192,113347,1,0,0:0:0:0:
256,192,113514,1,12,0:0:0:0:
256,192,113736,1,12,0:0:0:0:
256,192,113958,1,4,0:0:0:0:
256,192,114291,1,8,0:0:0:0:
256,192,114347,1,8,0:0:0:0:
256,192,114625,1,0,0:0:0:0:
256,192,114903,1,0,0:0:0:0:
256,192,114958,1,8,0:0:0:0:
256,192,115125,1,0,0:0:0:0:
256,192,115291,1,8,0:0:0:0:
256,192,115458,1,0,0:0:0:0:
256,192,115514,1,0,0:0:0:0:
256,192,115625,1,8,0:0:0:0:
256,192,115903,1,8,0:0:0:0:
256,192,115958,1,0,0:0:0:0:
256,192,116125,1,8,0:0:0:0:
256,192,116403,1,8,0:0:0:0:
256,192,116514,1,8,0:0:0:0:
256,192,116625,1,8,0:0:0:0:
256,192,116680,1,0,0:0:0:0:
256,192,116958,1,0,0:0:0:0:
256,192,117291,1,8,0:0:0:0:
256,192,117458,1,8,0:0:0:0:
256,192,117541,1,0,0:0:0:0:
256,192,117625,1,8,0:0:0:0:
256,192,117791,1,0,0:0:0:0:
256,192,117958,1,8,0:0:0:0:
256,192,118125,1,0,0:0:0:0:
256,192,118180,1,0,0:0:0:0:
256,192,118236,1,0,0:0:0:0:
256,192,118291,1,8,0:0:0:0:
256,192,118458,1,8,0:0:0:0:
256,192,118514,1,0,0:0:0:0:
256,192,118625,1,8,0:0:0:0:
256,192,118791,1,0,0:0:0:0:
256,192,118847,1,0,0:0:0:0:
256,192,118958,1,8,0:0:0:0:
256,192,119125,1,0,0:0:0:0:
256,192,119291,1,8,0:0:0:0:
256,192,119625,1,0,0:0:0:0:
256,192,119958,1,8,0:0:0:0:
256,192,120208,1,0,0:0:0:0:
256,192,120291,1,8,0:0:0:0:
256,192,120458,1,8,0:0:0:0:
256,192,120625,1,0,0:0:0:0:
256,192,120791,1,0,0:0:0:0:
256,192,120958,1,8,0:0:0:0:
256,192,121125,1,0,0:0:0:0:
256,192,121291,1,8,0:0:0:0:
256,192,121458,1,8,0:0:0:0:
256,192,121541,1,0,0:0:0:0:
256,192,121625,1,8,0:0:0:0:
256,192,121791,1,8,0:0:0:0:
256,192,121903,1,8,0:0:0:0:
256,192,121958,1,0,0:0:0:0:
256,192,122291,1,0,0:0:0:0:
256,192,122625,1,8,0:0:0:0:
256,192,122847,1,0,0:0:0:0:
256,192,122903,1,0,0:0:0:0:
256,192,122958,1,8,0:0:0:0:
256,192,123125,1,0,0:0:0:0:
256,192,123291,1,8,0:0:0:0:
256,192,123375,1,0,0:0:0:0:
256,192,123458,1,0,0:0:0:0:
256,192,123541,1,8,0:0:0:0:
256,192,123625,1,8,0:0:0:0:
256,192,123875,1,0,0:0:0:0:
256,192,123958,1,8,0:0:0:0:
256,192,124125,1,0,0:0:0:0:
256,192,124208,1,0,0:0:0:0:
256,192,124291,1,8,0:0:0:0:
256,192,124375,1,0,0:0:0:0:
256,192,124458,1,8,0:0:0:0:
256,192,124541,1,8,0:0:0:0:
256,192,124625,1,4,0:0:0:0:
256,192,124959,1,0,0:0:0:0:
256,192,125292,1,8,0:0:0:0:
256,192,125459,1,0,0:0:0:0:
256,192,125570,1,8,0:0:0:0:
256,192,125626,1,0,0:0:0:0:
256,192,125792,1,8,0:0:0:0:
256,192,125959,1,0,0:0:0:0:
256,192,126126,1,8,0:0:0:0:
256,192,126403,1,8,0:0:0:0:
256,192,126459,1,0,0:0:0:0:
256,192,126514,1,8,0:0:0:0:
256,192,126626,1,0,0:0:0:0:
256,192,126876,1,0,0:0:0:0:
256,192,126959,1,8,0:0:0:0:
256,192,127292,1,0,0:0:0:0:
256,192,127459,1,8,0:0:0:0:
256,192,127625,1,0,0:0:0:0:
256,192,127792,1,0,0:0:0:0:
256,192,127875,1,8,0:0:0:0:
256,192,127959,1,0,0:0:0:0:
256,192,128125,1,8,0:0:0:0:
256,192,128236,1,8,0:0:0:0:
256,192,128292,1,0,0:0:0:0:
256,192,128459,1,8,0:0:0:0:
256,192,128709,1,8,0:0:0:0:
256,192,128792,1,0,0:0:0:0:
256,192,128847,1,8,0:0:0:0:
256,192,128903,1,8,0:0:0:0:
256,192,128959,1,0,0:0:0:0:
256,192,129125,1,8,0:0:0:0:
256,192,129209,1,8,0:0:0:0:
256,192,129292,1,0,0:0:0:0:
256,192,129375,1,8,0:0:0:0:
256,192,129417,1,8,0:0:0:0:
256,192,129459,1,0,0:0:0:0:
256,192,129570,1,8,0:0:0:0:
256,192,129625,1,0,0:0:0:0:
256,192,129793,1,8,0:0:0:0:
256,192,129960,1,0,0:0:0:0:
256,192,130182,1,8,0:0:0:0:
256,192,130238,1,8,0:0:0:0:
256,192,130293,1,0,0:0:0:0:
256,192,130460,1,8,0:0:0:0:
256,192,130627,1,0,0:0:0:0:
256,192,130738,1,0,0:0:0:0:
256,192,130793,1,8,0:0:0:0:
256,192,131043,1,8,0:0:0:0:
256,192,131127,1,0,0:0:0:0:
256,192,131293,1,8,0:0:0:0:
256,192,131377,1,8,0:0:0:0:
256,192,131460,1,0,0:0:0:0:
256,192,131627,1,8,0:0:0:0:
256,192,131710,1,8,0:0:0:0:
256,192,131877,1,0,0:0:0:0:
256,192,131960,1,12,0:0:0:0:
256,192,132293,1,0,0:0:0:0:
256,192,132460,1,8,0:0:0:0:
256,192,132626,1,8,0:0:0:0:
256,192,132793,1,0,0:0:0:0:
256,192,132876,1,8,0:0:0:0:
256,192,132960,1,0,0:0:0:0:
256,192,133126,1,0,0:0:0:0:
256,192,133293,1,8,0:0:0:0:
256,192,133460,1,12,0:0:0:0:
256,192,133737,1,8,0:0:0:0:
256,192,133793,1,0,0:0:0:0:
256,192,133876,1,8,0:0:0:0:
256,192,133960,1,0,0:0:0:0:
256,192,134293,1,0,0:0:0:0:
256,192,134460,1,12,0:0:0:0:
256,192,134737,1,8,0:0:0:0:
256,192,134793,1,0,0:0:0:0:
256,192,134960,1,12,0:0:0:0:
256,192,135293,1,8,0:0:0:0:
256,192,135404,1,8,0:0:0:0:
256,192,135515,1,8,0:0:0:0:
256,192,135626,1,8,0:0:0:0:
256,192,135737,1,0,0:0:0:0:
256,192,135848,1,0,0:0:0:0:
256,192,135960,1,12,0:0:0:0:
256,192,136183,1,0,0:0:0:0:
256,192,136294,1,8,0:0:0:0:
256,192,136405,1,8,0:0:0:0:
256,192,136461,1,0,0:0:0:0:
256,192,136627,1,8,0:0:0:0:
256,192,136849,1,8,0:0:0:0:
256,192,136961,1,0,0:0:0:0:
256,192,137072,1,0,0:0:0:0:
256,192,137183,1,0,0:0:0:0:
256,192,137294,1,8,0:0:0:0:
256,192,137405,1,8,0:0:0:0:
256,192,137516,1,0,0:0:0:0:
256,192,137627,1,0,0:0:0:0:
256,192,137738,1,8,0:0:0:0:
256,192,137961,1,8,0:0:0:0:
256,192,138183,1,8,0:0:0:0:
256,192,138294,1,0,0:0:0:0:
256,192,138405,1,0,0:0:0:0:
256,192,138516,1,0,0:0:0:0:
256,192,138627,1,8,0:0:0:0:
256,192,138849,1,0,0:0:0:0:
256,192,138961,1,8,0:0:0:0:
256,192,139072,1,8,0:0:0:0:
256,192,139127,1,0,0:0:0:0:
256,192,139294,1,8,0:0:0:0:
256,192,139516,1,8,0:0:0:0:
256,192,139627,1,0,0:0:0:0:
256,192,139738,1,0,0:0:0:0:
256,192,139849,1,0,0:0:0:0:
256,192,139961,1,8,0:0:0:0:
256,192,140072,1,8,0:0:0:0:
256,192,140127,1,8,0:0:0:0:
256,192,140183,1,0,0:0:0:0:
256,192,140294,1,0,0:0:0:0:
256,192,140405,1,8,0:0:0:0:
256,192,140627,1,8,0:0:0:0:
256,192,140849,1,8,0:0:0:0:
256,192,140961,1,0,0:0:0:0:
256,192,141072,1,0,0:0:0:0:
256,192,141183,1,0,0:0:0:0:
256,192,141294,1,12,0:0:0:0:
256,192,141516,1,0,0:0:0:0:
256,192,141627,1,0,0:0:0:0:
256,192,141738,1,8,0:0:0:0:
256,192,141794,1,0,0:0:0:0:
256,192,141961,1,8,0:0:0:0:
256,192,142183,1,0,0:0:0:0:
256,192,142294,1,8,0:0:0:0:
256,192,142405,1,0,0:0:0:0:
256,192,142461,1,0,0:0:0:0:
256,192,142516,1,8,0:0:0:0:
256,192,142627,1,8,0:0:0:0:
256,192,142738,1,0,0:0:0:0:
256,192,142849,1,0,0:0:0:0:
256,192,142961,1,0,0:0:0:0:
256,192,143072,1,8,0:0:0:0:
256,192,143294,1,8,0:0:0:0:
256,192,143461,1,0,0:0:0:0:
256,192,143516,1,8,0:0:0:0:
256,192,143627,1,8,0:0:0:0:
256,192,143738,1,0,0:0:0:0:
256,192,143794,1,0,0:0:0:0:
256,192,143849,1,8,0:0:0:0:
256,192,143961,1,8,0:0:0:0:
256,192,144072,1,0,0:0:0:0:
256,192,144183,1,0,0:0:0:0:
256,192,144294,1,0,0:0:0:0:
256,192,144405,1,8,0:0:0:0:
256,192,144461,1,0,0:0:0:0:
256,192,144627,1,8,0:0:0:0:
256,192,144849,1,8,0:0:0:0:
256,192,144961,1,0,0:0:0:0:
256,192,145072,1,0,0:0:0:0:
256,192,145127,1,0,0:0:0:0:
256,192,145183,1,8,0:0:0:0:
256,192,145294,1,8,0:0:0:0:
256,192,145405,1,0,0:0:0:0:
256,192,145516,1,0,0:0:0:0:
256,192,145627,1,0,0:0:0:0:
256,192,145738,1,8,0:0:0:0:
256,192,145793,1,0,0:0:0:0:
256,192,145849,1,8,0:0:0:0:
256,192,145961,1,8,0:0:0:0:
256,192,146072,1,8,0:0:0:0:
256,192,146183,1,0,0:0:0:0:
256,192,146294,1,0,0:0:0:0:
256,192,146405,1,0,0:0:0:0:
256,192,146516,1,0,0:0:0:0:
256,192,146627,1,12,0:0:0:0:
256,192,146849,1,0,0:0:0:0:
256,192,146961,1,8,0:0:0:0:
256,192,147072,1,8,0:0:0:0:
256,192,147127,1,0,0:0:0:0:
256,192,147294,1,8,0:0:0:0:
256,192,147516,1,8,0:0:0:0:
256,192,147627,1,0,0:0:0:0:
256,192,147738,1,0,0:0:0:0:
256,192,147849,1,0,0:0:0:0:
256,192,147961,1,8,0:0:0:0:
256,192,148072,1,8,0:0:0:0:
256,192,148183,1,0,0:0:0:0:
256,192,148294,1,0,0:0:0:0:
256,192,148405,1,8,0:0:0:0:
256,192,148627,1,8,0:0:0:0:
256,192,148849,1,8,0:0:0:0:
256,192,148961,1,0,0:0:0:0:
256,192,149072,1,0,0:0:0:0:
256,192,149183,1,0,0:0:0:0:
256,192,149294,1,8,0:0:0:0:
256,192,149516,1,0,0:0:0:0:
256,192,149627,1,8,0:0:0:0:
256,192,149738,1,8,0:0:0:0:
256,192,149794,1,0,0:0:0:0:
256,192,149961,1,8,0:0:0:0:
256,192,150183,1,8,0:0:0:0:
256,192,150294,1,8,0:0:0:0:
256,192,150405,1,0,0:0:0:0:
256,192,150516,1,0,0:0:0:0:
256,192,150627,1,8,0:0:0:0:
256,192,150738,1,8,0:0:0:0:
256,192,150794,1,0,0:0:0:0:
256,192,150849,1,0,0:0:0:0:
256,192,150960,1,8,0:0:0:0:
256,192,151072,1,8,0:0:0:0:
256,192,151183,1,0,0:0:0:0:
256,192,151294,1,0,0:0:0:0:
256,192,151405,1,0,0:0:0:0:
256,192,151460,1,0,0:0:0:0:
256,192,151516,1,12,0:0:0:0:
256,192,151738,1,12,0:0:0:0:
256,192,151960,1,4,0:0:0:0:
256,192,152183,1,0,0:0:0:0:
256,192,152294,1,0,0:0:0:0:
256,192,152405,1,0,0:0:0:0:
256,192,152460,1,8,0:0:0:0:
256,192,152627,1,8,0:0:0:0:
256,192,152849,1,0,0:0:0:0:
256,192,152960,1,8,0:0:0:0:
256,192,153072,1,0,0:0:0:0:
256,192,153127,1,0,0:0:0:0:
256,192,153183,1,8,0:0:0:0:
256,192,153294,1,8,0:0:0:0:
256,192,153405,1,0,0:0:0:0:
256,192,153516,1,0,0:0:0:0:
256,192,153627,1,0,0:0:0:0:
256,192,153738,1,8,0:0:0:0:
256,192,153960,1,8,0:0:0:0:
256,192,154127,1,0,0:0:0:0:
256,192,154183,1,8,0:0:0:0:
256,192,154294,1,8,0:0:0:0:
256,192,154405,1,0,0:0:0:0:
256,192,154516,1,0,0:0:0:0:
256,192,154627,1,8,0:0:0:0:
256,192,154849,1,0,0:0:0:0:
256,192,154960,1,0,0:0:0:0:
256,192,155072,1,8,0:0:0:0:
256,192,155294,1,8,0:0:0:0:
256,192,155516,1,8,0:0:0:0:
256,192,155627,1,0,0:0:0:0:
256,192,155738,1,0,0:0:0:0:
256,192,155849,1,8,0:0:0:0:
256,192,155960,1,8,0:0:0:0:
256,192,156072,1,0,0:0:0:0:
256,192,156183,1,0,0:0:0:0:
256,192,156294,1,0,0:0:0:0:
256,192,156405,1,8,0:0:0:0:
256,192,156627,1,0,0:0:0:0:
256,192,156738,1,0,0:0:0:0:
256,192,156849,1,8,0:0:0:0:
256,192,156919,1,0,0:0:0:0:
256,192,156960,1,0,0:0:0:0:
256,192,157072,1,0,0:0:0:0:
256,192,157183,1,0,0:0:0:0:
256,192,157294,1,12,0:0:0:0:
256,192,157516,1,0,0:0:0:0:
256,192,157627,1,8,0:0:0:0:
256,192,157738,1,8,0:0:0:0:
256,192,157794,1,0,0:0:0:0:
256,192,157960,1,8,0:0:0:0:
256,192,158183,1,0,0:0:0:0:
256,192,158294,1,0,0:0:0:0:
256,192,158405,1,8,0:0:0:0:
256,192,158516,1,8,0:0:0:0:
256,192,158627,1,0,0:0:0:0:
256,192,158738,1,8,0:0:0:0:
256,192,158794,1,8,0:0:0:0:
256,192,158849,1,0,0:0:0:0:
256,192,158960,1,0,0:0:0:0:
256,192,159072,1,8,0:0:0:0:
256,192,159294,1,8,0:0:0:0:
256,192,159460,1,0,0:0:0:0:
256,192,159516,1,8,0:0:0:0:
256,192,159627,1,8,0:0:0:0:
256,192,159738,1,0,0:0:0:0:
256,192,159849,1,0,0:0:0:0:
256,192,159960,1,8,0:0:0:0:
256,192,160183,1,0,0:0:0:0:
256,192,160294,1,8,0:0:0:0:
256,192,160405,1,8,0:0:0:0:
256,192,160460,1,0,0:0:0:0:
256,192,160627,1,8,0:0:0:0:
256,192,160849,1,8,0:0:0:0:
256,192,160905,1,0,0:0:0:0:
256,192,160960,1,0,0:0:0:0:
256,192,161072,1,0,0:0:0:0:
256,192,161183,1,0,0:0:0:0:
256,192,161294,1,8,0:0:0:0:
256,192,161460,1,0,0:0:0:0:
256,192,161516,1,8,0:0:0:0:
256,192,161710,1,0,0:0:0:0:
256,192,161822,1,0,0:0:0:0:
256,192,161933,1,8,0:0:0:0:
256,192,162155,1,8,0:0:0:0:
256,192,162405,1,0,0:0:0:0:
256,192,162516,1,0,0:0:0:0:
256,192,162627,1,12,0:0:0:0:
256,192,162849,1,0,0:0:0:0:
256,192,162960,1,0,0:0:0:0:
256,192,163072,1,8,0:0:0:0:
256,192,163127,1,0,0:0:0:0:
256,192,163294,1,8,0:0:0:0:
256,192,163516,1,0,0:0:0:0:
256,192,163627,1,8,0:0:0:0:
256,192,163738,1,0,0:0:0:0:
256,192,163794,1,0,0:0:0:0:
256,192,163849,1,8,0:0:0:0:
256,192,163960,1,0,0:0:0:0:
256,192,164072,1,8,0:0:0:0:
256,192,164127,1,8,0:0:0:0:
256,192,164183,1,0,0:0:0:0:
256,192,164294,1,0,0:0:0:0:
256,192,164405,1,8,0:0:0:0:
256,192,164627,1,8,0:0:0:0:
256,192,164794,1,0,0:0:0:0:
256,192,164849,1,8,0:0:0:0:
256,192,164960,1,8,0:0:0:0:
256,192,165072,1,0,0:0:0:0:
256,192,165127,1,0,0:0:0:0:
256,192,165183,1,8,0:0:0:0:
256,192,165294,1,8,0:0:0:0:
256,192,165405,1,0,0:0:0:0:
256,192,165516,1,0,0:0:0:0:
256,192,165627,1,0,0:0:0:0:
256,192,165738,1,8,0:0:0:0:
256,192,165794,1,0,0:0:0:0:
256,192,165960,1,8,0:0:0:0:
256,192,166183,1,8,0:0:0:0:
256,192,166294,1,0,0:0:0:0:
256,192,166460,1,0,0:0:0:0:
256,192,166516,1,8,0:0:0:0:
256,192,166627,1,12,0:0:0:0:
256,192,166849,1,8,0:0:0:0:
256,192,166960,1,8,0:0:0:0:
256,192,167072,1,12,0:0:0:0:
256,192,167294,1,12,0:0:0:0:
256,192,167405,1,8,0:0:0:0:
256,192,167516,1,8,0:0:0:0:
256,192,167627,1,0,0:0:0:0:
256,192,167738,1,0,0:0:0:0:
256,192,167849,1,0,0:0:0:0:
256,192,167960,1,4,0:0:0:0:
256,192,168183,1,0,0:0:0:0:
256,192,168294,1,8,0:0:0:0:
256,192,168405,1,8,0:0:0:0:
256,192,168460,1,0,0:0:0:0:
256,192,168627,1,8,0:0:0:0:
256,192,168849,1,8,0:0:0:0:
256,192,168960,1,0,0:0:0:0:
256,192,169072,1,0,0:0:0:0:
256,192,169183,1,0,0:0:0:0:
256,192,169294,1,8,0:0:0:0:
256,192,169405,1,8,0:0:0:0:
256,192,169460,1,8,0:0:0:0:
256,192,169516,1,0,0:0:0:0:
256,192,169627,1,0,0:0:0:0:
256,192,169738,1,8,0:0:0:0:
256,192,169960,1,8,0:0:0:0:
256,192,170183,1,8,0:0:0:0:
256,192,170294,1,0,0:0:0:0:
256,192,170405,1,0,0:0:0:0:
256,192,170516,1,0,0:0:0:0:
256,192,170572,1,0,0:0:0:0:
256,192,170627,1,12,0:0:0:0:
256,192,170849,1,0,0:0:0:0:
256,192,170960,1,8,0:0:0:0:
256,192,171072,1,8,0:0:0:0:
256,192,171127,1,0,0:0:0:0:
256,192,171294,1,8,0:0:0:0:
256,192,171516,1,8,0:0:0:0:
256,192,171627,1,8,0:0:0:0:
256,192,171738,1,0,0:0:0:0:
256,192,171849,1,0,0:0:0:0:
256,192,171960,1,8,0:0:0:0:
256,192,172127,1,8,0:0:0:0:
256,192,172183,1,0,0:0:0:0:
256,192,172294,1,8,0:0:0:0:
256,192,172405,1,0,0:0:0:0:
256,192,172627,1,8,0:0:0:0:
256,192,172738,1,0,0:0:0:0:
256,192,172849,1,8,0:0:0:0:
256,192,172960,1,0,0:0:0:0:
256,192,173072,1,0,0:0:0:0:
256,192,173183,1,0,0:0:0:0:
256,192,173294,1,12,0:0:0:0:
256,192,173516,1,0,0:0:0:0:
256,192,173627,1,0,0:0:0:0:
256,192,173738,1,0,0:0:0:0:
256,192,173794,1,8,0:0:0:0:
256,192,173960,1,8,0:0:0:0:
256,192,174183,1,0,0:0:0:0:
256,192,174294,1,8,0:0:0:0:
256,192,174405,1,0,0:0:0:0:
256,192,174460,1,0,0:0:0:0:
256,192,174516,1,8,0:0:0:0:
256,192,174627,1,8,0:0:0:0:
256,192,174738,1,0,0:0:0:0:
256,192,174794,1,8,0:0:0:0:
256,192,174849,1,0,0:0:0:0:
256,192,174960,1,0,0:0:0:0:
256,192,175072,1,8,0:0:0:0:
256,192,175294,1,8,0:0:0:0:
256,192,175460,1,0,0:0:0:0:
256,192,175516,1,8,0:0:0:0:
256,192,175627,1,8,0:0:0:0:
256,192,175738,1,0,0:0:0:0:
256,192,175849,1,0,0:0:0:0:
256,192,175960,1,12,0:0:0:0:
256,192,176183,1,0,0:0:0:0:
256,192,176377,1,8,0:0:0:0:
256,192,176460,1,0,0:0:0:0:
256,192,176627,1,8,0:0:0:0:
256,192,176849,1,8,0:0:0:0:
256,192,176960,1,0,0:0:0:0:
256,192,177072,1,0,0:0:0:0:
256,192,177183,1,8,0:0:0:0:
256,192,177294,1,8,0:0:0:0:
256,192,177405,1,8,0:0:0:0:
256,192,177516,1,8,0:0:0:0:
256,192,177627,1,8,0:0:0:0:
256,192,177738,1,0,0:0:0:0:
256,192,177849,1,0,0:0:0:0:
256,192,177960,1,0,0:0:0:0:
256,192,178072,1,0,0:0:0:0:
256,192,178183,1,0,0:0:0:0:
256,192,178238,1,0,0:0:0:0:
256,192,178294,1,0,0:0:0:0:
256,192,178349,1,8,0:0:0:0:
256,192,178405,1,0,0:0:0:0:
256,192,178516,1,0,0:0:0:0:
256,192,178627,1,12,0:0:0:0:
256,192,178849,1,0,0:0:0:0:
256,192,178960,1,8,0:0:0:0:
256,192,179072,1,4,0:0:0:0:
256,192,179294,1,8,0:0:0:0:
256,192,179516,1,4,0:0:0:0:
256,192,179738,1,8,0:0:0:0:
256,192,179849,1,8,0:0:0:0:
256,192,179960,1,4,0:0:0:0:
256,192,180183,1,0,0:0:0:0:
256,192,180405,1,4,0:0:0:0:
256,192,180849,1,4,0:0:0:0:
256,192,181183,1,8,0:0:0:0:
256,192,181294,1,4,0:0:0:0:
256,192,181516,1,0,0:0:0:0:
256,192,181738,1,4,0:0:0:0:
256,192,182183,1,4,0:0:0:0:
256,192,182516,1,8,0:0:0:0:
256,192,182627,1,4,0:0:0:0:
256,192,182849,1,0,0:0:0:0:
256,192,182960,1,8,0:0:0:0:
256,192,183072,1,4,0:0:0:0:
256,192,183294,1,8,0:0:0:0:
256,192,183516,1,4,0:0:0:0:
256,192,183738,1,0,0:0:0:0:
256,192,183849,1,0,0:0:0:0:
256,192,183960,1,12,0:0:0:0:
256,192,184183,1,0,0:0:0:0:
256,192,184294,1,8,0:0:0:0:
256,192,184405,1,8,0:0:0:0:
256,192,184627,1,8,0:0:0:0:
256,192,184849,1,0,0:0:0:0:
256,192,184960,1,8,0:0:0:0:
256,192,185072,1,0,0:0:0:0:
256,192,185183,1,0,0:0:0:0:
256,192,185294,1,8,0:0:0:0:
256,192,185405,1,8,0:0:0:0:
256,192,185460,1,8,0:0:0:0:
256,192,185516,1,0,0:0:0:0:
256,192,185627,1,0,0:0:0:0:
256,192,185738,1,8,0:0:0:0:
256,192,185960,1,8,0:0:0:0:
256,192,186183,1,8,0:0:0:0:
256,192,186294,1,0,0:0:0:0:
256,192,186405,1,0,0:0:0:0:
256,192,186516,1,0,0:0:0:0:
256,192,186572,1,0,0:0:0:0:
256,192,186627,1,8,0:0:0:0:
256,192,186849,1,0,0:0:0:0:
256,192,186960,1,0,0:0:0:0:
256,192,187072,1,8,0:0:0:0:
256,192,187127,1,0,0:0:0:0:
256,192,187294,1,8,0:0:0:0:
256,192,187349,1,8,0:0:0:0:
256,192,187516,1,8,0:0:0:0:
256,192,187627,1,0,0:0:0:0:
256,192,187738,1,0,0:0:0:0:
256,192,187849,1,0,0:0:0:0:
256,192,187960,1,12,0:0:0:0:
256,192,188183,1,12,0:0:0:0:
256,192,188294,1,0,0:0:0:0:
256,192,188405,1,8,0:0:0:0:
256,192,188516,1,0,0:0:0:0:
256,192,188627,1,12,0:0:0:0:
256,192,188849,1,12,0:0:0:0:
256,192,188960,1,0,0:0:0:0:
256,192,189072,1,0,0:0:0:0:
256,192,189183,1,0,0:0:0:0:
256,192,189294,1,12,0:0:0:0:
256,192,189516,1,0,0:0:0:0:
256,192,189627,1,8,0:0:0:0:
256,192,189738,1,4,0:0:0:0:
256,192,189960,1,8,0:0:0:0:
256,192,190183,1,4,0:0:0:0:
256,192,190405,1,8,0:0:0:0:
256,192,190516,1,8,0:0:0:0:
256,192,190627,1,4,0:0:0:0:
256,192,190738,1,8,0:0:0:0:
256,192,190849,1,0,0:0:0:0:
256,192,190960,1,8,0:0:0:0:
256,192,191072,1,4,0:0:0:0:
256,192,191294,1,0,0:0:0:0:
256,192,191516,1,4,0:0:0:0:
256,192,191738,1,0,0:0:0:0:
256,192,191849,1,0,0:0:0:0:
256,192,191960,1,12,0:0:0:0:
256,192,192183,1,0,0:0:0:0:
256,192,192294,1,8,0:0:0:0:
256,192,192405,1,4,0:0:0:0:
256,192,192627,1,8,0:0:0:0:
256,192,192849,1,4,0:0:0:0:
256,192,192960,1,8,0:0:0:0:
256,192,193072,1,8,0:0:0:0:
256,192,193183,1,8,0:0:0:0:
256,192,193294,1,4,0:0:0:0:
256,192,193738,1,4,0:0:0:0:
256,192,193960,1,8,0:0:0:0:
256,192,194072,1,8,0:0:0:0:
256,192,194183,1,4,0:0:0:0:
256,192,194460,1,0,0:0:0:0:
256,192,194544,1,0,0:0:0:0:
256,192,194627,1,12,0:0:0:0:
256,192,194849,1,0,0:0:0:0:
256,192,195072,1,4,0:0:0:0:
256,192,195294,1,8,0:0:0:0:
256,192,195516,1,4,0:0:0:0:
256,192,195738,1,8,0:0:0:0:
256,192,195849,1,8,0:0:0:0:
256,192,195960,1,4,0:0:0:0:
256,192,196072,1,8,0:0:0:0:
256,192,196183,1,0,0:0:0:0:
256,192,196294,1,8,0:0:0:0:
256,192,196405,1,4,0:0:0:0:
256,192,196669,1,8,0:0:0:0:
256,192,196877,1,12,0:0:0:0:
256,192,197002,1,0,0:0:0:0:
256,192,197094,1,8,0:0:0:0:
256,192,197160,1,8,0:0:0:0:
256,192,197227,1,8,0:0:0:0:
256,192,197294,1,4,0:0:0:0:
256,192,197516,1,8,0:0:0:0:
256,192,197627,1,8,0:0:0:0:
256,192,197738,1,0,0:0:0:0:
256,192,197849,1,0,0:0:0:0:
256,192,197960,1,8,0:0:0:0:
256,192,198072,1,8,0:0:0:0:
256,192,198183,1,0,0:0:0:0:
256,192,198294,1,0,0:0:0:0:
256,192,198405,1,0,0:0:0:0:
256,192,198516,1,0,0:0:0:0:
256,192,198627,1,12,0:0:0:0:
256,192,199294,1,4,0:0:0:0:
256,192,199960,1,12,0:0:0:0:
256,192,200655,1,8,0:0:0:0:
256,192,200794,1,8,0:0:0:0:
256,192,201044,1,0,0:0:0:0:
256,192,201377,1,0,0:0:0:0:
256,192,201710,1,0,0:0:0:0:
256,192,201988,1,8,0:0:0:0:
256,192,202127,1,8,0:0:0:0:
256,192,202627,1,0,0:0:0:0:
256,192,203044,1,0,0:0:0:0:
256,192,203322,1,8,0:0:0:0:
256,192,203460,1,8,0:0:0:0:
256,192,203738,1,0,0:0:0:0:
256,192,204072,1,0,0:0:0:0:
256,192,204627,1,8,0:0:0:0:
256,192,204766,1,8,0:0:0:0:
256,192,205294,1,0,0:0:0:0:
256,192,205349,1,0,0:0:0:0:
256,192,205405,1,0,0:0:0:0:
256,192,205710,1,0,0:0:0:0:
256,192,205988,1,8,0:0:0:0:
256,192,206127,1,8,0:0:0:0:
256,192,206405,1,0,0:0:0:0:
256,192,206710,1,0,0:0:0:0:
256,192,207322,1,8,0:0:0:0:
256,192,207460,1,8,0:0:0:0:
256,192,207710,1,0,0:0:0:0:
256,192,208016,1,0,0:0:0:0:
256,192,208072,1,0,0:0:0:0:
256,192,208127,1,0,0:0:0:0:
256,192,208405,1,0,0:0:0:0:
256,192,208655,1,8,0:0:0:0:
256,192,208794,1,8,0:0:0:0:
256,192,209016,1,0,0:0:0:0:
256,192,209322,1,0,0:0:0:0:
256,192,210710,1,0,0:0:0:0:
256,192,210849,1,12,0:0:0:0:
256,192,211044,1,0,0:0:0:0:
256,192,211322,1,8,0:0:0:0:
256,192,211460,1,8,0:0:0:0:
256,192,211683,1,0,0:0:0:0:
256,192,211988,1,0,0:0:0:0:
256,192,212655,1,8,0:0:0:0:
256,192,212794,1,8,0:0:0:0:
256,192,213016,1,0,0:0:0:0:
256,192,213294,1,0,0:0:0:0:
256,192,213738,1,0,0:0:0:0:
256,192,213988,1,8,0:0:0:0:
256,192,214127,1,8,0:0:0:0:
256,192,214294,1,0,0:0:0:0:
256,192,214655,1,0,0:0:0:0:
256,192,215322,1,8,0:0:0:0:
256,192,215960,1,12,0:0:0:0:
256,192,216349,1,0,0:0:0:0:
256,192,216627,1,8,0:0:0:0:
256,192,216766,1,8,0:0:0:0:
256,192,216960,1,0,0:0:0:0:
256,192,217322,1,0,0:0:0:0:
256,192,217960,1,8,0:0:0:0:
256,192,218099,1,8,0:0:0:0:
256,192,218294,1,0,0:0:0:0:
256,192,218627,1,0,0:0:0:0:
256,192,219044,1,0,0:0:0:0:
256,192,219322,1,8,0:0:0:0:
256,192,219460,1,8,0:0:0:0:
256,192,219627,1,0,0:0:0:0:
256,192,219960,1,0,0:0:0:0:
256,192,220488,1,0,0:0:0:0:
256,192,220822,1,8,0:0:0:0:
256,192,220960,1,8,0:0:0:0:
256,192,221294,1,0,0:0:0:0:
256,192,221572,1,12,0:0:0:0:
256,192,221738,1,0,0:0:0:0:
256,192,222016,1,8,0:0:0:0:
256,192,222155,1,8,0:0:0:0:
256,192,222322,1,0,0:0:0:0:
256,192,222627,1,0,0:0:0:0:
256,192,223294,1,8,0:0:0:0:
256,192,223433,1,8,0:0:0:0:
256,192,223627,1,0,0:0:0:0:
256,192,223960,1,0,0:0:0:0:
256,192,224349,1,0,0:0:0:0:
256,192,224655,1,8,0:0:0:0:
256,192,224794,1,8,0:0:0:0:
256,192,225016,1,0,0:0:0:0:
256,192,225322,1,0,0:0:0:0:
256,192,226016,1,8,0:0:0:0:
256,192,226266,1,0,0:0:0:0:
256,192,227294,1,8,0:0:0:0:
256,192,227433,1,8,0:0:0:0:
256,192,227627,1,0,0:0:0:0:
256,192,227933,1,0,0:0:0:0:
256,192,228655,1,8,0:0:0:0:
256,192,228794,1,8,0:0:0:0:
256,192,228960,1,0,0:0:0:0:
256,192,229377,1,0,0:0:0:0:
256,192,229794,1,0,0:0:0:0:
256,192,230127,1,8,0:0:0:0:
256,192,230266,1,8,0:0:0:0:
256,192,230572,1,0,0:0:0:0:
256,192,230877,1,0,0:0:0:0:
256,192,231322,1,4,0:0:0:0:
256,192,231572,1,0,0:0:0:0:
