osu file format v14

[General]
AudioFilename: audio.mp3
AudioLeadIn: 0
PreviewTime: 135954
Countdown: 0
SampleSet: Soft
StackLeniency: 0.4
Mode: 0
LetterboxInBreaks: 0
WidescreenStoryboard: 1

[Editor]
Bookmarks: 9281,13115,20614,29948,39448,48614,59947,69946,73058,80613,81280,91947,103282,124615,135954,157287,167953,178620,199953,221287
DistanceSpacing: 1.1
BeatDivisor: 4
GridSize: 32
TimelineZoom: 1.7

[Metadata]
Title:wormhole
TitleUnicode:wormhole
Artist:Annabel
ArtistUnicode:Annabel
Creator:Lince Cosmico
Version:trynna's normal
Source:
Tags:PDC PDC2022 Pending Cup featured artist mapping contest PDC22 骗顶杯 fall into a lilac slumber irreversible acnozei maot trynna Shouichi Taguchi 田口 囁一 M3-41 yue y_u_e jazz FA japanese
BeatmapID:4021694
BeatmapSetID:1884175

[Difficulty]
HPDrainRate:4
CircleSize:3.5
OverallDifficulty:4
ApproachRate:5
SliderMultiplier:1.22
SliderTickRate:1

[Events]
//Background and Video events
0,0,"87781701_p0.jpg",0,0
//Break Periods
//Storyboard Layer 0 (Background)
//Storyboard Layer 1 (Fail)
//Storyboard Layer 2 (Pass)
//Storyboard Layer 3 (Foreground)
//Storyboard Layer 4 (Overlay)
//Storyboard Sound Samples

[TimingPoints]
282,333.333333333333,7,2,1,60,1,0
14615,333.333333333333,7,2,1,60,1,0
20615,333.333333333333,7,2,1,40,1,0
20615,-100,7,2,1,40,0,0
21281,-100,7,2,2,40,0,0
29948,-100,7,2,2,45,0,0
39448,333.333333333333,7,2,1,50,1,0
48281,-100,7,2,1,50,0,0
48614,333.333333333333,7,2,1,55,1,0
53614,333.333333333333,7,2,1,60,1,0
59947,333.333333333333,4,2,1,70,1,0
59947,-100,4,2,1,70,0,1
91947,333.333333333333,7,2,1,60,1,0
96948,333.333333333333,7,2,1,60,1,0
103282,333.704115684093,4,2,1,50,1,0
103282,-100,4,2,1,50,0,0
123971,322.927879440258,4,2,1,50,1,0
124616,333.333333333333,7,2,1,60,1,0
125282,-100,7,2,1,40,0,0
129617,333.333333333333,7,2,1,60,1,0
135954,333.333333333333,4,2,3,70,1,0
135954,-100,4,2,3,70,0,1
197287,-100,4,2,1,70,0,1
197370,-100,4,2,3,70,0,1
199953,-100,4,2,3,70,0,0

[Colours]
Combo1 : 255,159,159
Combo2 : 187,187,187
Combo3 : 255,193,164
Combo4 : 198,198,255
Combo5 : 139,139,197

[HitObjects]
253,193,9281,5,12,0:0:0:0:
333,117,9615,2,0,B|403:113|384:158|446:152,1,122,4|8,1:1|0:0,0:0:0:0:
492,123,10115,2,0,P|506:68|456:42,1,122,0|0,1:0|0:0,0:0:0:0:
411,10,10615,1,2,1:0:0:0:
303,29,10948,1,0,1:0:0:0:
252,50,11115,2,0,L|111:32,1,122,8|0,0:0|1:0,0:0:0:0:
87,69,11615,1,8,0:0:0:0:
127,169,11948,6,0,P|87:183|65:260,1,122,0|4,1:0|1:2,0:0:0:0:
42,304,12448,2,0,B|109:318|96:277|160:292,1,122,0|0,0:0|0:0,0:0:0:0:
192,336,12948,1,0,1:0:0:0:
296,303,13281,1,0,0:0:0:0:
341,333,13448,2,0,P|392:305|372:231,1,122,0|0,1:0|0:0,0:0:0:0:
355,204,13948,2,0,P|304:176|324:102,1,122,0|12,1:0|0:0,0:0:0:0:
340,76,14448,1,8,0:0:0:0:
340,76,14615,1,0,1:0:0:0:
444,43,14948,5,0,1:0:0:0:
474,88,15115,2,0,L|465:214,1,122,0|0,0:0|0:0,0:0:0:0:
488,258,15614,2,0,L|481:318,1,61,0|0,1:0|1:0,0:0:0:0:
374,343,16114,2,0,B|324:337|324:337|307:329|307:329|253:321,1,122,0|0,1:0|0:0,0:0:0:0:
203,340,16614,2,0,L|198:280,1,61,0|8,1:0|0:0,0:0:0:0:
154,245,16948,1,0,1:0:0:0:
223,160,17281,5,4,1:2:0:0:
214,105,17448,2,0,P|194:69|111:69,1,122,0|0,0:0|0:0,0:0:0:0:
68,42,17948,2,0,L|79:181,1,122,12|0,1:2|1:0,0:0:0:0:
50,211,18448,1,12,0:0:0:0:
139,283,18781,1,0,1:0:0:0:
139,283,18948,2,0,P|200:287|259:302,1,122,12|0,0:0|1:0,0:0:0:0:
292,258,19448,2,0,P|316:212|287:147,1,122,12|0,0:0|1:0,0:0:0:0:
252,107,19948,1,8,0:0:0:0:
456,194,20615,5,4,1:2:0:0:
385,279,20948,2,0,L|309:265,1,61,0|0,1:0|0:0,0:0:0:0:
295,221,21281,2,0,P|260:214|212:325,1,183,2|2,0:0|0:0,0:0:0:0:
113,367,22115,1,0,1:0:0:0:
113,367,22281,2,0,P|79:357|68:276,1,122,0|2,0:0|0:0,0:0:0:0:
87,173,22948,6,0,L|78:112,1,61,0|0,1:0|0:0,0:0:0:0:
111,68,23281,2,0,L|172:57,1,61,0|0,1:0|0:0,0:0:0:0:
216,26,23614,2,0,P|248:74|179:168,1,183,2|2,0:0|0:0,0:0:0:0:
235,271,24448,1,0,1:0:0:0:
235,271,24614,2,0,L|304:260,1,61,2|0,0:0|0:0,0:0:0:0:
341,293,24948,2,0,P|367:241|336:192,1,122,2|0,0:0|1:0,0:0:0:0:
386,88,25614,6,0,L|459:82,1,61,0|0,1:0|0:0,0:0:0:0:
500,95,25948,2,0,B|528:197|451:156|482:269,1,183,2|2,0:0|0:0,0:0:0:0:
414,352,26781,1,0,1:0:0:0:
414,352,26948,1,2,0:0:0:0:
307,324,27281,2,0,L|237:331,1,61,2|2,0:0|0:0,0:0:0:0:
210,288,27614,2,0,B|222:209|222:209|229:200|229:200|243:109,1,183,0|0,1:0|0:0,0:0:0:0:
90,45,28614,2,0,L|81:108,1,61,0|2,0:0|0:0,0:0:0:0:
99,149,28948,2,0,P|36:148|9:250,1,183,0|0,0:0|0:0,0:0:0:0:
36,295,29614,1,0,0:0:0:0:
122,362,29948,6,0,L|183:350,1,61,2|0,1:3|1:0,0:0:0:0:
220,310,30281,1,4,1:3:0:0:
316,362,30614,2,0,P|357:339|338:257,1,122,2|0,0:0|0:0,0:0:0:0:
315,231,31114,1,2,0:0:0:0:
216,194,31448,1,0,1:0:0:0:
216,194,31614,2,0,B|225:140|225:140|234:130|234:130|246:67,1,122,2|2,0:0|0:0,0:0:0:0:
349,106,32281,6,0,L|409:97,1,61,0|0,1:0|0:0,0:0:0:0:
450,134,32614,1,4,1:3:0:0:
499,231,32948,2,0,P|480:286|423:298,1,122,2|0,0:0|0:0,0:0:0:0:
379,332,33448,1,2,0:0:0:0:
277,357,33781,1,0,1:0:0:0:
277,357,33948,2,0,L|204:339,1,61,2|0,0:0|0:0,0:0:0:0:
181,301,34281,2,0,B|127:308|127:308|119:315|119:315|62:320,1,122,2|0,0:0|1:0,0:0:0:0:
45,211,34948,6,0,L|36:150,1,61,0|0,1:0|0:0,0:0:0:0:
62,102,35281,2,0,P|103:88|149:151,1,122,2|0,0:0|0:0,0:0:0:0:
191,176,35781,1,2,0:0:0:0:
302,201,36114,1,0,1:0:0:0:
302,201,36281,1,2,0:0:0:0:
410,219,36614,2,0,L|416:154,1,61,2|4,0:0|0:3,0:0:0:0:
458,123,36948,2,0,P|458:85|384:57,1,122,0|0,1:0|1:0,0:0:0:0:
339,77,37448,1,0,0:0:0:0:
189,29,37948,6,0,L|114:40,1,61,0|2,0:0|0:0,0:0:0:0:
88,75,38281,2,0,B|95:138|127:120|132:186,1,122,0|2,0:0|0:0,0:0:0:0:
101,232,38781,1,0,1:0:0:0:
101,232,38948,1,12,1:2:0:0:
214,350,39448,5,6,1:0:0:0:
258,318,39614,2,0,L|326:332,1,61,0|0,1:0|1:0,0:0:0:0:
362,297,39948,2,0,P|383:261|342:188,1,122,8|0,1:2|0:0,0:0:0:0:
302,169,40448,1,4,0:3:0:0:
215,234,40781,1,0,1:0:0:0:
215,234,40948,2,0,L|88:210,1,122,8|0,0:0|1:0,0:0:0:0:
76,104,41614,6,0,L|136:93,1,61,0|0,1:0|1:0,0:0:0:0:
191,95,41948,2,0,L|181:34,1,61,4|2,1:3|0:0,0:0:0:0:
226,3,42281,2,0,P|282:15|296:78,1,122,10|2,0:0|1:0,0:0:0:0:
323,120,42781,1,8,0:0:0:0:
427,86,43114,1,0,1:0:0:0:
427,86,43281,2,0,L|494:97,1,61,0|0,0:0|1:0,0:0:0:0:
511,142,43614,1,4,1:2:0:0:
447,231,43947,6,0,L|450:296,1,61,0|0,1:0|0:0,0:0:0:0:
408,329,44281,2,0,P|377:326|350:313,1,61,0|0,1:0|0:0,0:0:0:0:
325,264,44614,2,0,P|267:261|238:311,1,122,8|0,0:0|0:0,0:0:0:0:
212,360,45114,1,0,1:0:0:0:
112,327,45447,1,0,1:0:0:0:
112,327,45614,1,8,0:0:0:0:
6,298,45947,6,0,L|-2:230,1,61,0|4,1:0|0:3,0:0:0:0:
39,200,46281,2,0,L|47:132,1,61,0|0,0:0|1:0,0:0:0:0:
11,96,46614,2,0,L|3:28,2,61,0|0|8,1:0|1:0|0:0,0:0:0:0:
119,80,47281,2,0,L|179:70,1,61,0|4,1:0|1:2,0:0:0:0:
223,37,47614,2,0,B|219:89|219:89|213:107|213:107|208:158,1,122,0|4,0:0|1:2,0:0:0:0:
238,203,48114,1,0,0:0:0:0:
238,203,48281,1,8,0:0:0:0:
225,312,48614,6,0,L|285:322,1,61,4|0,1:0|0:0,0:0:0:0:
322,362,48947,2,0,L|382:352,1,61,4|0,1:2|0:0,0:0:0:0:
434,370,49280,1,8,0:0:0:0:
445,260,49614,2,0,L|449:199,1,61,0|4,1:0|1:3,0:0:0:0:
416,154,49947,2,0,P|385:151|359:165,1,61,4|8,0:3|0:0,0:0:0:0:
337,216,50280,1,0,0:0:0:0:
256,290,50614,6,0,L|189:276,1,61,8|0,0:0|0:0,0:0:0:0:
160,236,50947,2,0,L|100:248,2,61,0|0|4,1:0|1:0|1:3,0:0:0:0:
218,142,51614,2,0,P|228:113|222:84,1,61,8|0,0:0|0:0,0:0:0:0:
188,40,51947,2,0,L|121:47,1,61,0|8,1:0|0:0,0:0:0:0:
79,18,52280,1,0,0:0:0:0:
9,103,52613,6,0,L|20:167,1,61,8|0,0:0|0:0,0:0:0:0:
53,206,52947,1,0,1:0:0:0:
53,206,53113,2,0,L|40:273,2,61,2|0|4,1:0|1:0|0:3,0:0:0:0:
103,183,53614,1,4,1:3:0:0:
182,258,53947,1,0,1:0:0:0:
182,258,54114,2,0,P|236:276|276:233,1,122,8|0,0:0|1:0,0:0:0:0:
312,192,54614,2,0,P|368:204|382:260,1,122,0|0,1:0|0:0,0:0:0:0:
427,292,55114,2,0,L|419:358,2,61,8|0|0,0:0|0:0|1:0,0:0:0:0:
476,267,55614,1,12,0:0:0:0:
497,162,55947,5,4,1:0:0:0:
497,162,56114,2,0,L|506:100,2,61,0|0|0,0:0|1:0|0:0,0:0:0:0:
445,180,56614,2,0,P|388:158|384:97,1,122,4|8,1:3|0:0,0:0:0:0:
286,48,57280,1,0,1:0:0:0:
286,48,57447,2,0,B|224:52|243:87|175:93,1,122,12|0,0:0|1:0,0:0:0:0:
137,53,57947,2,0,P|100:71|94:150,1,122,12|0,0:0|1:0,0:0:0:0:
129,184,58447,1,12,0:0:0:0:
95,291,58780,1,0,1:0:0:0:
95,291,58947,1,12,0:0:0:0:
203,271,59280,1,0,0:0:0:0:
203,271,59947,6,0,L|294:282,2,81.3333333333333,4|0|0,1:2|1:0|1:0,0:0:0:0:
151,214,60613,1,8,0:0:0:0:
164,104,60947,2,0,P|205:109|244:122,1,81.3333333333333,0|0,1:0|0:0,0:0:0:0:
267,94,61280,2,0,P|327:89|386:75,1,122,0|0,1:0|0:0,0:0:0:0:
494,97,61947,2,0,P|484:136|454:162,1,81.3333333333333,8|0,0:0|1:0,0:0:0:0:
420,175,62280,1,2,0:0:0:0:
409,284,62613,2,0,L|489:296,2,81.3333333333333,0|0|0,1:0|1:0|0:0,0:0:0:0:
340,320,63280,1,8,0:0:0:0:
236,355,63613,2,0,L|150:342,1,81.3333333333333,0|8,1:0|0:0,0:0:0:0:
136,311,63946,2,0,L|55:323,2,81.3333333333333,0|0|0,1:0|1:0|1:0,0:0:0:0:
180,247,64613,1,8,0:0:0:0:
172,137,64946,2,0,L|84:120,1,81.3333333333333,0|2,1:0|0:3,0:0:0:0:
70,91,65280,6,0,L|53:170,2,81.3333333333333,0|0|0,1:0|1:0|1:0,0:0:0:0:
39,21,65947,1,8,0:0:0:0:
147,34,66280,2,0,L|233:26,1,81.3333333333333,0|0,1:0|1:0,0:0:0:0:
260,42,66613,2,0,P|290:93|279:152,1,122,0|0,1:0|0:3,0:0:0:0:
244,166,67058,2,0,L|248:254,1,81.3333333333333,0|8,1:0|0:0,0:0:0:0:
269,359,67613,2,0,L|349:348,1,81.3333333333333,2|2,0:3|0:1,0:0:0:0:
372,319,67946,2,0,L|453:326,2,81.3333333333333,0|0|0,1:0|1:0|1:0,0:0:0:0:
328,255,68613,1,8,0:0:0:0:
398,171,68946,2,0,L|401:89,1,81.3333333333333,0|0,1:0|0:0,0:0:0:0:
376,62,69280,1,0,1:0:0:0:
266,55,69613,2,0,L|184:51,1,81.3333333333333,0|8,1:0|0:0,0:0:0:0:
167,18,69946,2,0,P|110:33|97:90,1,122,2|2,1:3|1:1,0:0:0:0:
83,199,70613,6,0,L|71:279,2,81.3333333333333,4|0|0,1:0|1:0|1:0,0:0:0:0:
152,162,71280,2,0,P|191:168|219:196,1,81.3333333333333,8|0,0:0|1:0,0:0:0:0:
230,231,71613,1,0,1:0:0:0:
229,340,71946,2,0,L|148:353,2,81.3333333333333,0|0|0,1:0|1:0|1:0,0:0:0:0:
301,369,72613,2,0,L|411:350,1,81.3333333333333,8|0,0:0|1:0,0:0:0:0:
415,368,72946,1,10,0:0:0:0:
433,259,73280,6,0,L|519:272,2,81.3333333333333,0|0|0,1:0|1:0|0:0,0:0:0:0:
392,194,73946,1,8,0:0:0:0:
365,87,74280,2,0,L|283:74,1,81.3333333333333,0|2,1:0|1:2,0:0:0:0:
254,94,74613,2,0,L|173:81,2,81.3333333333333,0|0|0,1:0|1:0|1:0,0:0:0:0:
274,169,75280,1,8,0:0:0:0:
330,262,75613,1,8,0:0:0:0:
256,343,75946,6,0,L|172:332,1,81.3333333333333,4|0,1:0|1:0,0:0:0:0:
65,335,76446,1,0,0:0:0:0:
65,335,76613,2,0,B|76:283|76:283|73:268|73:268|84:215,1,122,8|0,0:0|1:0,0:0:0:0:
108,107,77280,2,0,P|164:126|190:179,1,122,0|0,1:0|0:0,0:0:0:0:
237,241,77835,2,0,L|358:227,1,122,0|0,0:0|1:0,0:0:0:0:
387,249,78280,1,2,0:0:0:0:
442,154,78613,6,0,P|452:104|372:65,1,122,4|0,1:0|0:0,0:0:0:0:
335,98,79169,2,0,L|197:113,1,122,0|4,0:0|1:3,0:0:0:0:
177,116,79613,1,0,0:0:0:0:
85,54,79946,2,0,P|41:94|43:153,1,122,4|8,1:2|0:0,0:0:0:0:
71,206,80446,1,2,1:2:0:0:
71,206,80613,2,0,L|59:279,2,61,8|8|0,0:0|0:0|1:0,0:0:0:0:
180,217,81280,6,0,B|244:226|224:266|282:277,1,122,4|8,1:1|0:0,0:0:0:0:
320,316,81780,2,0,P|362:276|349:219,1,122,0|0,1:0|1:0,0:0:0:0:
324,176,82280,1,0,1:0:0:0:
324,176,82446,2,0,B|329:124|329:124|338:108|338:108|344:55,1,122,8|0,0:0|1:0,0:0:0:0:
454,68,83113,1,0,1:0:0:0:
454,68,83280,2,0,L|438:189,1,122,12|4,0:0|1:2,0:0:0:0:
491,285,83946,6,0,B|425:283|442:324|378:323,1,122,4|8,1:2|0:0,0:0:0:0:
339,362,84446,2,0,P|298:319|310:262,1,122,0|0,1:0|1:0,0:0:0:0:
287,212,84946,1,0,1:0:0:0:
287,212,85113,1,12,0:0:0:0:
280,102,85446,2,0,L|210:116,1,61,0|8,1:0|0:0,0:0:0:0:
124,168,85946,2,0,L|55:158,2,61,0|0|2,1:0|1:0|1:2,0:0:0:0:
137,226,86446,1,2,1:3:0:0:
137,226,86613,6,0,P|107:276|49:281,1,122,4|8,1:0|0:0,0:0:0:0:
112,371,87280,2,0,B|166:356|166:356|172:344|172:344|221:328,1,122,8|0,0:0|1:0,0:0:0:0:
268,357,87780,1,8,0:0:0:0:
362,298,88113,1,0,1:0:0:0:
362,298,88280,2,0,L|428:313,1,61,8|2,0:0|0:0,0:0:0:0:
453,266,88613,2,0,L|512:252,2,61,0|0|8,1:0|1:0|0:0,0:0:0:0:
388,176,89280,6,0,P|380:128|434:84,1,122,4|8,1:0|0:0,0:0:0:0:
458,36,89780,2,0,B|399:40|406:12|338:21,1,122,0|8,1:0|0:0,0:0:0:0:
290,49,90280,1,0,1:0:0:0:
290,49,90446,1,12,0:0:0:0:
182,25,90780,2,0,L|166:172,1,122,0|2,1:0|1:0,0:0:0:0:
131,187,91280,2,0,P|101:187|70:181,1,61,2|0,1:2|1:0,0:0:0:0:
31,219,91613,1,0,1:0:0:0:
32,329,91947,6,0,B|99:339|83:302|150:311,1,122,4|8,1:0|0:0,0:0:0:0:
208,323,92447,1,0,1:0:0:0:
208,323,92613,2,0,L|213:383,2,61,8|0|0,0:0|1:0|1:0,0:0:0:0:
247,285,93113,1,14,0:0:0:0:
347,331,93447,2,0,P|390:307|410:232,1,122,0|10,1:0|0:0,0:0:0:0:
397,187,93947,1,8,0:0:0:0:
432,83,94280,6,0,B|379:75|379:75|366:67|366:67|312:62,1,122,6|0,1:2|1:0,0:0:0:0:
275,22,94780,2,0,L|256:158,1,122,0|0,1:0|0:0,0:0:0:0:
214,176,95280,1,0,1:0:0:0:
214,176,95447,1,8,0:0:0:0:
133,250,95780,2,0,P|93:208|103:150,1,122,8|0,0:0|1:0,0:0:0:0:
137,107,96280,2,0,L|128:39,1,61,8|2,0:0|1:2,0:0:0:0:
79,22,96613,1,2,1:2:0:0:
20,115,96948,6,0,P|-8:167|1:227,1,122,4|0,1:0|1:0,0:0:0:0:
37,269,97448,2,0,L|14:401,1,122,4|0,1:3|1:0,0:0:0:0:
70,382,97948,1,0,1:0:0:0:
70,382,98114,1,12,0:0:0:0:
175,350,98448,2,0,L|312:359,1,122,8|0,0:0|1:0,0:0:0:0:
345,332,98948,1,8,0:0:0:0:
349,222,99281,6,0,B|298:211|298:211|290:203|290:203|232:191,1,122,4|0,1:2|1:0,0:0:0:0:
190,226,99781,2,0,P|142:194|145:136,1,122,2|2,1:1|0:0,0:0:0:0:
129,83,100281,1,0,1:0:0:0:
129,83,100448,1,0,1:0:0:0:
230,42,100781,6,0,B|299:46|284:15|347:18,1,122,12|0,0:0|1:0,0:0:0:0:
398,40,101281,2,0,P|418:90|365:133,1,122,12|0,0:0|1:0,0:0:0:0:
341,177,101781,1,12,0:0:0:0:
405,265,102114,1,0,1:0:0:0:
405,265,102281,2,0,L|401:407,1,122,12|0,0:0|1:0,0:0:0:0:
352,362,102781,2,0,B|290:380|290:380|238:354,1,122,12|0,0:0|1:0,0:0:0:0:
188,379,103282,5,4,1:0:0:0:
158,273,103615,1,4,1:3:0:0:
215,180,103949,2,0,L|317:189,2,101.666666666667,8|0|0,0:0|1:0|1:0,0:0:0:0:
137,121,104783,2,0,P|113:68|153:26,1,122,0|0,1:0|0:0,0:0:0:0:
203,37,105284,2,0,L|300:28,1,91.5,8|0,0:0|1:0,0:0:0:0:
361,96,105784,1,4,1:3:0:0:
361,96,105951,2,0,B|368:163|330:140|337:212,1,122,0|4,1:0|1:3,0:0:0:0:
368,319,106619,6,0,P|416:304|471:311,2,101.666666666667,8|0|0,0:0|1:0|1:0,0:0:0:0:
254,347,107508,2,0,P|205:354|171:318,1,101.666666666667
119,300,107953,2,0,L|141:189,1,91.5,8|0,0:0|1:0,0:0:0:0:
53,155,108454,1,0,1:0:0:0:
53,155,108621,2,0,B|52:84|88:105|87:41,1,122,0|4,1:0|1:3,0:0:0:0:
188,84,109288,6,0,P|238:84|270:44,2,91.5,8|0|0,0:0|1:0|1:0,0:0:0:0:
199,181,110122,2,0,L|173:312,1,122,0|0,1:0|0:0,0:0:0:0:
202,348,110623,2,0,P|251:343|275:307,1,91.5,8|0,0:0|1:0,0:0:0:0:
349,273,111124,1,0,1:0:0:0:
349,272,111290,2,0,P|406:283|428:338,1,122,0|4,1:0|1:3,0:0:0:0:
494,250,111958,6,0,B|517:206|517:206|501:154,2,91.5,8|0|0,0:0|1:0|1:0,0:0:0:0:
414,191,112792,2,0,L|349:182,1,61,0|4,1:0|1:3,0:0:0:0:
269,253,113293,1,2,1:3:0:0:
269,253,113459,2,0,L|170:237,2,91.5,4|4|4,1:2|1:2|1:0,0:0:0:0:
254,351,114294,1,4,1:3:0:0:
151,334,114627,6,0,P|104:316|82:277,2,91.5,8|0|0,0:0|1:0|1:0,0:0:0:0:
172,237,115462,2,0,P|175:177|158:118,1,122,2|0,1:0|0:0,0:0:0:0:
196,79,115962,1,0,1:0:0:0:
196,79,116129,1,4,1:3:0:0:
280,71,116379,2,0,B|322:72|322:72|329:77|329:77|369:77,1,91.5,0|0,1:0|1:0,0:0:0:0:
451,152,116963,1,4,1:3:0:0:
357,209,117297,6,0,P|310:217|291:260,2,91.5,8|0|0,0:0|1:0|1:0,0:0:0:0:
434,272,118131,2,0,P|489:291|503:348,1,122,2|0,1:3|0:0,0:0:0:0:
462,384,118632,2,0,L|370:374,1,91.5,8|0,0:0|0:0,0:0:0:0:
316,319,119132,1,0,0:0:0:0:
316,319,119299,2,0,B|251:313|266:285|202:278,1,122,0|4,1:0|1:3,0:0:0:0:
92,289,119967,6,0,P|61:327|69:374,2,91.5,8|0|0,0:0|1:0|1:0,0:0:0:0:
62,205,120801,2,0,P|81:149|61:92,1,122,0|0,1:0|1:0,0:0:0:0:
30,46,121302,2,0,L|120:36,1,91.5,8|0,0:0|1:0,0:0:0:0:
187,94,121802,1,0,1:0:0:0:
187,94,121969,1,0,1:0:0:0:
294,74,122303,1,4,1:3:0:0:
401,50,122636,6,0,P|447:67|464:107,2,91.5,8|0|0,0:0|1:0|1:0,0:0:0:0:
382,150,123471,1,0,0:0:0:0:
382,150,123637,2,0,B|368:200|368:200|374:218|374:218|362:267,1,122,4|0,1:2|1:0,0:0:0:0:
361,267,124293,1,0,0:0:0:0:
274,158,124616,6,0,L|213:164,1,61,4|0,1:0|0:0,0:0:0:0:
172,201,124949,2,0,L|111:194,1,61,4|0,1:2|0:0,0:0:0:0:
66,162,125282,1,8,0:0:0:0:
33,267,125616,2,0,L|37:336,1,61,0|4,1:0|1:2,0:0:0:0:
82,358,125949,2,0,P|115:356|140:336,1,61,0|8,0:0|0:0,0:0:0:0:
168,294,126282,1,0,0:0:0:0:
268,338,126616,6,0,L|337:352,1,61,12|0,0:0|0:0,0:0:0:0:
370,316,126949,2,0,L|429:304,2,61,2|0|0,1:3|0:0|1:0,0:0:0:0:
355,205,127616,2,0,P|357:172|375:144,1,61,8|0,0:0|0:0,0:0:0:0:
408,109,127949,2,0,P|406:76|388:48,1,61,0|4,1:0|1:3,0:0:0:0:
345,23,128282,1,0,0:0:0:0:
241,60,128616,2,0,L|180:51,1,61,0|0,0:0|1:0,0:0:0:0:
144,92,128949,1,12,0:0:0:0:
144,92,129116,2,0,L|83:101,2,61,12|0|12,0:0|1:0|0:0,0:0:0:0:
173,138,129617,2,0,L|164:215,1,61,0|12,1:0|0:0,0:0:0:0:
229,288,130117,6,0,P|202:302|172:308,2,61,0|0|4,0:0|1:0|1:3,0:0:0:0:
265,246,130617,2,0,P|318:223|365:257,1,122,0|0,1:0|0:0,0:0:0:0:
374,316,131117,1,0,1:0:0:0:
374,316,131283,2,0,L|365:382,2,61,0|0|8,1:0|1:0|0:0,0:0:0:0:
472,256,131950,2,0,P|474:212|458:188,1,61,4|0,1:0|0:0,0:0:0:0:
425,161,132283,2,0,P|423:117|439:93,1,61,0|4,1:0|1:3,0:0:0:0:
463,58,132617,1,8,0:0:0:0:
356,32,132950,2,0,L|291:43,1,61,0|0,1:0|1:0,0:0:0:0:
244,23,133283,5,8,0:0:0:0:
244,23,133450,2,0,L|263:154,1,122,4|0,0:0|1:0,0:0:0:0:
231,189,133950,2,0,P|190:199|128:139,1,122,12|8,0:2|0:0,0:0:0:0:
82,127,134450,1,4,1:2:0:0:
57,236,134783,1,0,1:0:0:0:
57,236,134950,1,4,1:0:0:0:
372,330,135954,6,0,P|398:300|407:261,2,81.3333333333333,4|0|2,1:2|1:0|1:2,0:0:0:0:
308,373,136620,1,8,0:0:0:0:
229,298,136954,2,0,L|129:310,1,81.3333333333333,0|8,1:0|0:0,0:0:0:0:
123,279,137287,2,0,P|65:280|39:331,1,122,2|0,1:2|0:0,0:0:0:0:
0,228,137954,2,0,L|1:127,1,81.3333333333333,8|0,0:0|1:0,0:0:0:0:
24,119,138287,1,8,0:0:0:0:
82,26,138620,6,0,L|-2:3,2,81.3333333333333,2|0|2,1:2|1:0|1:2,0:0:0:0:
132,85,139287,1,8,0:0:0:0:
264,72,139620,2,0,L|363:58,1,81.3333333333333,0|8,0:0|0:0,0:0:0:0:
364,91,139954,2,0,L|443:105,2,81.3333333333333,2|0|2,1:2|1:0|1:2,0:0:0:0:
317,153,140620,1,8,0:0:0:0:
362,253,140954,2,0,L|358:335,1,81.3333333333333,8|0,0:0|1:0,0:0:0:0:
335,362,141287,6,0,L|437:369,2,81.3333333333333,6|0|2,1:2|1:0|1:2,0:0:0:0:
258,350,141954,1,8,0:0:0:0:
199,257,142287,2,0,P|200:217|232:194,1,81.3333333333333,0|0,1:0|1:0,0:0:0:0:
253,164,142620,2,0,L|333:173,2,81.3333333333333,2|0|2,1:2|1:0|1:2,0:0:0:0:
209,100,143287,1,8,0:0:0:0:
119,163,143620,6,0,L|36:176,1,81.3333333333333,0|10,1:0|0:0,0:0:0:0:
6,193,143954,2,0,B|-13:156|-13:156|0:116,2,81.3333333333333,2|0|2,1:2|1:0|1:2,0:0:0:0:
6,270,144620,1,8,0:0:0:0:
86,344,144954,2,0,P|126:329|145:286,1,81.3333333333333,0|8,1:0|0:0,0:0:0:0:
179,289,145287,1,2,1:2:0:0:
223,188,145620,2,0,L|217:106,1,81.3333333333333,0|0,0:0|0:0,0:0:0:0:
237,76,145954,2,0,P|314:81|329:129,1,122,8|0,0:0|1:0,0:0:0:0:
422,171,146620,6,0,P|441:136|438:96,2,81.3333333333333,6|0|2,1:2|1:0|1:2,0:0:0:0:
368,227,147287,2,0,P|329:213|289:208,1,81.3333333333333,8|0,0:0|1:0,0:0:0:0:
256,226,147620,1,4,1:0:0:0:
150,258,147954,2,0,B|141:220|141:220|143:216|143:216|136:177,2,81.3333333333333,2|0|2,1:2|1:0|1:2,0:0:0:0:
115,327,148620,1,8,0:0:0:0:
220,356,148954,6,0,L|321:341,1,81.3333333333333,0|8,1:0|0:0,0:0:0:0:
325,317,149287,2,0,L|405:328,2,81.3333333333333,2|0|2,1:2|1:0|1:2,0:0:0:0:
284,252,149953,1,8,0:0:0:0:
360,172,150287,2,0,L|364:86,1,81.3333333333333,0|8,1:0|0:0,0:0:0:0:
387,62,150620,2,0,P|427:57|467:69,2,81.3333333333333,2|0|2,1:2|1:0|1:2,0:0:0:0:
240,53,151509,2,0,L|142:45,1,81.3333333333333,4|12,1:1|0:0,0:0:0:0:
87,74,151953,6,0,B|72:34|72:34|95:2,2,81.3333333333333,6|0|2,1:2|1:0|1:2,0:0:0:0:
145,126,152620,1,8,0:0:0:0:
74,210,152953,2,0,L|60:292,1,81.3333333333333,0|8,1:0|0:0,0:0:0:0:
74,324,153287,1,2,1:2:0:0:
149,295,153509,2,0,L|237:305,2,81.3333333333333,0|2|8,1:0|1:2|0:0,0:0:0:0:
204,199,154287,6,0,P|204:160|231:130,1,81.3333333333333,0|0,1:0|1:0,0:0:0:0:
242,95,154620,2,0,L|322:111,2,81.3333333333333,6|0|2,1:2|1:0|1:2,0:0:0:0:
204,27,155287,1,8,0:0:0:0:
313,23,155620,2,0,P|352:30|387:51,1,81.3333333333333,0|0,1:0|1:0,0:0:0:0:
421,38,155953,2,0,L|400:170,1,122,10|0,0:2|1:0,0:0:0:0:
423,214,156453,1,0,0:0:0:0:
423,214,156620,1,0,1:0:0:0:
315,237,156953,1,0,1:0:0:0:
206,255,157287,6,0,B|169:258|169:258|162:262|162:262|125:264,2,81.3333333333333,6|0|0,1:2|0:0|1:0,0:0:0:0:
230,182,157953,2,0,P|239:143|225:105,1,81.3333333333333,8|0,0:0|1:0,0:0:0:0:
199,79,158287,1,0,1:0:0:0:
93,108,158620,2,0,B|81:68|81:68|97:32,2,81.3333333333333,2|0|2,1:2|1:0|1:2,0:0:0:0:
47,170,159287,1,8,0:0:0:0:
73,276,159620,6,0,L|186:264,1,81.3333333333333,8|0,0:0|1:0,0:0:0:0:
179,241,159953,2,0,P|216:254|233:289,2,81.3333333333333,6|0|2,1:2|1:0|1:2,0:0:0:0:
148,170,160620,1,8,0:0:0:0:
193,70,160953,2,0,L|283:81,1,81.3333333333333,2|8,1:2|0:0,0:0:0:0:
306,63,161287,2,0,L|295:143,2,81.3333333333333,0|14|0,1:0|0:0|1:0,0:0:0:0:
371,21,161953,1,14,0:0:0:0:
479,38,162287,1,0,0:0:0:0:
409,123,162620,6,0,L|397:205,1,81.3333333333333,6|0,1:2|1:0,0:0:0:0:
424,227,162953,1,0,0:0:0:0:
390,331,163287,2,0,L|479:341,2,81.3333333333333,8|0|8,0:0|0:0|0:0,0:0:0:0:
318,358,163953,2,0,P|260:344|232:291,1,122,2|0,1:2|0:0,0:0:0:0:
242,255,164398,2,0,P|251:216|247:176,1,81.3333333333333,2|8,1:2|0:0,0:0:0:0:
195,80,164953,6,0,L|106:87,1,81.3333333333333,0|2,1:0|1:2,0:0:0:0:
87,111,165287,2,0,L|86:29,2,81.3333333333333,2|0|2,1:2|1:0|1:2,0:0:0:0:
39,171,165953,1,8,0:0:0:0:
100,262,166287,2,0,L|99:348,1,81.3333333333333,0|8,1:0|0:0,0:0:0:0:
126,367,166620,2,0,P|173:366|203:305,1,122,4|8,1:0|0:0,0:0:0:0:
235,259,167120,1,0,0:0:0:0:
235,259,167287,1,4,1:2:0:0:
216,150,167620,1,8,0:0:0:0:
197,41,167953,6,0,L|116:50,2,81.3333333333333,6|0|2,1:2|1:0|1:2,0:0:0:0:
263,1,168620,2,0,L|343:13,1,81.3333333333333,8|0,0:0|1:0,0:0:0:0:
379,17,168953,1,0,1:0:0:0:
453,98,169287,2,0,P|482:70|490:31,2,81.3333333333333,2|0|2,1:2|1:0|1:2,0:0:0:0:
379,120,169953,1,8,0:0:0:0:
396,228,170287,2,0,L|404:308,1,81.3333333333333,0|8,1:0|0:0,0:0:0:0:
432,332,170620,6,0,P|470:323|487:287,2,81.3333333333333,6|0|2,1:2|1:0|1:2,0:0:0:0:
372,381,171287,1,8,0:0:0:0:
273,332,171620,2,0,L|165:347,1,81.3333333333333,0|8,1:0|0:0,0:0:0:0:
162,321,171953,2,0,P|156:281|176:247,2,81.3333333333333,0|10|0,1:0|0:2|1:0,0:0:0:0:
113,381,172620,1,10,0:2:0:0:
14,333,172953,2,0,P|9:293|25:256,1,81.3333333333333,8|8,0:0|0:0,0:0:0:0:
48,225,173287,6,0,B|47:189|47:189|44:180|44:180|43:143,2,81.3333333333333,6|0|2,1:2|1:0|1:2,0:0:0:0:
113,267,173953,1,8,0:0:0:0:
208,212,174287,2,0,L|290:236,1,81.3333333333333,8|0,0:0|1:0,0:0:0:0:
307,264,174620,2,0,L|343:140,1,122,2|0,1:2|0:0,0:0:0:0:
404,100,175176,1,0,0:0:0:0:
275,29,175620,2,0,L|194:39,1,81.3333333333333,0|8,1:0|0:0,0:0:0:0:
168,65,175953,6,0,L|87:54,2,81.3333333333333,6|0|6,1:2|1:0|1:2,0:0:0:0:
206,133,176620,1,8,0:0:0:0:
138,219,176953,2,0,L|142:301,1,81.3333333333333,4|0,1:0|1:0,0:0:0:0:
117,327,177287,2,0,B|78:330|78:330|71:335|71:335|31:336,2,81.3333333333333,8|8|0,0:0|0:0|1:0,0:0:0:0:
177,376,177953,1,2,1:2:0:0:
317,206,178620,6,0,P|306:166|312:126,1,81.3333333333333,4|0,1:0|1:0,0:0:0:0:
299,50,179065,2,0,P|338:39|378:45,1,81.3333333333333,4|8,1:2|0:0,0:0:0:0:
451,19,179509,2,0,P|461:58|455:98,1,81.3333333333333,6|8,0:0|0:0,0:0:0:0:
469,175,179954,2,0,P|429:185|389:179,1,81.3333333333333,6|0,1:2|1:0,0:0:0:0:
317,206,180398,1,6,1:2:0:0:
170,199,180842,6,0,L|84:207,1,81.3333333333333,12|0,0:0|0:0,0:0:0:0:
83,129,181287,2,0,L|75:43,1,81.3333333333333,6|0,1:2|1:0,0:0:0:0:
152,36,181731,2,0,L|238:28,1,81.3333333333333,6|0,1:2|0:0,0:0:0:0:
239,106,182176,2,0,L|247:192,1,81.3333333333333,4|0,1:0|0:0,0:0:0:0:
170,199,182620,1,4,1:0:0:0:
209,340,183065,6,0,P|249:340|284:321,1,81.3333333333333,4|2,1:0|1:2,0:0:0:0:
321,253,183509,2,0,P|361:252|396:271,1,81.3333333333333,12|0,0:0|1:0,0:0:0:0:
420,345,183953,1,6,1:2:0:0:
488,215,184398,6,0,L|494:133,1,81.3333333333333,2|8,1:2|0:0,0:0:0:0:
444,75,184842,2,0,P|404:82|379:113,1,81.3333333333333,0|8,1:0|0:0,0:0:0:0:
312,151,185287,1,2,1:2:0:0:
190,70,185731,2,0,L|99:60,1,81.3333333333333,2|8,1:2|0:0,0:0:0:0:
45,105,186176,2,0,L|36:192,1,81.3333333333333,0|0,1:0|1:0,0:0:0:0:
75,254,186620,2,0,P|108:275|148:272,2,81.3333333333333,6|0|2,1:2|1:0|1:2,0:0:0:0:
209,196,187509,6,0,P|232:228|241:268,1,81.3333333333333,0|8,0:0|0:0,0:0:0:0:
306,312,187953,2,0,P|345:303|378:279,1,81.3333333333333,0|12,1:0|0:0,0:0:0:0:
412,137,188620,2,0,L|491:152,2,81.3333333333333,0|4|0,1:0|1:0|1:0,0:0:0:0:
363,82,189287,6,0,P|323:82|284:101,1,81.3333333333333,6|0,1:2|0:0,0:0:0:0:
236,158,189731,2,0,P|196:158|157:139,1,81.3333333333333,6|8,1:2|0:0,0:0:0:0:
107,83,190176,1,4,0:1:0:0:
99,229,190620,2,0,L|82:312,1,81.3333333333333,6|0,1:2|1:0,0:0:0:0:
157,330,191065,2,0,L|236:346,1,81.3333333333333,6|10,0:2|0:2,0:0:0:0:
252,271,191509,2,0,L|269:188,1,81.3333333333333,0|10,1:0|0:2,0:0:0:0:
194,170,191954,2,0,L|114:153,1,81.3333333333333,4|0,1:1|1:0,0:0:0:0:
47,191,192398,1,4,0:2:0:0:
45,44,192842,6,0,P|81:28|121:30,1,81.3333333333333,4|0,0:1|1:0,0:0:0:0:
200,24,193287,2,0,P|236:40|276:38,1,81.3333333333333,14|0,0:2|0:0,0:0:0:0:
330,94,193731,1,4,0:1:0:0:
475,75,194176,2,0,L|464:155,1,81.3333333333333,8|0,0:0|1:0,0:0:0:0:
491,229,194620,6,0,P|456:249|415:249,1,81.3333333333333,14|0,0:0|0:0,0:0:0:0:
356,299,195065,2,0,P|321:278|301:243,1,81.3333333333333,4|8,0:1|0:0,0:0:0:0:
235,204,195509,1,4,0:0:0:0:
190,64,195953,2,0,L|104:56,1,81.3333333333333,6|0,1:2|1:0,0:0:0:0:
47,103,196398,2,0,L|38:183,1,81.3333333333333,4|8,0:0|0:0,0:0:0:0:
84,246,196842,1,4,0:1:0:0:
220,193,197287,5,4,1:0:0:0:
256,192,197398,12,12,198620,0:0:0:0:
256,192,199953,5,4,1:0:0:0:
