osu file format v14

[General]
AudioFilename: audio.mp3
AudioLeadIn: 0
PreviewTime: 135954
Countdown: 0
SampleSet: Soft
StackLeniency: 0.4
Mode: 0
LetterboxInBreaks: 0
WidescreenStoryboard: 1

[Editor]
Bookmarks: 9281,20614,29948,39448,48614,59947,70613,81280,91947,103282,113948,124615,135954,146620,157287,167953,178620,189287,199953,221287
DistanceSpacing: 0.9
BeatDivisor: 4
GridSize: 8
TimelineZoom: 3.799999

[Metadata]
Title:wormhole
TitleUnicode:wormhole
Artist:Annabel
ArtistUnicode:Annabel
Creator:Lince Cosmico
Version:insane w/ acno & irre
Source:
Tags:PDC PDC2022 Pending Cup featured artist mapping contest PDC22 骗顶杯 fall into a lilac slumber irreversible acnozei maot trynna Shouichi Taguchi 田口 囁一 M3-41 yue y_u_e jazz FA japanese
BeatmapID:4021064
BeatmapSetID:1884175

[Difficulty]
HPDrainRate:5.5
CircleSize:4
OverallDifficulty:7
ApproachRate:9
SliderMultiplier:2
SliderTickRate:1

[Events]
//Background and Video events
0,0,"87781701_p0.jpg",0,0
//Break Periods
//Storyboard Layer 0 (Background)
//Storyboard Layer 1 (Fail)
//Storyboard Layer 2 (Pass)
//Storyboard Layer 3 (Foreground)
//Storyboard Layer 4 (Overlay)
//Storyboard Sound Samples

[TimingPoints]
282,333.333333333333,7,2,1,60,1,0
9281,-500,7,2,1,60,0,0
9615,-83.3333333333333,7,2,1,60,0,0
10281,-125,7,2,1,60,0,0
11615,-83.3333333333333,7,2,1,60,0,0
12281,-250,7,2,1,60,0,0
12615,-83.3333333333333,7,2,1,60,0,0
13115,-125,7,2,1,60,0,0
14281,-250,7,2,1,60,0,0
14615,333.333333333333,7,2,1,60,1,0
14615,-83.3333333333333,7,2,1,60,0,0
15448,-125,7,2,1,60,0,0
15781,-100,7,2,1,60,0,0
16114,-83.3333333333333,7,2,1,60,0,0
17281,-100,7,2,1,60,0,0
17614,-125,7,2,1,60,0,0
17948,-100,7,2,1,60,0,0
18448,-166.666666666667,7,2,1,60,0,0
18948,-125,7,2,1,60,0,0
19448,-100,7,2,1,60,0,0
19948,-83.3333333333333,7,2,1,60,0,0
20615,333.333333333333,7,2,2,40,1,0
20615,-142.857142857143,7,2,2,40,0,0
21781,-111.111111111111,7,2,2,40,0,0
22281,-142.857142857143,7,2,2,40,0,0
22948,-111.111111111111,7,2,2,40,0,0
23614,-142.857142857143,7,2,2,40,0,0
24114,-111.111111111111,7,2,2,40,0,0
24614,-142.857142857143,7,2,2,40,0,0
25948,-166.666666666667,7,2,2,40,0,0
26448,-142.857142857143,7,2,2,40,0,0
27614,-111.111111111111,7,2,2,40,0,0
28281,-166.666666666666,7,2,2,40,0,0
29948,-166.666666666666,7,2,2,45,0,0
31114,-111.111111111111,7,2,2,45,0,0
31614,-166.666666666666,7,2,2,45,0,0
35781,-111.111111111111,7,2,2,45,0,0
36614,-100,7,2,2,45,0,0
36948,-166.666666666666,7,2,2,45,0,0
39448,333.333333333333,7,2,1,50,1,0
39448,-100,7,2,1,50,0,0
39948,-125,7,2,1,50,0,0
40948,-250,7,2,1,50,0,0
42281,-100,7,2,1,50,0,0
43614,-166.666666666667,7,2,1,50,0,0
44281,-125,7,2,1,50,0,0
45114,-166.666666666667,7,2,1,50,0,0
45614,-125,7,2,1,50,0,0
46114,-250,7,2,1,50,0,0
46947,-250,7,2,1,50,0,0
47947,-166.666666666667,7,2,1,50,0,0
48281,-100,7,2,1,50,0,0
48614,333.333333333333,7,2,1,55,1,0
48947,-125,7,2,1,55,0,0
50614,-100,7,2,1,55,0,0
50947,-166.666666666667,7,2,1,55,0,0
51280,-100,7,2,1,55,0,0
52447,-125,7,2,1,55,0,0
53614,333.333333333333,7,2,1,60,1,0
54114,-125,7,2,1,60,0,0
55947,-166.666666666667,7,2,1,40,0,0
56280,-100,7,2,1,40,0,0
57447,-66.6666666666667,7,2,1,40,0,0
57947,-100,7,2,1,40,0,0
58447,-66.6666666666667,7,2,1,40,0,0
58947,-100,7,2,1,40,0,0
59530,-200,7,2,1,40,0,0
59780,-142.857142857143,7,2,1,40,0,0
59947,333.333333333333,4,2,1,60,1,0
69613,-125,4,2,1,60,0,0
69946,-83.3333333333333,4,2,1,60,0,0
70280,-83.3333333333333,4,2,1,60,0,0
70613,-100,4,2,1,60,0,0
70835,-83.3333333333333,4,2,1,60,0,0
71058,-250,4,2,1,60,0,0
71280,-100,4,2,1,60,0,0
71613,-166.666666666667,4,2,1,60,0,0
71946,-100,4,2,1,60,0,0
72613,-83.3333333333333,4,2,1,60,0,0
73280,-100,4,2,1,60,0,0
73946,-166.666666666667,4,2,1,60,0,0
74613,-100,4,2,1,60,0,0
75280,-83.3333333333333,4,2,1,60,0,0
75946,-100,4,2,1,60,0,0
76169,-125,4,2,1,60,0,0
76946,-100,4,2,1,60,0,0
77280,-125,4,2,1,60,0,0
77502,-100,4,2,1,60,0,0
79058,-166.666666666667,4,2,1,60,0,0
79502,-100,4,2,1,60,0,0
80280,-250,4,2,1,60,0,0
80613,-100,4,2,1,60,0,0
81113,-166.666666666667,4,2,1,60,0,0
81613,-111.111111111111,4,2,1,60,0,0
82280,-90.9090909090908,4,2,1,60,0,0
82946,-142.857142857143,4,2,1,60,0,0
83280,-76.923076923077,4,2,1,60,0,0
83613,-100,4,2,1,60,0,0
85613,-166.666666666667,4,2,1,60,0,0
86780,-100,4,2,1,60,0,0
87280,-125,4,2,1,60,0,0
87780,-100,4,2,1,60,0,0
88280,-125,4,2,1,60,0,0
89280,-90.9090909090909,4,2,1,60,0,0
90446,-83.3333333333333,4,2,1,60,0,0
91280,-125,4,2,1,60,0,0
91613,-142.857142857143,4,2,1,60,0,0
91947,333.333333333333,7,2,1,60,1,0
96613,-125,7,2,1,60,0,0
96948,333.333333333333,7,2,1,60,1,0
103282,333.704115684093,4,2,1,50,1,0
103282,-125,4,2,1,50,0,0
104783,-166.666666666667,4,2,1,50,0,0
105284,-125,4,2,1,50,0,0
106118,-250,4,2,1,50,0,0
106619,-125,4,2,1,50,0,0
107119,-166.666666666667,4,2,1,50,0,0
107953,-125,4,2,1,50,0,0
109622,-250,4,2,1,50,0,0
110122,-125,4,2,1,50,0,0
111958,-250,4,2,1,50,0,0
112625,-250,4,2,1,50,0,0
113459,-100,4,2,1,50,0,0
113710,-83.3333333333333,4,2,1,50,0,0
113960,-111.111111111111,4,2,1,50,0,0
114906,-125,4,2,1,50,0,0
115462,-250.000000000001,4,2,1,50,0,0
116129,-166.666666666667,4,2,1,50,0,0
116963,-250.000000000001,4,2,1,50,0,0
118131,-166.666666666667,4,2,1,50,0,0
118799,-125,4,2,1,50,0,0
120300,-166.666666666667,4,2,1,50,0,0
121468,-125,4,2,1,50,0,0
122636,-166.666666666667,4,2,1,50,0,0
123637,-500.000000000003,4,2,1,50,0,0
123971,322.927879440258,4,2,1,50,1,0
124616,333.333333333333,7,2,1,60,1,0
124617,-125,7,2,1,60,0,0
129617,333.333333333333,7,2,1,60,1,0
129617,-125,7,2,1,60,0,0
130117,-100,7,2,1,60,0,0
135394,-200,7,2,1,60,0,0
135954,333.333333333333,4,2,3,70,1,0
135954,-100,4,2,3,70,0,0
136398,-166.666666666667,4,2,3,70,0,0
136620,-100,4,2,3,70,0,0
136954,-83.3333333333333,4,2,3,70,0,0
137287,-100,4,2,3,70,0,0
137954,-83.3333333333333,4,2,3,70,0,0
138620,-100,4,2,3,70,0,0
139287,-166.666666666667,4,2,3,70,0,0
139954,-100,4,2,3,70,0,0
140620,-166.666666666667,4,2,3,70,0,0
140954,-83.3333333333333,4,2,3,70,0,0
141287,-100,4,2,3,70,0,0
141509,-125,4,2,3,70,0,0
142287,-83.3333333333333,4,2,3,70,0,0
142620,-100,4,2,3,70,0,0
143287,-125,4,2,3,70,0,0
143620,-83.3333333333333,4,2,3,70,0,0
143954,-100,4,2,3,70,0,0
144842,-250,4,2,3,70,0,0
145287,-100,4,2,3,70,0,0
146620,-100,4,2,3,70,0,0
146842,-125,4,2,3,70,0,0
147065,-166.666666666667,4,2,3,70,0,0
147287,-100,4,2,3,70,0,0
149953,-125,4,2,3,70,0,0
150287,-100,4,2,3,70,0,0
151287,-142.857142857143,4,2,3,70,0,0
151620,-111.111111111111,4,2,3,70,0,0
151953,-99.9999999999999,4,2,3,70,0,0
152176,-125,4,2,3,70,0,0
152398,-166.666666666667,4,2,3,70,0,0
152620,-125,4,2,3,70,0,0
153287,-100,4,2,3,70,0,0
154287,-142.857142857143,4,2,3,70,0,0
154620,-100,4,2,3,70,0,0
154842,-166.666666666667,4,2,3,70,0,0
155065,-125,4,2,3,70,0,0
155287,-166.666666666667,4,2,3,70,0,0
156842,-111.111111111111,4,2,3,70,0,0
157065,-83.3333333333334,4,2,3,70,0,0
157287,-100,4,2,3,70,0,0
161509,-100,4,2,3,70,0,0
161731,-100,4,2,3,70,0,0
161953,-100,4,2,5,70,0,0
162176,-100,4,2,3,70,0,0
162398,-100,4,2,5,70,0,0
162509,-100,4,2,3,70,0,0
167953,-100,4,2,3,70,0,0
168620,-83.3333333333333,4,2,3,70,0,0
169287,-100,4,2,3,70,0,0
169953,-83.3333333333333,4,2,3,70,0,0
171287,-166.666666666667,4,2,3,70,0,0
171953,-100,4,2,3,70,0,0
172620,-83.3333333333333,4,2,3,70,0,0
173509,-100,4,2,3,70,0,0
175287,-83.3333333333333,4,2,3,70,0,0
175953,-125,4,2,3,70,0,0
176176,-100,4,2,3,70,0,0
176398,-83.3333333333333,4,2,3,70,0,0
177620,-100,4,2,3,70,0,0
178620,-76.9230769230769,4,2,3,70,0,0
179287,-83.3333333333333,4,2,3,70,0,0
179620,-100,4,2,3,70,0,0
180620,-125,4,2,3,70,0,0
180953,-100,4,2,3,70,0,0
181287,-125,4,2,3,70,0,0
182287,-100,4,2,3,70,0,0
182620,-142.857142857143,4,2,3,70,0,0
183953,-100,4,2,3,70,0,0
184398,-125,4,2,3,70,0,0
184620,-166.666666666667,4,2,3,70,0,0
185287,-100,4,2,3,70,0,0
185953,-76.9230769230769,4,2,3,70,0,0
186620,-111.111111111111,4,2,3,70,0,0
186842,-99.9999999999999,4,2,3,70,0,0
187065,-83.3333333333333,4,2,3,70,0,0
187953,-100,4,2,3,70,0,0
188842,-83.3333333333333,4,2,3,70,0,0
189287,-100,4,2,3,70,0,0
192787,-142.857142857143,4,2,3,70,0,0
193787,-100,4,2,3,70,0,0
196620,-100,4,2,3,70,0,0
196953,-133.333333333333,4,2,3,70,0,0
197287,-133.333333333333,4,2,1,70,0,0
197370,-133.333333333333,4,2,3,70,0,0
199287,-181.818181818181,4,2,3,70,0,0

[Colours]
Combo1 : 255,159,159
Combo2 : 187,187,187
Combo3 : 255,193,164
Combo4 : 198,198,255
Combo5 : 139,139,197

[HitObjects]
100,321,9281,6,0,L|112:294,1,30,12|0,0:0|0:0,0:0:0:0:
36,367,9615,6,0,P|70:288|49:197,1,179.999994506836,4|0,1:1|0:0,0:0:0:0:
41,191,9948,1,8,0:0:0:0:
123,143,10115,1,0,1:0:0:0:
55,104,10281,2,0,L|42:57,1,40,10|0,0:0|0:0,0:0:0:0:
54,74,10448,1,0,1:0:0:0:
122,38,10615,1,2,1:0:0:0:
136,148,10781,6,0,L|183:161,1,40,8|0,0:0|0:0,0:0:0:0:
239,202,10948,1,0,1:0:0:0:
305,121,11115,1,8,0:0:0:0:
241,78,11281,2,0,L|229:35,3,40,0|0|0|0,0:0|0:0|1:0|0:0,0:0:0:0:
305,121,11615,2,0,P|384:104|432:51,1,119.999996337891,8|0,0:0|0:0,0:0:0:0:
420,70,11865,1,8,0:0:0:0:
423,58,11948,5,0,1:0:0:0:
349,30,12115,1,0,1:0:0:0:
430,177,12281,6,0,L|498:195,1,60,4|0,1:2|0:0,0:0:0:0:
498,186,12615,6,0,P|422:210|374:262,1,119.999996337891,8|0,0:0|0:0,0:0:0:0:
316,214,12948,1,0,1:0:0:0:
396,248,13115,6,0,L|416:292,1,40,8|0,0:0|0:0,0:0:0:0:
399,276,13281,1,0,0:0:0:0:
344,332,13448,1,0,1:0:0:0:
488,308,13615,6,0,L|474:355,2,40,8|0|0,0:0|0:0|0:0,0:0:0:0:
399,276,13948,1,0,1:0:0:0:
344,332,14115,1,0,1:0:0:0:
265,333,14281,6,0,P|232:347|213:377,1,60,12|8,0:0|0:0,0:0:0:0:
348,349,14615,6,0,P|233:349|160:241,1,239.999992675781,0|0,1:0|1:0,0:0:0:0:
160,244,15031,1,2,1:3:0:0:
161,231,15115,1,0,0:0:0:0:
144,332,15281,1,8,0:0:0:0:
245,253,15448,2,0,L|292:221,1,40,0|0,0:0|0:0,0:0:0:0:
273,246,15614,1,0,1:0:0:0:
144,332,15781,6,0,P|101:330|58:275,1,100,0|0,1:0|0:0,0:0:0:0:
23,222,16114,1,0,1:0:0:0:
23,367,16281,6,0,L|46:249,1,119.999996337891,8|0,0:0|0:0,0:0:0:0:
133,255,16614,2,0,L|207:131,1,119.999996337891,0|8,1:0|0:0,0:0:0:0:
202,142,16864,1,8,0:0:0:0:
209,132,16948,5,0,1:0:0:0:
155,76,17114,1,0,1:0:0:0:
128,175,17281,6,0,B|58:160|106:91|0:81,1,150,4|0,1:2|0:0,0:0:0:0:
27,76,17614,2,0,P|64:58|118:-13,1,120,12|0,1:2|0:0,0:0:0:0:
155,76,17948,6,0,P|217:37|316:46,1,150,12|0,1:2|0:0,0:0:0:0:
299,42,18281,5,0,1:0:0:0:
306,122,18448,2,0,P|341:110|372:64,1,89.9999972534181,12|0,0:0|0:0,0:0:0:0:
299,42,18781,5,0,1:0:0:0:
386,66,18948,2,0,P|360:113|288:136,1,120,12|0,0:0|0:0,0:0:0:0:
292,136,19281,5,0,1:0:0:0:
214,149,19448,2,0,P|256:207|334:205,1,150,12|0,0:0|0:0,0:0:0:0:
292,136,19781,5,0,1:0:0:0:
360,216,19948,2,0,P|249:229|188:106,1,239.999992675781,8|2,0:0|0:0,0:0:0:0:
16,357,20615,6,0,B|52:373|55:289|131:287,1,139.999995727539,4|0,1:2|1:0,0:0:0:0:
136,293,21281,2,0,B|131:302|122:300|122:300|61:285,1,69.9999978637696,2|0,0:0|0:0,0:0:0:0:
60,277,21531,1,0,0:0:0:0:
55,270,21615,1,0,0:0:0:0:
184,223,21781,2,0,B|173:160|82:195|66:76,1,179.999994506836,2|0,0:0|1:0,0:0:0:0:
213,128,22281,2,0,P|206:87|253:45,1,104.999996795654,0|0,0:0|0:0,0:0:0:0:
259,57,22614,1,2,0:0:0:0:
259,57,22781,1,2,0:0:0:0:
337,236,22948,6,0,B|326:296|235:261|222:361,1,179.999994506836,0|0,1:0|1:0,0:0:0:0:
214,371,23614,2,0,B|218:365|218:365|289:353,1,69.9999978637696,2|0,0:0|0:0,0:0:0:0:
292,360,23864,1,0,0:0:0:0:
292,360,23948,1,0,0:0:0:0:
412,298,24114,2,0,B|346:301|364:207|268:203,1,179.999994506836,2|0,0:0|1:0,0:0:0:0:
130,81,24614,2,0,B|151:94|151:94|161:137|198:169,1,104.999996795654,2|0,0:0|0:0,0:0:0:0:
197,163,24948,2,0,P|221:132|255:120,1,69.9999978637696,2|6,0:0|0:0,0:0:0:0:
459,18,25281,6,0,B|452:55|387:42|379:127,1,139.999995727539,0|0,1:0|1:0,0:0:0:0:
371,132,25948,2,0,B|375:139|375:139|466:164,1,89.9999972534181,2|0,0:0|0:0,0:0:0:0:
460,169,26281,1,2,0:0:0:0:
376,223,26448,2,0,P|323:251|274:319,1,139.999995727539,2|0,0:0|1:0,0:0:0:0:
271,318,26948,2,0,B|263:280|216:286|217:218,1,104.999996795654,2|0,0:0|0:0,0:0:0:0:
228,220,27281,1,2,0:0:0:0:
228,220,27448,1,2,0:0:0:0:
133,350,27614,6,0,P|76:348|25:234,1,179.999994506836,0|0,1:0|1:0,0:0:0:0:
15,244,28281,2,0,B|23:246|23:246|98:218,1,89.9999972534181,2|2,0:0|0:0,0:0:0:0:
105,209,28614,1,0,0:0:0:0:
105,209,28781,1,2,0:0:0:0:
168,146,28948,2,0,B|158:127|117:129|105:71,1,89.9999972534181,0|0,0:0|0:0,0:0:0:0:
112,70,29281,5,2,0:0:0:0:
69,4,29531,5,2,0:0:0:0:
0,37,29781,5,2,0:0:0:0:
87,274,29948,6,0,P|90:244|93:214,1,59.9999981689454,2|0,1:3|1:0,0:0:0:0:
99,212,30198,1,0,0:0:0:0:
105,209,30281,1,4,1:3:0:0:
0,191,30448,1,0,0:0:0:0:
4,357,30614,2,0,P|75:353|145:347,1,119.999996337891,2|0,0:0|0:0,0:0:0:0:
175,287,31114,2,0,B|223:268|265:283|274:331|305:345|341:337,1,179.999994506836,2|0,0:0|1:0,0:0:0:0:
412,290,31614,5,2,0:0:0:0:
397,384,31864,5,0,0:0:0:0:
427,196,32114,5,2,0:0:0:0:
397,90,32281,6,0,B|376:103|376:103|366:146|346:160,1,89.9999972534181,0|0,1:0|0:0,0:0:0:0:
293,98,32614,2,0,P|263:101|238:116,1,59.9999981689454,4|0,1:3|0:0,0:0:0:0:
508,27,32948,1,2,0:0:0:0:
294,99,33281,5,0,0:0:0:0:
508,32,33448,2,0,P|448:28|396:0,1,119.999996337891,2|0,0:0|1:0,0:0:0:0:
512,191,33948,2,0,P|482:192|456:207,1,59.9999981689454,2|0,0:0|0:0,0:0:0:0:
417,279,34281,2,0,L|410:344,1,59.9999981689454,2|0,0:0|0:0,0:0:0:0:
412,344,34531,1,2,0:0:0:0:
414,350,34614,1,0,1:0:0:0:
508,352,34781,1,0,1:0:0:0:
323,314,34948,6,0,L|331:396,1,59.9999981689454,0|0,1:0|0:0,0:0:0:0:
205,289,35281,2,0,P|148:270|89:276,1,119.999996337891,2|0,0:0|0:0,0:0:0:0:
0,377,35781,2,0,P|89:385|174:357,1,179.999994506836,2|0,0:0|1:0,0:0:0:0:
205,289,36281,1,2,0:0:0:0:
46,107,36614,6,0,L|56:206,1,100,2|4,0:0|0:3,0:0:0:0:
146,228,36948,6,0,B|225:165|265:255|317:218,1,179.999994506836,0|0,1:0|0:0,0:0:0:0:
380,313,37614,2,0,P|382:279|398:233,1,59.9999981689454,2|0,0:0|0:0,0:0:0:0:
398,254,37864,1,2,0:0:0:0:
398,254,37948,5,0,0:0:0:0:
493,313,38114,1,2,0:0:0:0:
490,91,38281,2,0,P|494:150|502:210,1,119.999996337891,0|2,0:0|0:0,0:0:0:0:
402,160,38781,1,0,1:0:0:0:
508,352,38948,5,12,1:2:0:0:
508,352,39448,6,0,P|456:337|412:272,2,100,6|0|0,1:0|1:0|1:0,0:0:0:0:
428,342,39948,2,0,P|354:348|256:389,1,160,8|0,1:2|0:0,0:0:0:0:
349,269,40448,6,0,B|363:209|413:239|423:170,1,120,4|0,0:3|0:0,0:0:0:0:
419,171,40781,1,0,1:0:0:0:
347,134,40948,2,0,L|332:88,1,40,8|0,0:0|0:0,0:0:0:0:
440,19,41281,1,0,1:0:0:0:
498,74,41448,1,4,0:3:0:0:
501,84,41531,1,0,1:0:0:0:
494,91,41614,1,0,1:0:0:0:
437,26,41781,5,0,1:0:0:0:
334,95,41948,2,0,L|272:84,1,60,4|0,1:3|0:0,0:0:0:0:
264,85,42281,6,0,P|309:65|361:9,1,100,10|0,0:0|0:0,0:0:0:0:
199,19,42614,1,2,1:0:0:0:
208,162,42781,6,0,P|168:132|93:115,1,100,8|0,0:0|0:0,0:0:0:0:
197,33,43114,1,0,1:0:0:0:
299,169,43281,5,0,0:0:0:0:
296,249,43447,1,0,1:0:0:0:
316,173,43614,2,0,L|380:189,1,59.9999981689454,4|0,1:2|0:0,0:0:0:0:
385,190,43864,1,0,1:0:0:0:
396,193,43947,1,0,1:0:0:0:
386,328,44197,5,0,0:0:0:0:
381,320,44281,2,0,B|305:325|342:368|249:378,1,120,0|0,1:0|0:0,0:0:0:0:
283,359,44614,2,0,P|200:325|101:321,1,160,8|0,0:0|0:0,0:0:0:0:
53,364,45114,6,0,L|38:279,1,59.9999981689454,0|0,1:0|0:0,0:0:0:0:
7,213,45447,1,0,1:0:0:0:
110,243,45614,2,0,L|138:142,1,80,8|0,0:0|0:0,0:0:0:0:
80,21,45947,5,0,1:0:0:0:
46,88,46114,2,0,L|-1:102,1,40,4|0,0:3|0:0,0:0:0:0:
89,19,46447,5,0,1:0:0:0:
143,74,46614,1,0,1:0:0:0:
215,48,46781,1,0,1:0:0:0:
228,57,46947,2,0,L|234:103,1,40,8|0,0:0|0:0,0:0:0:0:
202,180,47281,5,0,1:0:0:0:
298,146,47447,2,0,L|289:193,1,40,4|0,1:2|0:0,0:0:0:0:
333,254,47781,5,2,1:3:0:0:
160,247,47947,2,0,L|179:350,1,89.9999972534181,4|0,1:2|0:0,0:0:0:0:
181,349,48281,5,8,0:0:0:0:
194,362,48364,1,8,0:0:0:0:
209,368,48447,1,8,0:0:0:0:
227,369,48531,1,8,0:0:0:0:
240,362,48614,6,0,B|245:353|255:351|255:339|255:339|233:216,1,150,4|0,1:0|0:0,0:0:0:0:
237,211,48947,2,0,B|232:186|206:187|199:143,1,80,4|0,1:2|0:0,0:0:0:0:
375,21,49280,2,0,P|332:36|280:150,1,160,8|0,0:0|1:0,0:0:0:0:
278,131,49780,1,4,1:3:0:0:
278,131,50114,6,0,B|366:152|366:152|372:166|396:176,1,120,8|0,0:0|0:0,0:0:0:0:
395,170,50447,1,0,1:0:0:0:
486,116,50614,2,0,B|472:140|455:129|444:157|444:157|415:261,1,150,8|0,0:0|0:0,0:0:0:0:
414,249,50947,6,0,L|432:313,1,59.9999981689454,0|0,1:0|1:0,0:0:0:0:
342,372,51280,2,0,L|314:275,1,100,4|0,1:3|0:0,0:0:0:0:
278,131,51614,1,8,0:0:0:0:
218,182,51780,1,0,0:0:0:0:
218,182,51864,1,0,0:0:0:0:
218,182,51947,1,0,1:0:0:0:
75,82,52114,1,8,0:0:0:0:
75,82,52447,5,0,1:0:0:0:
75,82,52613,2,0,P|55:60|-2:49,1,80,8|0,0:0|0:0,0:0:0:0:
136,201,52947,2,0,P|132:166|156:122,1,80,0|2,1:0|1:0,0:0:0:0:
217,74,53280,1,0,1:0:0:0:
217,74,53447,1,4,0:3:0:0:
167,354,53613,5,4,1:3:0:0:
167,354,54114,2,0,B|172:342|189:336|189:336|232:208,1,160,8|0,0:0|1:0,0:0:0:0:
185,147,54614,1,0,1:0:0:0:
185,147,54780,1,0,1:0:0:0:
380,344,55114,6,0,P|345:351|314:272,1,120,8|0,0:0|0:0,0:0:0:0:
314,280,55447,1,0,1:0:0:0:
390,234,55614,2,0,B|391:189|437:209|442:123,1,120,12|0,0:0|0:0,0:0:0:0:
449,122,55947,6,0,L|385:105,1,59.9999981689454,4|0,1:0|0:0,0:0:0:0:
512,51,56280,2,0,L|412:24,1,100,0|0,1:0|0:0,0:0:0:0:
309,134,56614,2,0,B|273:157|280:199|280:199|266:158|224:158,1,150,4|0,1:3|0:0,0:0:0:0:
217,166,56947,1,8,0:0:0:0:
94,57,57114,1,0,1:0:0:0:
91,52,57197,1,0,1:0:0:0:
88,47,57280,1,0,1:0:0:0:
19,93,57447,6,0,B|47:78|49:108|85:111|85:111|135:40|221:33,1,225.000008583069,12|0,0:0|0:0,0:0:0:0:
211,33,57780,1,0,1:0:0:0:
217,122,57947,6,0,P|163:166|143:249,1,150,12|0,0:0|0:0,0:0:0:0:
142,241,58280,1,0,1:0:0:0:
318,281,58447,6,0,P|259:192|296:294,1,300.000011444092,12|0,0:0|1:0,0:0:0:0:
479,375,58947,2,0,B|403:384|420:259|307:282,1,200,12|0,0:0|0:0,0:0:0:0:
125,349,59447,5,2,0:0:0:0:
125,349,59530,1,2,0:0:0:0:
122,314,59613,2,0,L|109:340,1,25,2|2,0:1|0:1,0:0:0:0:
42,277,59780,2,0,P|31:257|30:236,1,34.9999989318848,2|2,0:3|0:3,0:0:0:0:
113,146,59947,6,0,B|104:118|70:146|53:131,1,66.6666666666667,4|0,1:2|0:0,0:0:0:0:
160,208,60169,6,0,B|156:236|117:215|103:232,1,66.6666666666667,0|0,1:0|0:0,0:0:0:0:
226,107,60391,6,0,B|227:78|185:92|174:73,1,66.6666666666667,0|0,1:0|0:0,0:0:0:0:
303,200,60613,6,0,B|309:227|265:220|258:242,1,66.6666666666667,8|0,0:0|1:0,0:0:0:0:
394,157,60835,5,0,1:0:0:0:
403,149,60947,2,0,P|408:82|417:16,1,133.333333333333,0|0,1:0|0:0,0:0:0:0:
456,250,61280,6,0,P|437:231|445:253,1,66.6666666666667,0|0,1:0|0:0,0:0:0:0:
428,333,61502,2,0,P|446:351|438:329,1,66.6666666666667,0|0,1:0|0:0,0:0:0:0:
462,249,61724,2,0,P|443:230|451:252,1,66.6666666666667,0|0,1:0|0:0,0:0:0:0:
312,226,61947,6,0,L|180:236,1,133.333333333333,8|0,0:0|1:0,0:0:0:0:
297,314,62280,2,0,L|165:324,1,133.333333333333,2|2,0:0|0:1,0:0:0:0:
68,266,62613,6,0,B|56:247|26:159|26:159|11:147,1,133.333333333333,0|0,1:0|1:0,0:0:0:0:
26,50,62947,1,0,1:0:0:0:
38,47,63058,6,0,B|55:34|97:92|256:70,1,200,0|0,1:0|0:0,0:0:0:0:
356,36,63502,2,0,B|342:62|432:107|439:223,1,200,0|8,1:0|0:0,0:0:0:0:
447,222,63946,6,0,B|464:212|464:212|502:237|505:233,1,66.6666666666667,0|0,1:0|0:0,0:0:0:0:
455,342,64169,2,0,B|452:338|414:363|414:363|397:353,1,66.6666666666667,0|0,1:0|0:0,0:0:0:0:
302,292,64391,2,0,B|319:302|319:302|357:277|360:280,1,66.6666666666667,0|0,1:0|0:0,0:0:0:0:
210,292,64613,6,0,B|193:302|193:302|155:277|152:280,1,66.6666666666667,8|0,0:0|0:0,0:0:0:0:
57,342,64835,2,0,B|60:338|98:363|98:363|115:353,1,66.6666666666667,6|0,0:0|1:0,0:0:0:0:
65,222,65058,2,0,B|48:212|48:212|10:237|7:233,1,66.6666666666667,10|2,0:0|0:3,0:0:0:0:
179,197,65280,6,0,P|176:117|251:94,1,166.666666666667,0|0,1:0|0:0,0:0:0:0:
255,98,65613,1,2,0:1:0:0:
316,193,65780,2,0,B|351:165|371:223|477:207,1,166.666666666667,0|0,1:0|0:0,0:0:0:0:
468,293,66169,1,0,1:0:0:0:
387,324,66280,2,0,L|203:338,1,166.666666666667,2|0,1:0|0:0,0:0:0:0:
210,347,66613,1,0,1:0:0:0:
71,273,66946,6,0,P|87:244|110:259,2,66.6666666666667,0|0|0,0:3|1:0|0:3,0:0:0:0:
159,150,67280,2,0,P|185:164|219:154,2,66.6666666666667,8|0|0,0:0|0:0|1:0,0:0:0:0:
286,46,67613,2,0,P|321:36|354:36,2,66.6666666666667,2|2|2,0:3|1:1|1:0,0:0:0:0:
329,216,67946,6,0,P|326:136|401:113,1,166.666666666667,0|0,1:0|0:0,0:0:0:0:
405,117,68279,1,2,0:1:0:0:
464,339,68446,2,0,B|358:355|338:297|301:326,1,166.666666666667,0|0,1:0|0:0,0:0:0:0:
239,379,68835,1,0,1:0:0:0:
157,363,68946,2,0,L|143:179,1,166.666666666667,2|0,1:0|0:0,0:0:0:0:
19,156,69280,6,0,B|44:187|44:187|20:240|31:322,1,166.666666666667,0|0,1:0|0:0,0:0:0:0:
40,321,69613,6,0,B|44:336|44:336|21:369,2,53.3333333333333,0|8|8,1:0|1:2|0:0,0:0:0:0:
151,303,69946,6,0,B|169:284|169:284|233:290,2,79.9999975585938,2|2|10,1:3|1:3|0:2,0:0:0:0:
246,167,70280,6,0,B|224:161|224:161|199:107,2,79.9999975585938,2|2|8,1:1|1:3|1:2,0:0:0:0:
378,226,70613,6,0,B|415:237|395:249|443:265,1,66.6666666666667,4|0,1:0|0:0,0:0:0:0:
453,361,70835,6,0,B|490:340|466:323|509:307,1,79.9999975585938,0|0,1:0|0:0,0:0:0:0:
488,202,71058,6,0,L|496:172,1,26.6666666666667,0|0,1:0|0:0,0:0:0:0:
424,145,71280,2,0,L|411:63,1,66.6666666666667,8|0,0:0|0:0,0:0:0:0:
449,3,71502,1,0,1:0:0:0:
412,70,71613,6,0,L|455:80,2,39.9999987792969,0|0|0,1:0|0:0|1:0,0:0:0:0:
329,23,71946,6,0,B|290:38|309:51|266:69,1,66.6666666666667,0|0,1:0|0:0,0:0:0:0:
266,136,72169,6,0,B|272:94|251:104|257:58,1,66.6666666666667,0|0,1:0|0:0,0:0:0:0:
200,28,72391,6,0,B|232:54|234:31|271:59,1,66.6666666666667,0|0,1:0|0:0,0:0:0:0:
346,129,72613,6,0,P|255:172|205:210,1,159.999995117188,8|0,0:0|1:0,0:0:0:0:
132,216,72946,5,10,0:0:0:0:
111,203,73058,5,2,0:2:0:0:
111,179,73169,5,2,0:1:0:0:
125,159,73280,6,0,P|143:129|154:97,1,66.6666666666667,0|0,1:0|0:0,0:0:0:0:
43,134,73502,2,0,P|37:99|25:67,1,66.6666666666667,0|0,1:0|0:0,0:0:0:0:
104,32,73724,1,0,1:0:0:0:
61,221,73946,6,0,B|43:263|92:243|71:301,1,79.9999975585938,8|0,0:0|0:0,0:0:0:0:
44,365,74280,6,0,L|0:375,2,39.9999987792969,0|0|2,1:0|1:0|1:2,0:0:0:0:
82,301,74613,6,0,B|120:303|102:326|156:332,1,66.6666666666667,0|0,1:0|0:0,0:0:0:0:
204,280,74835,6,0,B|242:276|224:253|262:251,1,66.6666666666667,0|0,1:0|0:0,0:0:0:0:
303,320,75058,6,0,B|341:322|323:345|377:351,1,66.6666666666667,0|0,1:0|0:0,0:0:0:0:
246,377,75280,6,0,P|345:308|416:287,1,159.999995117188,8|0,0:0|0:0,0:0:0:0:
454,328,75613,5,8,0:0:0:0:
474,315,75724,5,10,0:0:0:0:
475,290,75835,5,10,0:0:0:0:
467,269,75946,6,0,B|457:235|425:242|421:198,1,66.6666666666667,4|0,1:0|0:0,0:0:0:0:
349,218,76169,2,0,P|321:162|326:102,1,106.666666666667,0|0,1:0|1:0,0:0:0:0:
367,56,76502,1,0,0:0:0:0:
377,53,76613,6,0,P|398:19|395:-2,2,53.3333333333333,8|0|0,0:0|0:0|1:0,0:0:0:0:
280,184,76946,2,0,P|257:206|251:241,2,66.6666666666667,0|10|10,1:0|0:0|0:0,0:0:0:0:
414,132,77280,6,0,B|442:114|443:136|488:116,1,53.3333333333333,0|0,1:0|0:0,0:0:0:0:
266,54,77502,1,0,1:0:0:0:
266,54,77724,6,0,B|228:51|240:73|203:73,1,66.6666666666667,0|0,1:0|0:0,0:0:0:0:
142,25,77946,6,0,P|93:79|68:137,1,133.333333333333,8|0,0:0|1:0,0:0:0:0:
42,224,78280,5,2,0:0:0:0:
43,243,78391,5,2,1:2:0:0:
57,257,78502,5,2,1:3:0:0:
75,263,78613,6,0,P|105:252|123:225,1,66.6666666666667,4|0,1:0|0:0,0:0:0:0:
206,158,78835,2,0,P|200:190|215:219,1,66.6666666666667,0|0,1:0|0:0,0:0:0:0:
216,315,79058,6,0,P|201:301|182:296,1,39.9999987792969,0|0,1:0|0:0,0:0:0:0:
122,355,79280,1,8,0:0:0:0:
186,288,79502,6,0,P|244:255|310:250,1,133.333333333333,4|0,1:3|0:0,0:0:0:0:
382,215,79835,1,8,0:0:0:0:
382,215,79946,5,4,1:2:0:0:
412,288,80113,1,0,1:0:0:0:
490,184,80280,6,0,P|472:223|443:231,1,60,8|0,0:0|0:0,0:0:0:0:
382,215,80613,5,8,0:0:0:0:
375,185,80696,1,8,0:0:0:0:
368,155,80780,1,8,0:0:0:0:
362,125,80863,1,8,0:0:0:0:
355,95,80946,6,0,L|422:111,1,50,0|0,1:0|1:0,0:0:0:0:
497,70,81113,2,0,L|455:60,1,29.9999990844727,0|0,1:0|1:0,0:0:0:0:
307,22,81280,5,4,1:1:0:0:
307,22,81446,1,0,1:0:0:0:
474,146,81613,2,0,B|470:194|437:176|424:222,1,89.9999972534181,8|0,0:0|1:0,0:0:0:0:
309,224,81946,2,0,B|320:265|353:246|357:295,1,89.9999972534181,8|0,0:0|1:0,0:0:0:0:
464,370,82280,1,0,1:0:0:0:
494,297,82446,6,0,B|454:282|448:381|358:375,1,165.000005035401,8|0,0:0|0:0,0:0:0:0:
349,368,82780,1,0,1:0:0:0:
225,289,82946,2,0,B|220:283|220:283|213:251|179:213,1,69.9999978637696,0|0,0:0|1:0,0:0:0:0:
251,377,83280,2,0,B|264:364|264:364|264:274|312:193,1,194.999991073609,12|0,0:0|0:0,0:0:0:0:
316,188,83613,2,0,P|341:164|323:192,1,100,4|8,1:2|0:0,0:0:0:0:
137,295,83946,5,4,1:2:0:0:
137,295,84280,2,0,B|144:246|176:268|195:216,1,100,8|0,0:0|1:0,0:0:0:0:
100,187,84613,2,0,B|92:144|52:158|50:105,1,100,8|0,0:0|1:0,0:0:0:0:
154,64,84946,1,0,1:0:0:0:
2,35,85113,1,12,0:0:0:0:
74,2,85280,5,0,1:0:0:0:
74,2,85363,1,0,1:0:0:0:
74,2,85446,1,0,1:0:0:0:
182,155,85613,2,0,P|196:156|280:172,1,89.9999972534181,8|0,0:0|0:0,0:0:0:0:
278,164,85946,6,0,P|288:156|297:139,3,29.9999990844727,0|0|0|0,1:0|1:0|1:0|1:0,0:0:0:0:
372,127,86280,2,0,P|370:114|359:98,3,29.9999990844727,2|2|2|2,1:2|1:2|1:3|1:0,0:0:0:0:
386,27,86613,1,4,1:0:0:0:
386,27,86946,6,0,P|445:17|472:52,1,100,8|0,0:0|1:0,0:0:0:0:
501,110,87196,1,0,1:0:0:0:
506,117,87280,2,0,B|501:151|501:151|509:157,2,40,8|8|0,0:0|0:0|1:0,0:0:0:0:
469,42,87613,1,0,1:0:0:0:
419,184,87780,2,0,B|350:211|400:267|323:291,1,150,8|0,0:0|0:0,0:0:0:0:
314,289,88113,5,0,1:0:0:0:
249,236,88280,2,0,B|232:204|208:224|195:177,1,80,8|2,0:0|0:0,0:0:0:0:
199,172,88530,1,0,0:0:0:0:
202,165,88613,1,0,1:0:0:0:
140,106,88780,1,0,1:0:0:0:
13,200,88946,1,8,0:0:0:0:
79,251,89113,1,8,0:0:0:0:
83,257,89196,1,8,0:0:0:0:
89,265,89280,6,0,B|135:290|127:341|127:341|138:307|183:297,1,165.000005035401,4|0,1:0|0:0,0:0:0:0:
190,291,89613,1,8,0:0:0:0:
324,362,89780,1,0,1:0:0:0:
324,362,89863,1,0,0:0:0:0:
324,362,89946,2,0,B|277:371|277:371|271:380,2,55.0000016784668,8|8|8,0:0|0:0|0:0,0:0:0:0:
484,281,90280,1,0,1:0:0:0:
449,352,90446,6,0,P|388:312|365:155,1,239.999992675781,12|0,0:0|1:0,0:0:0:0:
328,85,90946,1,8,0:0:0:0:
472,47,91113,1,2,1:0:0:0:
472,47,91196,1,2,1:2:0:0:
472,47,91280,2,0,B|481:15|481:15|490:11,2,40,2|2|0,1:2|1:2|1:0,0:0:0:0:
364,156,91613,6,0,L|374:198,1,34.9999989318848,0|0,1:0|1:0,0:0:0:0:
292,182,91780,2,0,L|283:147,1,34.9999989318848,0|0,1:0|1:0,0:0:0:0:
328,85,91946,1,4,1:0:0:0:
112,230,92280,6,0,B|79:227|79:227|-21:233,1,100,8|0,0:0|1:0,0:0:0:0:
111,239,92613,2,0,B|78:236|78:236|-22:242,1,100,8|0,0:0|1:0,0:0:0:0:
134,143,92947,1,0,1:0:0:0:
110,248,93113,2,0,B|77:245|77:245|-23:251,1,100,14|0,0:0|0:0,0:0:0:0:
205,166,93447,5,0,1:0:0:0:
180,374,93613,2,0,P|190:323|241:309,1,100,10|10,0:0|0:0,0:0:0:0:
156,356,93947,6,0,B|131:359|131:359|107:368|106:368,1,50,8|8,0:0|0:0,0:0:0:0:
391,316,94197,1,8,0:0:0:0:
417,338,94280,6,0,B|441:355|441:355|457:297|433:227,1,150,6|0,1:2|0:0,0:0:0:0:
458,162,94613,2,0,P|469:114|517:115,2,100,0|0|8,1:0|1:0|0:0,0:0:0:0:
404,38,95113,1,0,0:0:0:0:
492,88,95280,1,0,1:0:0:0:
376,60,95447,2,0,B|348:62|348:62|205:47|205:47|176:69,1,200,8|8,0:0|0:0,0:0:0:0:
85,187,95947,6,0,B|50:111|32:47,1,150,0|0,1:0|0:0,0:0:0:0:
42,38,96280,2,0,B|68:98|76:130,1,100,8|2,0:0|1:2,0:0:0:0:
36,266,96530,1,2,1:2:0:0:
39,256,96613,2,0,L|-13:245,2,40,2|2|2,1:2|1:0|1:0,0:0:0:0:
61,375,96948,6,0,P|148:368|266:366,1,200,4|0,1:0|1:0,0:0:0:0:
280,256,97448,1,4,1:3:0:0:
116,282,97614,1,12,0:0:0:0:
270,269,97781,1,0,1:0:0:0:
106,166,97948,1,0,1:0:0:0:
195,240,98114,6,0,B|197:189|202:164|202:164|190:131|190:131|211:91|214:35,1,200,12|8,0:0|0:0,0:0:0:0:
352,275,98614,2,0,B|350:224|345:199|345:199|357:166|357:166|336:126|333:70,1,200,0|8,1:0|0:0,0:0:0:0:
434,139,99114,1,0,0:0:0:0:
473,256,99281,6,0,P|478:315|418:365,2,100,4|0|0,1:2|0:0|1:0,0:0:0:0:
315,363,99781,2,0,B|257:366|196:384|196:384|101:378,1,200,2|2,1:1|0:0,0:0:0:0:
39,256,100281,2,0,L|148:247,1,100,0|0,1:0|0:0,0:0:0:0:
138,247,100531,1,0,1:0:0:0:
138,247,100614,1,0,1:3:0:0:
315,363,100781,6,0,P|461:339|531:335,1,200,12|0,0:0|1:0,0:0:0:0:
255,316,101281,2,0,P|384:244|449:216,1,200,12|0,0:0|1:0,0:0:0:0:
180,294,101781,2,0,P|267:174|313:122,1,200,12|0,0:0|1:0,0:0:0:0:
105,304,102281,2,0,P|145:162|171:97,1,200,12|0,0:0|1:0,0:0:0:0:
38,340,102781,2,0,P|27:193|29:123,1,200,12|0,0:0|1:0,0:0:0:0:
39,31,103281,5,4,1:0:0:0:
155,108,103615,5,4,1:3:0:0:
13,205,103949,6,0,L|9:157,1,26.6666666666667,8|0,0:0|0:0,0:0:0:0:
7,215,104227,6,0,B|78:223|44:282|132:287,1,133.333333333333,0|0,0:0|1:0,0:0:0:0:
69,353,104616,1,0,0:0:0:0:
148,373,104783,6,0,P|202:328|299:316,1,149.999995422363,0|0,1:0|1:0,0:0:0:0:
286,314,105284,2,0,B|291:250|328:292|345:207,1,120,8|0,0:0|1:0,0:0:0:0:
341,206,105617,1,0,0:0:0:0:
409,288,105784,1,4,1:3:0:0:
482,190,105951,5,0,1:0:0:0:
482,190,106285,2,0,L|498:121,1,60,4|0,1:3|0:0,0:0:0:0:
498,124,106619,1,8,0:0:0:0:
397,113,106785,5,0,1:0:0:0:
355,45,106952,1,0,1:0:0:0:
278,22,107119,6,0,P|242:41|221:45,1,59.9999981689454,0|0,1:0|0:0,0:0:0:0:
151,20,107453,1,2,1:3:0:0:
195,121,107620,2,0,P|146:103|89:95,1,89.9999972534181
100,97,107953,6,0,B|65:37|35:67|1:2,2,120,8|0|0,0:0|1:0|1:0,0:0:0:0:
28,197,108621,6,0,B|2:198|-14:230|-14:230|17:203|25:97,2,160,0|4|8,1:0|1:3|0:0,0:0:0:0:
106,177,109455,1,0,0:0:0:0:
157,238,109622,2,0,L|206:247,1,40,0|0,0:0|1:0,0:0:0:0:
116,172,109956,5,0,0:0:0:0:
187,255,110122,6,0,B|276:234|211:186|325:165,1,160,0|0,1:0|0:0,0:0:0:0:
384,207,110623,6,0,B|409:217|414:273|380:263|381:226,1,80,8|0,0:0|0:0,0:0:0:0:
375,126,110873,2,0,B|371:98|417:66|425:100|393:118,1,80,0|0,1:0|0:0,0:0:0:0:
312,177,111124,2,0,B|290:193|239:169|264:145|296:164,1,80,0|0,1:0|1:0,0:0:0:0:
492,189,111624,5,4,1:3:0:0:
483,281,111791,1,0,0:0:0:0:
495,180,111958,2,0,L|481:112,2,60,8|0|0,0:0|1:0|1:0,0:0:0:0:
481,292,112625,5,0,0:0:0:0:
404,276,112792,1,0,1:0:0:0:
343,351,112959,2,0,L|255:337,1,80,4|2,1:3|1:3,0:0:0:0:
264,351,113459,6,0,B|211:333|212:275|234:275|247:301,1,100,4|0,1:2|0:0,0:0:0:0:
313,246,113710,6,0,B|365:208|338:147|314:156|310:183,1,119.999996337891,4|0,1:2|0:0,0:0:0:0:
228,198,113960,6,0,B|141:187|121:82|190:80|190:135,2,179.999994506836,4|4|8,1:0|1:3|0:0,0:0:0:0:
344,329,114906,2,0,B|371:335|386:307|380:304|390:265|433:259,1,120
505,284,115295,5,0,0:0:0:0:
410,177,115462,2,0,L|396:127,1,40,2|8,1:0|0:0,0:0:0:0:
419,179,115962,5,0,1:0:0:0:
446,66,116129,1,4,1:3:0:0:
336,188,116379,6,0,L|302:178,1,29.9999990844727,0|0,1:0|0:0,0:0:0:0:
387,259,116630,1,0,1:0:0:0:
387,259,116963,6,0,P|401:313|407:333,1,60,4|0,1:3|0:0,0:0:0:0:
414,325,117297,2,0,B|388:335|401:356|375:372,1,60,8|0,0:0|1:0,0:0:0:0:
215,295,117798,1,0,1:0:0:0:
215,295,118131,2,0,P|159:267|115:170,1,149.999995422363,2|0,1:3|1:0,0:0:0:0:
109,181,118632,5,8,0:0:0:0:
215,60,118799,2,0,B|195:42|209:11|209:11|210:64|168:106,1,160,0|0,1:0|0:0,0:0:0:0:
60,260,119299,6,0,B|8:237|24:177|24:177|23:215|44:233,2,160,0|4|8,1:0|1:3|0:0,0:0:0:0:
78,371,120134,1,0,0:0:0:0:
133,315,120300,2,0,P|160:300|205:293,1,59.9999981689454,0|0,0:0|1:0,0:0:0:0:
201,213,120634,2,0,P|235:180|251:97,2,119.999996337891,0|0|8,1:0|1:0|0:0,0:0:0:0:
263,326,121524,6,0,P|315:337|360:388,1,120,0|0,1:0|1:0,0:0:0:0:
358,384,121969,6,0,P|389:272|420:226,1,160,0|4,1:0|1:3,0:0:0:0:
412,235,122636,2,0,B|397:234|387:189|331:192,1,89.9999972534181,8|0,0:0|1:0,0:0:0:0:
484,126,123137,5,0,1:0:0:0:
395,62,123387,5,0,1:0:0:0:
463,12,123637,6,0,P|471:4|455:9,1,40,4|0,1:2|1:0,0:0:0:0:
325,103,124132,1,0,1:0:0:0:
318,111,124213,1,2,1:0:0:0:
295,113,124293,1,2,1:3:0:0:
279,131,124374,1,0,1:0:0:0:
243,133,124455,1,10,1:2:0:0:
214,156,124536,1,10,1:2:0:0:
172,165,124616,5,4,1:0:0:0:
5,62,124782,1,0,0:0:0:0:
100,44,124949,2,0,L|93:123,1,80,4|0,1:2|0:0,0:0:0:0:
0,67,125282,2,0,L|6:146,2,80,8|0|0,0:0|0:0|1:0,0:0:0:0:
32,223,125782,5,4,1:2:0:0:
14,318,125949,2,0,B|45:304|70:325|116:311,1,80,0|8,0:0|0:0,0:0:0:0:
180,334,126282,2,0,P|223:328|310:364,1,120,0|0,0:0|0:0,0:0:0:0:
306,348,126616,2,0,P|340:352|411:323,1,80,12|0,0:0|0:0,0:0:0:0:
359,187,126949,5,2,1:3:0:0:
472,206,127116,1,0,0:0:0:0:
498,318,127282,2,0,L|418:311,2,80,0|4|8,1:0|0:3|0:0,0:0:0:0:
365,179,127782,5,0,0:0:0:0:
305,303,127949,2,0,L|226:310,1,80,0|4,1:0|1:3,0:0:0:0:
252,198,128282,1,0,0:0:0:0:
147,294,128449,6,0,B|158:262|123:231|99:294|123:359|181:368,1,160,8|0,0:0|1:0,0:0:0:0:
8,318,128949,2,0,B|19:350|-16:381|-40:318|-16:253|42:244,1,160,12|0,0:0|1:0,0:0:0:0:
0,178,129449,1,12,0:0:0:0:
122,98,129617,6,0,L|25:92,2,80,0|12|0,1:0|0:0|1:2,0:0:0:0:
159,21,130117,1,0,0:0:0:0:
202,121,130283,6,0,L|80:127,1,100,0|4,1:0|1:3,0:0:0:0:
384,109,130617,2,0,L|262:115,2,100,0|12|0,1:0|0:0|0:0,0:0:0:0:
353,15,131117,1,0,1:0:0:0:
390,137,131283,6,0,P|427:105|476:95,1,100,0|0,1:0|1:0,0:0:0:0:
484,193,131617,5,8,0:0:0:0:
473,185,131700,1,8,0:0:0:0:
512,304,131867,5,8,0:0:0:0:
501,296,131950,1,4,1:0:0:0:
399,253,132117,6,0,P|420:298|410:347,2,100,0|0|4,0:0|1:0|1:3,0:0:0:0:
327,362,132617,2,0,L|214:355,1,100,8|0,0:0|1:0,0:0:0:0:
220,349,132867,1,0,1:0:0:0:
215,361,132950,1,0,1:0:0:0:
15,306,133117,1,0,1:0:0:0:
119,377,133283,6,0,B|106:193|112:136|112:136|79:139|44:167,1,300,8|0,0:0|1:0,0:0:0:0:
200,30,133950,2,0,B|155:198|286:275|319:238|309:167|258:167,1,300,12|4,0:2|1:2,0:0:0:0:
470,296,134617,2,0,B|480:245|389:213|303:255|359:378|199:364,1,300,0|0,1:3|0:0,0:0:0:0:
167,336,135283,5,0,0:0:0:0:
167,336,135394,2,0,P|157:355|157:381,1,33.3333333333333,2|2,1:0|1:0,0:0:0:0:
79,325,135617,5,2,1:2:0:0:
80,313,135728,5,2,1:2:0:0:
74,303,135839,5,2,1:0:0:0:
29,241,135954,6,0,B|25:203|3:223|-4:164,1,66.6666666666667,4|0,1:2|0:0,0:0:0:0:
94,175,136176,6,0,B|115:143|85:144|118:94,1,66.6666666666667,0|0,1:0|0:0,0:0:0:0:
24,100,136398,6,0,L|14:57,1,39.9999987792969,2|0,1:2|0:0,0:0:0:0:
74,11,136620,2,0,P|128:39|217:49,1,133.333333333333,8|0,0:0|1:0,0:0:0:0:
274,24,136954,5,0,1:0:0:0:
292,39,137065,5,0,1:0:0:0:
294,62,137176,5,8,0:0:0:0:
286,80,137287,6,0,B|275:112|256:103|245:144,1,66.6666666666667,2|0,1:2|0:0,0:0:0:0:
291,201,137509,6,0,B|268:175|286:163|256:133,1,66.6666666666667,0|0,1:0|0:0,0:0:0:0:
184,143,137731,6,0,B|217:136|218:157|259:146,1,66.6666666666667,2|0,1:2|0:0,0:0:0:0:
302,280,137954,6,0,P|325:206|365:124,1,159.999995117188,8|0,0:0|1:0,0:0:0:0:
433,103,138287,5,8,0:0:0:0:
454,92,138398,5,8,0:0:0:0:
455,68,138509,5,8,0:0:0:0:
444,51,138620,6,0,B|410:43|423:27|372:14,1,66.6666666666667,2|0,1:2|0:0,0:0:0:0:
302,78,138842,2,0,B|338:86|325:102|359:110,1,66.6666666666667,0|0,1:0|1:0,0:0:0:0:
483,183,139065,1,2,1:2:0:0:
369,250,139287,6,0,B|305:258|374:286|273:300,1,79.9999975585938,8|0,0:0|1:0,0:0:0:0:
343,363,139620,6,0,L|409:377,2,39.9999987792969,0|0|8,0:0|1:0|0:0,0:0:0:0:
292,299,139954,6,0,L|210:315,1,66.6666666666667,2|0,1:2|0:0,0:0:0:0:
154,277,140176,6,0,L|89:290,1,66.6666666666667,0|0,1:0|0:0,0:0:0:0:
220,187,140398,6,0,L|138:203,1,66.6666666666667,2|0,1:2|0:0,0:0:0:0:
89,158,140620,6,0,L|48:166,2,39.9999987792969,8|0|0,0:0|1:0|1:0,0:0:0:0:
138,97,140954,5,8,0:0:0:0:
153,78,141065,5,0,1:0:0:0:
152,54,141176,5,0,1:0:0:0:
141,36,141287,6,0,B|109:29|121:16|65:6,1,66.6666666666667,6|0,1:2|0:0,0:0:0:0:
217,9,141509,6,0,P|266:32|318:44,1,106.666666666667,0|2,1:0|1:2,0:0:0:0:
394,12,141842,1,0,1:0:0:0:
402,27,141954,2,0,P|402:65|373:92,2,53.3333333333333,8|0|0,0:0|0:0|1:0,0:0:0:0:
318,44,142287,5,0,1:0:0:0:
304,63,142398,5,0,1:0:0:0:
306,87,142509,5,0,1:0:0:0:
314,104,142620,6,0,P|380:112|431:153,1,133.333333333333,2|0,1:2|1:0,0:0:0:0:
486,225,142954,6,0,B|480:254|459:243|453:281,2,66.6666666666667,0|2|0,0:0|1:2|0:0,0:0:0:0:
323,194,143287,6,0,B|343:218|320:228|346:258,2,53.3333333333333,8|0|2,0:0|0:0|1:2,0:0:0:0:
215,272,143620,5,0,1:0:0:0:
191,297,143731,5,0,0:0:0:0:
199,312,143842,5,10,0:0:0:0:
198,328,143954,6,0,B|163:339|180:353|132:373,1,66.6666666666667,2|0,1:2|0:0,0:0:0:0:
50,359,144176,6,0,B|38:324|25:341|5:293,1,66.6666666666667,0|0,1:0|0:0,0:0:0:0:
104,269,144398,6,0,B|102:232|121:243|123:191,1,66.6666666666667,2|0,1:2|0:0,0:0:0:0:
23,211,144620,5,8,0:0:0:0:
23,211,144842,6,0,P|13:173|0:134,1,80,0|8,1:0|0:0,0:0:0:0:
3,56,145287,6,0,B|38:44|22:34|64:20,1,66.6666666666667,2|0,1:2|0:0,0:0:0:0:
106,99,145509,6,0,B|143:111|127:121|162:133,1,66.6666666666667,0|0,1:0|0:0,0:0:0:0:
174,40,145731,6,0,B|209:28|193:18|230:5,1,66.6666666666667,2|0,1:2|0:0,0:0:0:0:
267,79,145954,5,8,0:0:0:0:
307,76,146065,5,0,1:0:0:0:
322,112,146176,5,0,1:0:0:0:
398,106,146287,5,0,1:0:0:0:
403,126,146398,5,0,1:0:0:0:
423,128,146509,5,0,1:0:0:0:
481,70,146620,6,0,B|485:46|510:50|513:7,1,66.6666666666667,6|0,1:2|0:0,0:0:0:0:
348,142,146842,6,0,B|347:121|323:118|323:84,1,53.3333333333333,0|0,1:0|0:0,0:0:0:0:
441,239,147065,6,0,B|447:222|465:226|472:205,1,39.9999987792969,2|0,1:2|0:0,0:0:0:0:
381,302,147287,6,0,P|308:311|255:356,1,133.333333333333,8|0,0:0|1:0,0:0:0:0:
186,376,147620,5,4,1:0:0:0:
178,350,147731,5,0,1:0:0:0:
160,329,147842,5,8,0:0:0:0:
137,314,147954,6,0,B|119:293|86:308|73:266,1,66.6666666666667,2|0,1:2|0:0,0:0:0:0:
168,236,148176,6,0,B|167:208|132:198|149:158,1,66.6666666666667,0|0,1:0|0:0,0:0:0:0:
241,196,148398,6,0,B|258:174|238:144|277:124,1,66.6666666666667,2|0,1:2|0:0,0:0:0:0:
322,212,148620,6,0,B|366:212|358:142|445:140,1,133.333333333333,8|0,0:0|1:0,0:0:0:0:
485,82,148954,5,0,1:0:0:0:
481,69,149065,5,8,0:0:0:0:
493,72,149176,5,8,0:0:0:0:
429,141,149287,6,0,B|352:114|352:114|321:106|316:76,2,133.333333333333,2|0|2,1:2|1:0|1:2,0:0:0:0:
501,333,149953,2,0,B|484:318|484:297|484:297|479:295|479:295|471:329|443:342,1,106.666666666667,8|0,0:0|1:0,0:0:0:0:
375,311,150287,5,0,1:0:0:0:
350,300,150398,5,0,1:0:0:0:
325,289,150509,5,8,0:0:0:0:
300,279,150620,6,0,B|290:282|290:282|274:307|243:317,1,66.6666666666667,2|0,1:2|0:0,0:0:0:0:
205,235,150842,6,0,B|197:227|197:227|167:226|143:204,1,66.6666666666667,0|0,1:0|0:0,0:0:0:0:
195,130,151065,6,0,B|197:119|197:119|183:93|190:61,1,66.6666666666667,2|0,1:2|0:0,0:0:0:0:
280,68,151287,6,0,B|286:66|286:66|297:49|317:42,2,46.6666652425131,8|0|4,0:0|0:0|1:1,0:0:0:0:
195,130,151620,2,0,P|163:116|122:109,2,59.9999981689454,0|12|0,1:0|0:0|1:0,0:0:0:0:
292,184,151953,6,0,B|270:181|265:217|234:222,1,66.6666666666667,6|0,1:2|0:0,0:0:0:0:
216,295,152176,6,0,B|200:302|187:276|163:280,1,53.3333333333333,0|0,1:0|0:0,0:0:0:0:
103,237,152398,6,0,B|89:234|86:256|67:258,1,39.9999987792969,2|0,1:2|0:0,0:0:0:0:
26,331,152620,6,0,P|8:356|39:334,1,106.666666666667,8|0,0:0|0:0,0:0:0:0:
70,257,152953,5,0,1:0:0:0:
50,247,153065,5,0,1:0:0:0:
37,229,153176,5,8,0:0:0:0:
33,207,153287,6,0,B|51:201|48:173|93:170,1,66.6666666666667,2|0,1:2|0:0,0:0:0:0:
109,90,153509,6,0,B|125:99|144:79|175:112,1,66.6666666666667,0|0,1:0|0:0,0:0:0:0:
247,73,153731,6,0,B|249:91|277:93|273:138,1,66.6666666666667,2|0,1:2|0:0,0:0:0:0:
348,167,153953,6,0,B|399:183|416:222|416:222|437:208|456:210,1,133.333333333333,8|0,0:0|1:0,0:0:0:0:
446,132,154287,2,0,L|469:74,2,46.6666652425131,0|8|0,1:0|0:0|1:0,0:0:0:0:
334,251,154620,6,0,L|263:263,1,66.6666666666667,6|0,1:2|0:0,0:0:0:0:
226,330,154842,6,0,L|186:336,1,39.9999987792969,0|0,1:0|0:0,0:0:0:0:
91,210,155065,6,0,P|67:195|36:163,1,53.3333333333333,2|0,1:2|0:0,0:0:0:0:
159,161,155287,6,0,P|149:139|147:90,2,39.9999987792969,8|0|0,0:0|1:0|1:0,0:0:0:0:
70,291,155620,6,0,P|42:295|-2:290,2,39.9999987792969,0|0|0,1:0|1:0|1:0,0:0:0:0:
156,264,155953,5,10,0:2:0:0:
161,255,156065,1,4,1:0:0:0:
0,122,156287,1,0,1:0:0:0:
5,113,156399,1,6,1:2:0:0:
106,11,156620,6,0,L|123:69,1,39.9999987792969,0|0,1:0|1:0,0:0:0:0:
221,82,156842,6,0,L|238:140,1,59.9999981689454,4|0,1:0|1:0,0:0:0:0:
156,264,157065,6,0,L|178:342,1,79.9999975585938,8|8,0:0|0:0,0:0:0:0:
385,332,157287,6,0,B|418:366|447:329|477:303|514:392|453:355,2,133.333333333333,6|0|0,1:2|0:0|1:0,0:0:0:0:
280,256,157953,2,0,L|275:180,2,66.6666666666667,8|0|0,0:0|1:0|1:0,0:0:0:0:
241,229,158287,2,0,L|246:153,2,66.6666666666667,0|0|0,1:0|1:0|1:0,0:0:0:0:
194,229,158620,6,0,B|141:233|95:211|60:220,1,133.333333333333,2|0,1:2|1:0,0:0:0:0:
0,144,158953,2,0,B|53:148|99:126|134:135,1,133.333333333333,0|0,1:0|0:0,0:0:0:0:
176,64,159287,2,0,B|211:69|211:69|318:23,1,133.333333333333,8|0,0:0|1:0,0:0:0:0:
375,71,159620,5,8,0:0:0:0:
357,86,159731,5,0,1:0:0:0:
355,109,159842,5,0,1:0:0:0:
361,132,159953,6,0,P|352:226|348:239,1,66.6666666666667,6|0,1:2|0:0,0:0:0:0:
442,169,160176,2,0,P|451:263|455:276,1,66.6666666666667,0|0,1:0|0:0,0:0:0:0:
373,275,160398,2,0,B|326:282|333:345|384:357|436:340,1,133.333333333333,2|8,1:2|0:0,0:0:0:0:
247,303,160842,1,0,0:0:0:0:
242,326,160953,5,2,1:2:0:0:
227,344,161064,5,8,0:0:0:0:
204,346,161175,5,8,0:0:0:0:
182,340,161286,2,0,P|88:349|75:353,1,66.6666666666667,0|0,1:0|0:0,0:0:0:0:
41,287,161509,6,0,L|30:196,1,66.6666666666667,14|0,0:0|0:0,0:0:0:0:
112,131,161731,2,0,L|203:142,1,66.6666666666667,0|0,1:0|1:0,0:0:0:0:
194,206,161953,6,0,L|183:115,1,66.6666666666667,2|0,1:2|0:0,0:0:0:0:
265,50,162175,2,0,L|356:61,1,66.6666666666667,2|0,1:2|0:0,0:0:0:0:
374,143,162398,5,2,1:2:0:0:
397,140,162509,5,8,0:0:0:0:
421,155,162620,6,0,B|423:184|423:184|455:212|400:286|459:385,1,200,6|0,1:2|0:0,0:0:0:0:
291,357,163065,2,0,L|379:361,1,66.6666666666667,2|0,1:2|1:0,0:0:0:0:
361,345,163287,2,0,L|148:352,1,200,8|0,0:0|1:0,0:0:0:0:
76,288,163731,5,8,0:0:0:0:
100,291,163842,5,0,1:0:0:0:
116,273,163953,6,0,P|54:238|7:248,1,66.6666666666667,2|0,1:2|0:0,0:0:0:0:
111,169,164176,1,0,1:0:0:0:
107,164,164287,6,0,P|88:73|86:49,2,66.6666666666667,0|2|0,0:0|1:2|0:0,0:0:0:0:
220,173,164620,6,0,P|201:200|185:229,2,66.6666666666667,8|0|0,0:0|0:0|0:0,0:0:0:0:
332,274,164953,6,0,P|313:247|297:218,2,66.6666666666667,0|8|2,1:0|0:0|1:2,0:0:0:0:
332,274,165231,1,2,0:2:0:0:
332,274,165287,5,2,1:2:0:0:
431,77,165620,5,8,0:0:0:0:
447,92,165731,2,0,P|460:140|357:120,1,200,2|2,1:2|0:0,0:0:0:0:
333,124,166176,2,0,P|346:76|243:96,1,200,0|8,1:0|0:0,0:0:0:0:
209,49,166620,6,0,L|220:199,1,133.333333333333,4|8,1:0|0:0,0:0:0:0:
140,199,166953,1,8,0:0:0:0:
116,193,167065,5,4,1:0:0:0:
85,202,167176,5,0,0:0:0:0:
64,217,167287,6,0,P|6:234|-17:234,2,66.6666666666667,4|0|0,1:2|0:0|1:0,0:0:0:0:
118,321,167620,2,0,P|60:304|37:304,2,66.6666666666667,8|8|0,0:0|0:0|1:0,0:0:0:0:
190,362,167953,6,0,B|229:344|208:334|252:321,1,66.6666666666667,6|0,1:2|0:0,0:0:0:0:
275,235,168176,6,0,B|316:246|306:225|348:243,1,66.6666666666667,0|0,1:0|0:0,0:0:0:0:
426,214,168398,6,0,B|450:249|456:226|477:267,1,66.6666666666667,2|0,1:2|0:0,0:0:0:0:
480,351,168620,6,0,P|486:294|517:183,1,159.999995117188,8|0,0:0|1:0,0:0:0:0:
471,118,168953,5,0,1:0:0:0:
472,93,169065,5,8,0:0:0:0:
452,79,169176,5,0,0:0:0:0:
424,80,169287,6,0,P|407:108|359:113,1,66.6666666666667,2|0,1:2|0:0,0:0:0:0:
275,163,169509,6,0,P|259:134|278:90,1,66.6666666666667,0|8,1:0|0:0,0:0:0:0:
283,0,169731,6,0,P|315:0|344:39,1,66.6666666666667,2|0,1:2|1:0,0:0:0:0:
278,174,169953,6,0,B|185:166|230:120|129:115,1,159.999995117188,8|0,0:0|1:0,0:0:0:0:
60,149,170287,5,0,1:0:0:0:
41,133,170398,5,8,0:0:0:0:
36,93,170509,5,8,0:0:0:0:
56,58,170620,6,0,P|91:35|116:4,1,79.9999975585938,6|0,1:2|0:0,0:0:0:0:
184,42,170842,2,0,P|143:140|126:228,1,159.999995117188,0|2,1:0|1:2,0:0:0:0:
58,240,171176,1,0,0:0:0:0:
140,195,171287,6,0,B|185:207|166:224|221:236,1,79.9999975585938,8|0,0:0|1:0,0:0:0:0:
262,293,171620,2,0,L|317:280,2,39.9999987792969,0|8|8,1:0|0:0|0:0,0:0:0:0:
209,367,171953,6,0,P|187:338|146:308,1,66.6666666666667,0|0,1:0|0:0,0:0:0:0:
307,274,172176,6,0,P|302:237|282:191,1,66.6666666666667,10|0,0:2|0:0,0:0:0:0:
414,338,172398,6,0,P|433:307|447:259,1,66.6666666666667,0|0,1:0|0:0,0:0:0:0:
503,333,172620,6,0,P|435:230|417:162,1,159.999995117188,10|6,0:2|0:2,0:0:0:0:
470,133,172953,5,8,0:0:0:0:
478,101,173065,5,8,0:0:0:0:
451,57,173176,5,8,0:0:0:0:
398,51,173287,6,0,B|343:70|374:82|314:97,1,79.9999975585938,6|0,1:2|0:0,0:0:0:0:
355,168,173509,2,0,P|289:115|225:116,1,133.333333333333,0|2,1:0|1:2,0:0:0:0:
242,111,173842,1,0,0:0:0:0:
174,75,173953,2,0,B|157:37|142:58|123:11,1,66.6666666666667,8|0,0:0|1:0,0:0:0:0:
254,29,174176,5,0,1:0:0:0:
169,90,174287,2,0,B|138:109|88:102,2,66.6666666666667,8|8|0,0:0|0:0|1:0,0:0:0:0:
230,208,174620,6,0,B|230:246|212:230|219:285,1,66.6666666666667,2|0,1:2|0:0,0:0:0:0:
82,181,174842,6,0,B|101:213|78:208|111:253,1,66.6666666666667,0|0,1:0|0:0,0:0:0:0:
3,323,175065,6,0,B|39:335|18:346|71:359,1,66.6666666666667,2|0,1:2|0:0,0:0:0:0:
142,322,175287,6,0,P|221:326|310:389,1,159.999995117188,8|0,0:0|0:0,0:0:0:0:
363,344,175620,5,0,1:0:0:0:
389,338,175731,5,8,0:0:0:0:
412,303,175842,5,8,0:0:0:0:
407,258,175953,6,0,B|377:250|400:232|351:217,1,53.3333333333333,6|0,1:2|0:0,0:0:0:0:
281,153,176176,6,0,B|304:128|315:155|353:112,1,66.6666666666667,0|0,1:0|0:0,0:0:0:0:
459,85,176398,6,0,B|468:117|436:115|452:177,1,79.9999975585938,6|0,1:2|0:0,0:0:0:0:
340,115,176620,6,0,P|298:84|263:75,1,59.9999981689454,8|0,0:0|0:0,0:0:0:0:
318,7,176842,6,0,P|266:40|166:57,1,159.999995117188,0|0,1:0|1:0,0:0:0:0:
101,21,177176,1,0,1:0:0:0:
97,29,177287,6,0,P|58:40|17:44,2,79.9999975585938,8|8|8,0:0|0:0|0:0,0:0:0:0:
134,131,177620,2,0,P|168:141|205:144,2,66.6666666666667,8|0|0,0:0|1:0|1:0,0:0:0:0:
57,170,177953,5,2,1:2:0:0:
48,188,178065,5,2,1:2:0:0:
53,214,178176,5,8,0:0:0:0:
92,279,178287,5,10,0:2:0:0:
96,290,178398,5,2,1:2:0:0:
88,301,178509,5,8,0:0:0:0:
41,355,178620,6,0,B|59:271|156:257|173:286,2,173.333325398763,4|0|4,1:0|1:0|1:2,0:0:0:0:
41,355,179287,2,0,B|78:349|99:249|88:195,1,159.999995117188,8|6,0:0|0:0,0:0:0:0:
47,146,179620,5,0,1:0:0:0:
45,131,179731,5,8,0:0:0:0:
24,123,179842,5,8,0:0:0:0:
38,105,179953,6,0,B|36:84|10:90|-5:38,1,66.6666666666667,6|0,1:2|0:0,0:0:0:0:
134,72,180176,6,0,B|151:59|132:40|170:1,1,66.6666666666667,0|0,1:0|0:0,0:0:0:0:
198,151,180398,5,6,1:2:0:0:
342,15,180620,2,0,P|300:53|290:120,1,106.666666666667,0|12,1:0|0:0,0:0:0:0:
198,151,180953,2,0,P|267:185|285:238,1,133.333333333333,0|8,1:0|0:0,0:0:0:0:
351,303,181287,6,0,B|330:303|315:358|248:346,1,106.666666666667,6|0,1:2|1:0,0:0:0:0:
469,376,181731,2,0,P|364:357|258:346,1,213.333333333333,6|4,1:2|1:0,0:0:0:0:
197,301,182287,2,0,B|183:261|125:283|95:221,1,133.333333333333,8|0,0:0|1:0,0:0:0:0:
112,91,182620,6,0,P|131:93|133:121,1,46.6666652425131,4|0,1:0|0:0,0:0:0:0:
139,141,182842,6,0,P|127:156|102:144,1,46.6666652425131,2|0,1:2|0:0,0:0:0:0:
82,139,183065,6,0,P|74:121|97:105,1,46.6666652425131,4|0,1:0|0:0,0:0:0:0:
58,31,183287,5,2,1:2:0:0:
176,233,183509,5,12,0:0:0:0:
190,214,183620,5,8,0:0:0:0:
209,200,183731,5,0,1:0:0:0:
231,193,183842,5,0,1:0:0:0:
254,193,183953,6,0,P|286:211|325:224,1,66.6666666666667,6|0,1:2|0:0,0:0:0:0:
370,309,184176,6,0,P|394:304|404:246,1,66.6666666666667,0|0,1:0|0:0,0:0:0:0:
469,213,184398,6,0,B|466:193|449:195|443:164,1,53.3333333333333,2|0,1:2|0:0,0:0:0:0:
367,39,184620,2,0,L|377:-10,2,39.9999987792969,8|0|0,0:0|0:0|1:0,0:0:0:0:
352,112,184953,5,0,1:0:0:0:
355,124,185065,5,8,0:0:0:0:
345,132,185176,5,8,0:0:0:0:
344,144,185287,6,0,B|322:149|322:181|283:181,1,66.6666666666667,2|0,1:2|0:0,0:0:0:0:
252,268,185509,6,0,B|236:251|208:267|189:233,1,66.6666666666667,0|0,1:0|0:0,0:0:0:0:
98,250,185731,6,0,B|104:228|76:212|96:178,1,66.6666666666667,2|0,1:2|0:0,0:0:0:0:
30,102,185953,6,0,B|41:45|73:13|73:13|7:56|31:74,1,173.333325398763,8|0,0:0|1:0,0:0:0:0:
50,191,186287,5,0,1:0:0:0:
58,178,186398,5,0,1:0:0:0:
72,172,186509,5,8,0:0:0:0:
86,172,186620,2,0,P|114:156|148:144,1,59.9999981689454,6|0,1:2|0:0,0:0:0:0:
210,204,186842,6,0,P|189:229|185:268,1,66.6666666666667,0|0,1:0|0:0,0:0:0:0:
312,324,187065,6,0,P|276:291|288:263,1,79.9999975585938,2|0,1:2|0:0,0:0:0:0:
403,213,187287,6,0,P|436:253|395:217,1,159.999995117188,8|0,0:0|0:0,0:0:0:0:
378,138,187620,5,0,1:0:0:0:
384,126,187731,5,8,0:0:0:0:
382,112,187842,5,8,0:0:0:0:
360,86,187953,6,0,P|328:80|279:68,1,66.6666666666667,0|0,1:0|0:0,0:0:0:0:
210,204,188176,2,0,P|178:198|129:186,1,66.6666666666667,12|0,0:0|0:0,0:0:0:0:
100,122,188398,1,0,0:0:0:0:
100,122,188509,1,8,0:0:0:0:
100,122,188620,6,0,P|68:116|19:104,1,66.6666666666667,0|0,1:0|0:0,0:0:0:0:
80,233,188842,2,0,B|102:234|103:194|146:190,1,79.9999975585938,4|0,1:0|1:0,0:0:0:0:
245,8,189065,5,0,1:0:0:0:
284,28,189176,5,8,0:0:0:0:
313,71,189287,6,0,B|285:89|285:89|377:117|424:228,1,200,6|0,1:2|0:0,0:0:0:0:
509,161,189787,2,0,B|476:153|476:153|521:238|476:350,1,200,0|0,1:0|0:0,0:0:0:0:
405,360,190287,5,8,0:0:0:0:
363,373,190398,5,0,1:0:0:0:
312,363,190509,5,0,1:0:0:0:
274,319,190620,6,0,L|294:213,2,66.6666666666667,6|0|0,1:2|0:0|1:0,0:0:0:0:
190,371,190953,1,0,0:0:0:0:
190,371,191120,1,0,1:0:0:0:
190,371,191287,2,0,L|171:272,1,100,10|0,0:2|1:0,0:0:0:0:
0,341,191620,5,0,1:0:0:0:
38,320,191731,5,10,0:2:0:0:
67,277,191842,5,0,1:0:0:0:
63,219,191953,6,0,B|57:197|31:208|19:155,1,66.6666666666667,4|0,1:1|0:0,0:0:0:0:
98,136,192176,1,0,1:0:0:0:
105,131,192287,2,0,P|152:73|81:103,1,200,8|2,0:0|1:2,0:0:0:0:
13,71,192787,6,0,B|47:95|45:72|78:103,1,69.9999978637696,8|0,0:0|1:0,0:0:0:0:
160,14,193120,1,8,0:0:0:0:
162,23,193287,2,0,B|198:44|194:21|230:49,1,69.9999978637696,14|0,0:2|1:0,0:0:0:0:
330,33,193620,1,0,1:0:0:0:
323,46,193787,6,0,B|361:73|405:52|405:52|398:81|398:81|443:103|443:153,1,200,12|0,0:0|1:0,0:0:0:0:
442,153,194287,2,0,P|390:167|367:217,1,100,12|0,0:0|1:0,0:0:0:0:
319,286,194620,6,0,B|302:347|334:332|306:395,2,100,14|0|0,0:0|1:0|1:0,0:0:0:0:
245,243,195120,1,0,1:0:0:0:
432,342,195287,2,0,B|392:351|395:281|320:279,1,133.333333333333,8|4,0:0|0:0,0:0:0:0:
245,243,195620,1,0,1:0:0:0:
221,222,195731,1,8,0:0:0:0:
214,192,195842,1,8,0:0:0:0:
223,165,195953,6,0,B|233:145|246:148|263:108,1,66.6666666666667,6|0,1:2|0:0,0:0:0:0:
141,17,196176,6,0,B|165:49|156:59|169:78,1,66.6666666666667,0|0,1:0|1:0,0:0:0:0:
0,205,196453,5,2,1:2:0:0:
0,205,196620,2,0,P|50:205|92:273,1,133.333333333333,8|0,0:0|0:0,0:0:0:0:
126,338,196953,5,0,1:0:0:0:
151,350,197065,5,8,0:0:0:0:
171,342,197176,6,0,L|197:334,2,25.0000009536744,8|0|4,0:0|0:0|1:2,0:0:0:0:
392,215,197509,5,0,1:0:0:0:
403,226,197620,2,0,P|425:168|461:115,1,100.000003814697,0|0,1:0|1:0,0:0:0:0:
469,260,197953,2,0,P|486:214|513:174,2,50.0000019073487,0|0|0,1:0|1:0|1:0,0:0:0:0:
329,321,198287,2,0,P|307:263|271:210,1,100.000003814697,0|0,1:0|1:0,0:0:0:0:
263,355,198620,2,0,P|241:297|197:238,2,112.500004291535,12|0|0,0:0|0:0|1:0,0:0:0:0:
50,335,199287,6,0,P|93:233|129:102,1,220.000006713867,8|4,0:0|1:0,0:0:0:0:
