osu file format v14

[General]
AudioFilename: audio.mp3
AudioLeadIn: 0
PreviewTime: 57514
Countdown: 0
SampleSet: Soft
StackLeniency: 0.7
Mode: 2
LetterboxInBreaks: 0
WidescreenStoryboard: 0

[Editor]
DistanceSpacing: 1
BeatDivisor: 6
GridSize: 4
TimelineZoom: 2

[Metadata]
Title:syncretism animesize ver.
TitleUnicode:syncretism animesize ver.
Artist:Annabel
ArtistUnicode:Annabel
Creator:RoseusJaeger
Version:Rain
Source:Hybrid Child
Tags:yaoi bl boys love ending theme ED studio deen ova Paranoid Grapes
BeatmapID:1092279
BeatmapSetID:514144

[Difficulty]
HPDrainRate:6
CircleSize:4
OverallDifficulty:8.8
ApproachRate:8.8
SliderMultiplier:1.92
SliderTickRate:1

[Events]
//Background and Video events
0,0,"1 as.jpg",0,0
//Break Periods
//Storyboard Layer 0 (Background)
//Storyboard Layer 1 (Fail)
//Storyboard Layer 2 (Pass)
//Storyboard Layer 3 (Foreground)
//Storyboard Sound Samples

[TimingPoints]
998,387.096774193548,3,2,1,40,1,0
56159,-100,3,2,1,15,0,0
57901,-100,3,2,1,60,0,1
76481,-100,3,2,1,45,0,0
84610,-100,3,2,1,55,0,0
84804,-100,3,2,1,5,0,0

[Colours]
Combo1 : 181,106,255
Combo2 : 255,145,200
Combo3 : 181,106,106

[HitObjects]
200,176,804,5,0,0:0:0:0:
320,208,997,2,0,P|416:216|472:120,1,192,4|2,0:0|0:0,0:0:0:0:
352,184,1578,2,0,L|160:184,1,192,2|0,0:0|0:0,0:0:0:0:
448,200,2159,2,0,L|512:272,2,96,2|0|0,0:0|0:0|0:0,0:0:0:0:
328,200,2739,2,0,L|192:200,1,96,2|0,0:0|0:0,0:0:0:0:
112,288,3127,1,0,0:0:0:0:
400,200,3320,6,0,P|432:144|360:56,1,192,4|0,0:0|0:0,0:0:0:0:
248,56,3901,1,2,0:0:0:0:
128,200,4288,1,0,0:0:0:0:
416,208,4481,2,0,L|480:128,1,96,2|0,0:0|0:0,0:0:0:0:
344,192,4868,2,0,L|168:112,1,192
400,200,5643,6,0,P|448:160|352:112,1,192,4|0,0:0|0:0,0:0:0:0:
264,200,6223,2,0,P|368:184|432:88,1,192,2|0,0:0|0:0,0:0:0:0:
112,200,6804,2,0,L|24:248,2,96,2|0|0,0:0|0:0|0:0,0:0:0:0:
208,184,7385,2,0,L|112:128,1,96,0|0,0:0|0:0,0:0:0:0:
224,112,7772,1,0,0:0:0:0:
436,196,7965,5,4,0:0:0:0:
272,200,8352,1,0,0:0:0:0:
196,172,8546,1,0,0:0:0:0:
180,100,8739,1,2,0:0:0:0:
248,48,8933,1,0,0:0:0:0:
456,192,9127,2,0,L|264:256,2,192,2|0|2,0:0|0:0|0:0,0:0:0:0:
104,208,10288,6,0,L|60:108,1,96,4|0,0:0|0:0,0:0:0:0:
240,212,10675,2,0,L|344:212,1,96
156,216,11062,1,0,0:0:0:0:
336,212,11256,1,0,0:0:0:0:
80,200,11449,6,0,L|8:264,2,96,2|0|0,0:0|0:0|0:0,0:0:0:0:
332,216,12030,2,0,L|328:112,1,96
132,212,12417,1,0,0:0:0:0:
400,236,12610,5,2,0:0:0:0:
480,188,12803,1,0,0:0:0:0:
288,144,12997,1,0,0:0:0:0:
176,144,13191,2,0,L|64:144,2,96,2|0|0,0:0|0:0|0:0,0:0:0:0:
368,204,13772,5,2,0:0:0:0:
80,256,14159,1,0,0:0:0:0:
55,236,14223,1,0,0:0:0:0:
43,206,14288,1,0,0:0:0:0:
49,175,14352,1,0,0:0:0:0:
70,152,14417,1,0,0:0:0:0:
276,200,14546,2,0,L|372:148,1,96
72,200,14933,6,0,L|40:296,1,96,4|0,0:0|0:0,0:0:0:0:
232,305,15320,1,2,0:0:0:0:
328,305,15513,1,0,0:0:0:0:
424,305,15707,1,0,0:0:0:0:
232,305,15901,1,0,0:0:0:0:
496,296,16094,6,0,L|472:196,1,96,4|0,0:0|0:0,0:0:0:0:
304,196,16481,2,0,L|200:196,1,96,2|0,0:0|0:0,0:0:0:0:
104,200,16868,1,0,0:0:0:0:
304,64,17062,1,0,0:0:0:0:
48,192,17256,6,0,L|88:296,1,96,4|0,0:0|0:0,0:0:0:0:
292,232,17643,2,0,L|340:136,1,96,2|0,0:0|0:0,0:0:0:0:
232,108,18030,1,0,0:0:0:0:
36,48,18223,1,0,0:0:0:0:
288,256,18417,5,0,0:0:0:0:
319,250,18481,1,0,0:0:0:0:
343,230,18546,1,0,0:0:0:0:
355,201,18610,1,0,0:0:0:0:
351,170,18675,1,0,0:0:0:0:
136,192,18804,2,0,L|32:192,2,96,8|0|8,0:0|0:0|0:0,0:0:0:0:
40,192,19385,1,0,0:0:0:0:
328,192,19578,6,0,P|432:256|416:328,1,192,4|0,0:0|0:0,0:0:0:0:
336,352,20159,1,0,0:0:0:0:
240,344,20352,2,0,L|136:312,1,96,0|0,0:0|0:0,0:0:0:0:
320,208,20739,6,0,L|488:112,1,192,0|0,0:0|0:0,0:0:0:0:
408,160,21320,1,0,0:0:0:0:
320,208,21514,1,0,0:0:0:0:
408,160,21707,1,0,0:0:0:0:
88,64,21901,6,0,P|32:160|56:248,1,192,6|0,0:0|0:0,0:0:0:0:
136,300,22481,1,0,0:0:0:0:
244,280,22675,2,2,L|364:256,1,96
152,208,23062,1,0,0:0:0:0:
384,260,23449,5,0,0:0:0:0:
412,246,23513,1,0,0:0:0:0:
431,220,23578,1,0,0:0:0:0:
436,189,23642,1,0,0:0:0:0:
426,159,23707,1,0,0:0:0:0:
216,216,23836,2,0,L|136:136,1,96,0|0,0:0|0:0,0:0:0:0:
448,256,24223,6,0,P|496:176|440:72,1,192,4|0,0:0|0:0,0:0:0:0:
356,64,24804,1,0,0:0:0:0:
256,200,24997,2,0,L|160:144,1,96,0|0,0:0|0:0,0:0:0:0:
472,200,25385,2,0,L|296:96,1,192,2|0,0:0|0:0,0:0:0:0:
392,152,25965,1,0,0:0:0:0:
472,200,26159,1,0,0:0:0:0:
128,88,26546,6,0,P|56:136|64:240,1,192,10|0,0:0|0:0,0:0:0:0:
164,292,27127,1,0,0:0:0:0:
256,200,27320,2,0,L|360:192,1,96
64,216,27707,5,0,0:0:0:0:
37,198,27771,1,0,0:0:0:0:
27,168,27836,1,0,0:0:0:0:
37,139,27900,1,0,0:0:0:0:
63,121,27965,1,0,0:0:0:0:
256,208,28094,2,0,L|384:208,1,96,0|0,0:0|0:0,0:0:0:0:
176,200,28481,2,0,L|112:112,1,96,0|0,0:0|0:0,0:0:0:0:
424,72,28868,6,0,P|480:128|472:256,1,192,4|0,0:0|0:0,0:0:0:0:
392,296,29449,1,0,0:0:0:0:
304,296,29643,2,0,L|192:296,1,96,0|0,0:0|0:0,0:0:0:0:
392,208,30030,2,0,P|464:144|400:40,1,192,0|0,0:0|0:0,0:0:0:0:
320,64,30610,2,0,L|224:64,2,96,0|0|0,0:0|0:0|0:0,0:0:0:0:
48,200,31191,6,0,P|48:280|128:360,1,192,4|0,0:0|0:0,0:0:0:0:
216,368,31772,1,0,0:0:0:0:
384,248,31965,2,0,L|288:200,1,96,0|0,0:0|0:0,0:0:0:0:
32,200,32352,6,0,P|56:264|176:288,1,192,0|0,0:0|0:0,0:0:0:0:
208,288,32804,1,0,0:0:0:0:
238,277,32868,1,0,0:0:0:0:
272,264,32933,1,0,0:0:0:0:
238,277,32997,1,0,0:0:0:0:
208,288,33062,1,0,0:0:0:0:
167,291,33127,2,0,P|148:240|187:183,1,128
456,208,33514,6,0,P|456:280|352:320,1,192,4|0,0:0|0:0,0:0:0:0:
256,312,34094,1,0,0:0:0:0:
160,216,34288,2,0,L|272:216,1,96,0|0,0:0|0:0,0:0:0:0:
80,192,34675,2,0,L|40:104,1,96,0|0,0:0|0:0,0:0:0:0:
208,168,35062,2,0,L|224:72,1,96,0|0,0:0|0:0,0:0:0:0:
392,208,35449,2,0,L|440:120,1,96,0|0,0:0|0:0,0:0:0:0:
160,200,35836,6,0,P|112:128|192:72,1,192,2|0,0:0|0:0,0:0:0:0:
352,192,36417,1,0,0:0:0:0:
120,208,36804,1,0,0:0:0:0:
392,224,36997,5,0,0:0:0:0:
424,208,37061,1,0,0:0:0:0:
448,184,37126,1,0,0:0:0:0:
464,144,37190,1,0,0:0:0:0:
464,112,37255,1,0,0:0:0:0:
264,200,37385,2,0,L|160:200,1,96,8|0,0:0|0:0,0:0:0:0:
432,120,37772,2,0,L|455:213,1,96,0|0,0:0|0:0,0:0:0:0:
120,200,38159,5,4,0:2:0:0:
312,208,38546,1,0,0:0:0:0:
424,192,38739,1,0,0:0:0:0:
312,208,38933,1,2,0:0:0:0:
432,192,39127,1,0,0:0:0:0:
176,208,39320,6,0,L|128:104,1,96,4|0,0:0|0:0,0:0:0:0:
392,64,39707,2,0,P|448:88|488:224,1,192,0|2,0:0|0:0,0:0:0:0:
392,264,40288,1,0,0:0:0:0:
104,192,40481,5,4,0:0:0:0:
312,200,40868,2,0,L|384:128,1,96,0|0,0:0|0:0,0:0:0:0:
208,148,41256,2,0,L|144:68,1,96,2|0,0:0|0:0,0:0:0:0:
456,184,41643,6,0,L|392:104,1,96,2|0,0:0|0:0,0:0:0:0:
224,200,42030,1,0,0:0:0:0:
197,182,42094,1,0,0:0:0:0:
184,153,42159,1,0,0:0:0:0:
188,122,42223,1,0,0:0:0:0:
208,97,42288,1,0,0:0:0:0:
400,208,42417,2,0,L|448:112,1,96,0|0,0:0|0:0,0:0:0:0:
152,192,42804,6,0,P|112:128|192:72,1,192,4|0,0:0|0:0,0:0:0:0:
304,200,43385,2,0,P|368:160|424:40,1,192,0|0,0:0|0:0,0:0:0:0:
232,208,43965,2,0,P|272:144|416:112,1,192,0|0,0:0|0:0,0:0:0:0:
224,96,44546,2,0,L|128:48,2,96,0|0|0,0:0|0:0|0:0,0:0:0:0:
488,192,45127,6,0,P|480:256|360:264,1,192,4|0,0:0|0:0,0:0:0:0:
272,200,45707,2,0,P|304:104|400:64,1,192,0|0,0:0|0:0,0:0:0:0:
96,208,46288,5,2,0:0:0:0:
67,193,46352,1,0,0:0:0:0:
50,167,46417,1,0,0:0:0:0:
47,135,46481,1,0,0:0:0:0:
61,107,46546,1,0,0:0:0:0:
256,208,46675,2,0,L|456:208,1,192,0|0,0:0|0:0,0:0:0:0:
200,208,47449,6,0,P|128:152|152:64,1,192,4|0,0:0|0:0,0:0:0:0:
320,192,48030,2,0,P|472:160|496:120,1,192
216,208,48610,2,0,P|144:160|184:56,1,192,2|0,0:0|0:0,0:0:0:0:
264,104,49191,1,0,0:0:0:0:
360,192,49385,2,0,L|456:192,1,96,0|0,0:0|0:0,0:0:0:0:
184,208,49772,6,0,L|112:120,1,96,4|0,0:0|0:0,0:0:0:0:
216,120,50159,1,0,0:0:0:0:
392,104,50352,2,0,L|304:64,1,96,0|0,0:0|0:0,0:0:0:0:
136,64,50739,1,0,0:0:0:0:
312,200,50933,6,0,P|408:160|464:80,1,192,2|8,0:0|0:0,0:0:0:0:
256,192,51449,1,0,0:0:0:0:
216,168,51514,1,0,0:0:0:0:
176,152,51578,1,0,0:0:0:0:
368,128,51707,2,0,L|480:80,1,96,0|0,0:0|0:0,0:0:0:0:
280,192,52094,6,0,P|144:120|104:72,1,192,4|0,0:0|0:0,0:0:0:0:
232,88,52675,2,0,P|288:144|208:232,1,192,0|0,0:0|0:0,0:0:0:0:
72,208,53256,2,0,L|256:144,1,192,0|0,0:0|0:0,0:0:0:0:
168,176,53836,1,0,0:0:0:0:
72,208,54030,1,0,0:0:0:0:
168,176,54223,1,0,0:0:0:0:
360,232,54417,5,4,0:0:0:0:
72,320,54804,2,0,P|16:224|120:92,1,288
408,292,55578,1,0,0:0:0:0:
438,282,55642,1,0,0:0:0:0:
459,259,55707,1,0,0:0:0:0:
468,228,55771,1,0,0:0:0:0:
460,197,55836,1,0,0:0:0:0:
439,174,55900,1,0,0:0:0:0:
409,163,55965,1,0,0:0:0:0:
256,192,56159,12,0,57514,0:0:0:0:
416,184,57901,6,0,P|440:104|368:24,1,192,12|0,0:0|0:0,0:0:0:0:
200,184,58481,2,0,P|136:128|208:88,1,192,8|0,0:0|0:0,0:0:0:0:
464,224,59062,2,0,L|368:224,2,96,0|8|0,0:0|0:0|0:0,0:0:0:0:
208,152,59643,2,0,P|189:195|208:240,1,96
304,200,60030,1,0,0:0:0:0:
48,200,60223,6,0,P|56:112|160:64,1,192,4|0,0:0|0:0,0:0:0:0:
288,192,60804,2,0,L|384:144,1,96,8|0,0:0|0:0,0:0:0:0:
272,72,61191,1,0,0:0:0:0:
16,184,61385,2,0,L|176:64,2,192,2|0|0,0:0|0:0|0:0,0:0:0:0:
480,232,62546,6,0,P|496:152|392:96,1,192,4|0,0:0|0:0,0:0:0:0:
240,128,63127,2,0,P|176:168|136:296,1,192,8|0,0:0|0:0,0:0:0:0:
408,248,63707,2,0,P|416:192|376:148,1,96
296,128,64094,1,0,0:0:0:0:
104,328,64287,1,8,0:0:0:0:
8,320,64481,1,0,0:0:0:0:
104,328,64675,1,0,0:0:0:0:
456,208,64868,6,0,P|456:128|352:88,1,192,4|0,0:0|0:0,0:0:0:0:
248,192,65449,1,8,0:0:0:0:
360,192,65643,2,0,L|480:192,1,96,0|0,0:0|0:0,0:0:0:0:
200,200,66030,6,0,L|136:96,1,96,2|0,0:0|0:0,0:0:0:0:
408,200,66417,2,0,L|440:104,1,96,10|0,0:0|0:0,0:0:0:0:
180,200,66804,2,0,L|120:112,1,96,8|0,0:0|0:0,0:0:0:0:
464,200,67191,6,0,P|440:272|304:320,1,192,4|0,0:0|0:0,0:0:0:0:
168,320,67772,1,0,0:0:0:0:
96,192,67965,1,0,0:0:0:0:
208,88,68159,1,0,0:0:0:0:
400,192,68352,2,0,L|464:120,1,96,0|0,0:0|0:0,0:0:0:0:
280,192,68739,1,0,0:0:0:0:
476,196,68933,2,0,P|476:140|368:64,1,192,8|0,0:0|0:0,0:0:0:0:
64,192,69514,6,0,L|28:84,1,96,4|0,0:0|0:0,0:0:0:0:
216,64,69901,1,0,0:0:0:0:
320,40,70094,1,8,0:0:0:0:
144,176,70288,2,0,L|96:88,1,96,0|0,0:0|0:0,0:0:0:0:
400,200,70675,6,0,L|256:48,2,192,2|0|0,0:0|0:0|0:0,0:0:0:0:
88,200,71836,2,0,P|72:120|168:72,1,192,4|0,0:0|0:0,0:0:0:0:
264,128,72417,1,8,0:0:0:0:
368,192,72610,1,0,0:0:0:0:
80,200,72997,6,0,P|48:160|144:96,1,192,0|0,0:0|0:0,0:0:0:0:
248,192,73578,2,0,L|352:184,1,96,8|0,0:0|0:0,0:0:0:0:
192,192,73965,1,0,0:0:0:0:
464,192,74159,6,0,P|472:272|376:360,1,192,4|0,0:0|0:0,0:0:0:0:
288,200,74739,2,0,L|184:200,1,96,8|0,0:0|0:0,0:0:0:0:
344,208,75127,1,0,0:0:0:0:
88,200,75320,6,0,P|64:288|152:344,1,192,0|0,0:0|0:0,0:0:0:0:
296,296,75901,1,8,0:0:0:0:
392,248,76094,1,2,0:0:0:0:
296,200,76288,1,2,0:0:0:0:
448,199,76481,5,0,0:0:0:0:
192,200,76675,1,0,0:0:0:0:
352,200,77062,1,0,0:0:0:0:
80,200,77256,1,0,0:0:0:0:
240,200,77643,5,0,0:0:0:0:
496,200,77836,1,0,0:0:0:0:
392,152,78030,1,8,0:0:0:0:
288,200,78223,1,2,0:0:0:0:
256,184,78320,1,2,0:0:0:0:
224,168,78417,1,10,0:0:0:0:
392,192,78610,1,0,0:0:0:0:
136,200,78804,6,0,P|72:144|152:104,1,192,2|0,0:0|0:0,0:0:0:0:
256,184,79385,2,0,P|248:112|128:72,1,192,2|0,0:0|0:0,0:0:0:0:
400,216,79965,5,0,0:0:0:0:
431,212,80029,1,0,0:0:0:0:
457,193,80094,1,0,0:0:0:0:
470,165,80158,1,0,0:0:0:0:
468,133,80223,1,0,0:0:0:0:
272,200,80352,2,0,L|208:112,1,96,8|2,0:0|0:0,0:0:0:0:
384,192,80739,2,0,L|456:112,1,96,8|2,0:0|0:0,0:0:0:0:
376,112,81030,1,0,0:0:0:0:
296,192,81127,5,6,0:0:0:0:
40,200,81320,1,2,0:0:0:0:
192,200,81707,1,2,0:0:0:0:
464,216,81901,1,2,0:0:0:0:
312,200,82288,5,2,0:0:0:0:
32,200,82481,1,2,0:0:0:0:
136,208,82675,1,8,0:0:0:0:
232,208,82868,1,2,0:0:0:0:
200,176,82965,1,2,0:0:0:0:
168,144,83062,1,10,0:0:0:0:
56,120,83256,1,2,0:0:0:0:
328,200,83449,6,0,L|448:200,2,96,2|2|10,0:0|0:0|0:0,0:0:0:0:
152,208,84030,2,0,L|48:128,1,96,2|2,0:0|0:0,0:0:0:0:
176,80,84417,1,2,0:0:0:0:
472,184,84610,5,2,0:0:0:0:
256,192,84804,12,0,88095,0:0:0:0:
