osu file format v14

[General]
AudioFilename: audio.mp3
AudioLeadIn: 0
PreviewTime: 57514
Countdown: 0
SampleSet: Soft
StackLeniency: 0.7
Mode: 2
LetterboxInBreaks: 0
WidescreenStoryboard: 0

[Editor]
DistanceSpacing: 1
BeatDivisor: 2
GridSize: 4
TimelineZoom: 1.3

[Metadata]
Title:syncretism animesize ver.
TitleUnicode:syncretism animesize ver.
Artist:Annabel
ArtistUnicode:Annabel
Creator:RoseusJaeger
Version:Cup
Source:Hybrid Child
Tags:yaoi bl boys love ending theme ED studio deen ova Paranoid Grapes
BeatmapID:1092276
BeatmapSetID:514144

[Difficulty]
HPDrainRate:3
CircleSize:2.5
OverallDifficulty:5.5
ApproachRate:5.5
SliderMultiplier:1.05
SliderTickRate:1

[Events]
//Background and Video events
0,0,"1 as.jpg",0,0
//Break Periods
//Storyboard Layer 0 (Background)
//Storyboard Layer 1 (Fail)
//Storyboard Layer 2 (Pass)
//Storyboard Layer 3 (Foreground)
//Storyboard Sound Samples

[TimingPoints]
998,387.096774193548,3,2,1,40,1,0
54804,-100,3,2,1,10,0,0
57901,-100,3,2,1,60,0,1
76481,-100,3,2,1,45,0,0
84610,-100,3,2,1,5,0,0

[Colours]
Combo1 : 181,106,255
Combo2 : 255,145,200
Combo3 : 181,106,106

[HitObjects]
300,88,997,6,0,P|380:136|376:232,1,157.5,4|0,0:0|0:0,0:0:0:0:
200,216,2159,2,0,L|390:213,1,157.5,2|0,0:0|0:0,0:0:0:0:
168,108,3320,6,0,P|140:192|228:224,1,157.5,4|0,0:0|0:0,0:0:0:0:
372,264,4481,2,0,L|500:264,2,105,2|0|0,0:0|0:0|0:0,0:0:0:0:
200,152,5643,6,0,P|160:236|188:288,1,157.5,4|0,0:0|0:0,0:0:0:0:
376,176,6804,2,0,P|432:136|360:88,1,157.5,2|0,0:0|0:0,0:0:0:0:
200,208,7965,5,4,0:0:0:0:
360,208,8352,1,0,0:0:0:0:
392,208,8546,1,0,0:0:0:0:
424,208,8739,1,0,0:0:0:0:
256,216,9127,2,0,L|112:216,2,105,2|0|0,0:0|0:0|0:0,0:0:0:0:
424,224,10288,6,0,L|440:96,1,105,4|0,0:0|0:0,0:0:0:0:
288,96,11062,1,0,0:0:0:0:
120,160,11449,2,0,L|64:280,1,105,4|0,0:0|0:0,0:0:0:0:
216,304,12223,1,0,0:0:0:0:
384,224,12610,5,4,0:0:0:0:
232,216,12997,2,0,L|128:216,1,105
272,216,13772,1,0,0:0:0:0:
128,208,14159,1,0,0:0:0:0:
96,176,14352,1,0,0:0:0:0:
64,144,14546,1,0,0:0:0:0:
224,200,14933,6,0,L|344:200,2,105,4|0|0,0:0|0:0|0:0,0:0:0:0:
384,200,16094,2,0,L|489:200,2,105,4|0|0,0:0|0:0|0:0,0:0:0:0:
200,200,17256,6,0,L|64:200,2,105,4|0|0,0:0|0:0|0:0,0:0:0:0:
352,192,18417,2,0,L|416:192,1,52.5
320,192,18804,2,0,L|200:192,1,105,8|8,0:0|0:0,0:0:0:0:
376,200,19578,6,0,P|432:288|344:344,1,210,4|0,0:0|0:0,0:0:0:0:
216,272,20739,2,0,L|96:272,2,105
368,272,21901,6,0,P|440:208|336:144,1,210,2|0,0:0|0:0,0:0:0:0:
232,136,23062,2,0,L|112:136,2,105,0|0|0,0:0|0:0|0:0,0:0:0:0:
400,112,24223,6,0,P|456:192|368:272,1,210,4|0,0:0|0:0,0:0:0:0:
248,192,25385,2,0,L|376:192,2,105,0|0|0,0:0|0:0|0:0,0:0:0:0:
80,192,26546,2,0,P|96:304|192:320,1,210,10|0,0:0|0:0,0:0:0:0:
344,200,27707,5,0,0:0:0:0:
376,168,27901,1,0,0:0:0:0:
408,136,28094,1,0,0:0:0:0:
256,192,28481,1,0,0:0:0:0:
424,216,28868,6,0,P|368:128|224:128,1,210,4|0,0:0|0:0,0:0:0:0:
120,176,30030,2,0,L|0:176,2,105
288,184,31191,6,0,L|120:48,1,210,4|0,0:0|0:0,0:0:0:0:
272,200,32352,2,0,L|400:200,1,105
336,200,32933,1,0,0:0:0:0:
288,200,33127,1,0,0:0:0:0:
120,192,33514,6,0,P|56:264|160:328,1,210,4|0,0:0|0:0,0:0:0:0:
272,264,34675,2,0,L|144:264,2,105,0|0|0,0:0|0:0|0:0,0:0:0:0:
424,224,35836,2,0,P|448:144|352:88,1,210
184,192,36997,5,0,0:0:0:0:
128,160,37191,1,0,0:0:0:0:
72,112,37385,1,8,0:0:0:0:
128,160,37578,1,0,0:0:0:0:
184,192,37772,1,0,0:0:0:0:
352,208,38159,5,4,0:2:0:0:
200,200,38546,1,0,0:0:0:0:
136,128,38739,1,0,0:0:0:0:
200,56,38933,1,2,0:0:0:0:
352,192,39320,5,4,0:0:0:0:
208,196,39707,2,0,L|80:196,1,105
264,200,40481,5,4,0:0:0:0:
416,208,40868,1,0,0:0:0:0:
400,152,41062,1,0,0:0:0:0:
384,104,41256,1,2,0:0:0:0:
240,192,41643,5,4,0:0:0:0:
88,196,42030,2,0,L|124:76,1,105
264,192,42804,6,0,L|344:88,1,105,4|0,0:0|0:0,0:0:0:0:
264,72,43385,2,0,L|144:72,1,105
224,72,43965,2,0,L|352:72,2,105
368,176,45127,6,0,L|488:176,1,105,4|0,0:0|0:0,0:0:0:0:
408,176,45707,2,0,L|288:176,1,105
368,96,46288,2,0,L|488:96,2,105,2|0|0,0:0|0:0|0:0,0:0:0:0:
200,120,47449,6,0,L|128:208,1,105,4|0,0:0|0:0,0:0:0:0:
200,232,48030,2,0,L|320:232,1,105
200,232,48610,2,0,P|136:160|216:96,1,210
360,188,49772,6,2,L|475:188,1,105,4|2,0:0|0:0,0:0:0:0:
396,192,50352,2,2,L|276:192,1,105,0|2,0:0|0:0,0:0:0:0:
376,192,50933,6,2,L|440:104,1,105,0|2,0:0|0:0,0:0:0:0:
376,80,51514,1,2,0:0:0:0:
312,48,51707,1,2,0:0:0:0:
144,168,52094,6,0,L|96:280,1,105,4|0,0:0|0:0,0:0:0:0:
176,272,52675,2,0,L|296:272,1,105
360,272,53256,2,0,L|488:272,2,105,0|0|0,0:0|0:0|0:0,0:0:0:0:
208,200,54417,5,4,0:0:0:0:
360,232,54804,2,0,P|420:192|336:96,1,210
256,192,55965,12,0,57514,0:0:0:0:
336,200,57901,6,0,L|416:96,1,105,4|0,0:0|0:0,0:0:0:0:
336,96,58481,2,0,L|216:96,1,105,8|0,0:0|0:0,0:0:0:0:
160,104,59062,2,0,P|104:164|112:280,1,157.5
160,284,59836,1,0,0:0:0:0:
336,160,60223,6,0,P|416:208|416:296,1,157.5,4|8,0:0|0:0,0:0:0:0:
280,200,61191,1,0,0:0:0:0:
216,200,61385,2,0,L|88:200,2,105,2|0|0,0:0|0:0|0:0,0:0:0:0:
392,200,62546,6,0,P|352:152|296:144,1,105,4|0,0:0|0:0,0:0:0:0:
248,144,63127,2,0,L|336:72,1,105,8|0,0:0|0:0,0:0:0:0:
260,52,63707,2,0,P|180:104|168:176,1,157.5
232,228,64481,1,0,0:0:0:0:
408,192,64868,5,4,0:0:0:0:
256,208,65256,1,0,0:0:0:0:
192,136,65449,1,8,0:0:0:0:
256,64,65643,1,0,0:0:0:0:
408,192,66030,2,0,L|280:192,2,105,2|0|0,0:0|0:0|0:0,0:0:0:0:
240,192,67191,6,0,L|120:192,1,105,4|0,0:0|0:0,0:0:0:0:
200,184,67772,2,0,L|312:184,1,105,8|0,0:0|0:0,0:0:0:0:
236,192,68352,2,0,P|156:96|168:64,1,157.5
232,40,69127,1,0,0:0:0:0:
408,200,69514,6,0,L|440:88,1,105,4|0,0:0|0:0,0:0:0:0:
288,192,70288,1,0,0:0:0:0:
136,200,70675,2,0,L|16:200,2,105,2|2|2,0:0|0:0|0:0,0:0:0:0:
304,208,71836,6,0,L|424:208,1,105,4|0,0:0|0:0,0:0:0:0:
280,208,72610,1,0,0:0:0:0:
128,208,72997,2,0,L|8:208,2,105
280,208,74159,6,0,P|336:152|272:104,1,157.5,4|8,0:0|0:0,0:0:0:0:
144,192,75127,1,0,0:0:0:0:
72,200,75320,2,0,P|48:144|96:88,1,105,0|2,0:0|0:0,0:0:0:0:
128,80,75901,1,0,0:0:0:0:
192,72,76094,1,0,0:0:0:0:
344,192,76481,6,0,L|368:120,1,52.5,6|2,0:0|0:0,0:0:0:0:
208,88,77062,2,0,L|192:24,1,52.5,2|2,0:0|0:0,0:0:0:0:
360,152,77643,6,0,L|416:152,2,52.5,2|2|8,0:0|0:0|0:0,0:0:0:0:
192,184,78417,1,10,0:0:0:0:
336,184,78804,6,0,P|392:144|400:88,1,105,2|0,0:0|0:0,0:0:0:0:
336,88,79385,2,0,L|216:88,1,105,2|0,0:0|0:0,0:0:0:0:
304,88,79965,2,0,P|384:144|328:232,1,210,2|8,0:0|0:0,0:0:0:0:
192,232,81127,6,0,L|176:176,1,52.5,6|2,0:0|0:0,0:0:0:0:
32,152,81707,2,0,L|56:80,1,52.5,2|2,0:0|0:0,0:0:0:0:
224,128,82288,5,2,0:0:0:0:
272,96,82481,1,2,0:0:0:0:
320,64,82675,1,8,0:0:0:0:
176,96,83062,1,10,0:0:0:0:
344,184,83449,6,0,L|464:184,1,105,2|10,0:0|0:0,0:0:0:0:
376,240,84030,2,0,L|304:240,1,52.5,2|2,0:0|0:0,0:0:0:0:
256,192,84610,12,0,88094,0:0:0:0:
