osu file format v14

[General]
AudioFilename: Annabel - syncretism (animesize ver.).mp3
AudioLeadIn: 1002
PreviewTime: 57707
Countdown: 0
SampleSet: Soft
StackLeniency: 0.4
Mode: 0
LetterboxInBreaks: 0
WidescreenStoryboard: 0

[Editor]
DistanceSpacing: 1
BeatDivisor: 4
GridSize: 16
TimelineZoom: 2.2

[Metadata]
Title:syncretism animesize ver.
TitleUnicode:syncretism animesize ver.
Artist:Annabel
ArtistUnicode:Annabel
Creator:F D Flourite
Version:Normal
Source:Hybrid Child
Tags:OVA BL yaoi boys love theme
BeatmapID:817764
BeatmapSetID:373286

[Difficulty]
HPDrainRate:4
CircleSize:3
OverallDifficulty:4
ApproachRate:5
SliderMultiplier:1.05
SliderTickRate:1

[Events]
//Background and Video events
0,0,"112962110737883904o.jpg",0,0
//Break Periods
2,55778,56581
//Storyboard Layer 0 (Background)
//Storyboard Layer 1 (Fail)
//Storyboard Layer 2 (Pass)
//Storyboard Layer 3 (Foreground)
//Storyboard Sound Samples

[TimingPoints]
998,387.096774193548,3,2,1,60,1,0
57901,-100,3,2,1,80,0,1
76095,-100,3,2,2,80,0,1
76481,-90.9090909090909,3,2,2,80,0,1
84610,-90.9090909090909,3,2,1,50,0,0
85095,-100,3,2,1,20,0,0
88095,-100,3,2,1,5,0,0

[Colours]
Combo1 : 243,245,167
Combo2 : 255,185,220
Combo3 : 202,136,223
Combo4 : 239,190,188

[HitObjects]
297,232,998,6,0,P|333:249|430:143,1,210,4|0,0:0|0:0,0:0:0:0:
378,54,2159,2,0,P|342:37|245:143,1,210,2|0,0:0|0:0,0:0:0:0:
195,232,3320,6,0,L|181:337,2,105,4|0|0,0:0|0:0|0:0,0:0:0:0:
114,164,4482,2,0,L|128:59,2,105,2|2|0,0:0|0:0|0:0,0:0:0:0:
214,133,5643,6,0,P|260:114|390:194,1,210,4|0,0:0|0:0,0:0:0:0:
363,289,6804,2,0,P|317:308|187:228,1,210,2|0,0:0|0:0,0:0:0:0:
115,160,7966,6,0,L|7:151,1,105,4|0,0:0|0:0,0:0:0:0:
56,56,8740,1,2,0:0:0:0:
160,67,9127,2,0,L|264:75,1,105,2|0,0:0|0:0,0:0:0:0:
362,114,9901,1,2,0:0:0:0:
401,211,10288,6,0,P|415:259|391:329,1,105,4|0,0:0|0:0,0:0:0:0:
353,329,10869,2,0,L|240:322,1,105,0|0,0:0|0:0,0:0:0:0:
195,320,11449,1,4,0:0:0:0:
95,352,11836,2,0,L|76:235,1,105,0|0,0:0|0:0,0:0:0:0:
61,144,12611,6,0,P|106:114|167:121,1,105,4|0,0:0|0:0,0:0:0:0:
201,141,13191,2,0,P|242:146|305:100,1,105,2|0,0:0|0:0,0:0:0:0:
320,68,13772,1,0,0:0:0:0:
417,107,14159,2,0,L|425:169,1,52.5,0|0,0:0|0:0,0:0:0:0:
432,210,14546,1,0,0:0:0:0:
368,293,14933,6,0,L|253:289,1,105,4|0,0:0|0:0,0:0:0:0:
210,288,15514,1,0,0:0:0:0:
210,288,15707,1,0,0:0:0:0:
165,192,16095,2,0,L|280:196,1,105,4|0,0:0|0:0,0:0:0:0:
323,197,16676,1,0,0:0:0:0:
323,197,16869,1,0,0:0:0:0:
278,101,17256,6,0,L|173:97,1,105,4|0,0:0|0:0,0:0:0:0:
120,96,17837,1,0,0:0:0:0:
120,96,18030,1,0,0:0:0:0:
79,192,18417,2,0,L|61:260,1,52.5
58,294,18804,2,0,P|81:346|132:363,1,105,0|8,0:0|0:0,0:0:0:0:
223,332,19578,6,0,P|296:307|409:366,1,210,4|0,0:0|0:0,0:0:0:0:
484,292,20740,2,0,L|467:183,1,105
446,85,21514,1,0,0:0:0:0:
356,139,21901,6,0,B|289:151|251:101|251:101|154:111,1,210,0|0,0:0|0:0,0:0:0:0:
114,204,23062,2,0,L|239:189,1,105,0|0,0:0|0:0,0:0:0:0:
296,261,23836,1,0,0:0:0:0:
212,324,24224,6,0,P|117:301|114:204,1,210,4|0,0:0|0:0,0:0:0:0:
185,127,25385,2,0,P|185:78|147:23,2,105,0|0|0,0:0|0:0|0:0,0:0:0:0:
284,161,26546,6,0,B|350:165|383:126|383:126|403:174|466:189,1,210,0|0,0:0|0:0,0:0:0:0:
478,84,27707,1,0,0:0:0:0:
400,12,28095,1,0,0:0:0:0:
307,61,28482,1,0,0:0:0:0:
260,85,28675,1,0,0:0:0:0:
215,111,28869,6,0,P|199:164|310:241,1,210,4|0,0:0|0:0,0:0:0:0:
407,210,30030,2,0,P|463:208|506:243,1,105,0|0,0:0|0:0,0:0:0:0:
428,311,30804,1,0,0:0:0:0:
323,306,31191,6,0,B|206:297|206:297|112:318,1,210
11,334,32353,2,0,L|5:228,1,105,0|0,0:0|0:0,0:0:0:0:
0,123,33127,1,0,0:0:0:0:
87,64,33514,6,0,B|142:49|186:87|186:87|236:53|290:77,1,210,4|0,0:0|0:0,0:0:0:0:
247,172,34675,2,0,P|235:217|265:285,1,105,0|0,0:0|0:0,0:0:0:0:
342,325,35449,1,0,0:0:0:0:
345,220,35836,6,0,L|131:232,1,210,0|0,0:0|0:0,0:0:0:0:
40,186,36998,2,0,P|28:121|45:75,1,105,0|8,0:0|0:0,0:0:0:0:
85,59,37578,1,0,0:0:0:0:
135,74,37772,2,0,L|211:80,1,52.5,0|0,0:0|0:0,0:0:0:0:
239,71,38159,6,0,P|288:49|370:111,1,157.5,4|0,0:2|0:0,0:0:0:0:
358,153,38933,2,0,L|350:228,1,52.5,2|0,0:0|0:0,0:0:0:0:
371,254,39320,2,0,P|362:309|384:362,2,105,4|0|2,0:0|0:0|0:0,0:0:0:0:
268,231,40482,6,0,B|178:218|178:218|90:233,1,157.5,4|0,0:0|0:0,0:0:0:0:
60,235,41256,2,0,L|50:295,1,52.5,2|0,0:0|0:0,0:0:0:0:
87,324,41643,2,0,B|138:336|138:336|195:326,2,105,4|0|0,0:0|0:0|0:0,0:0:0:0:
58,223,42804,6,0,L|49:106,1,105,4|0,0:0|0:0,0:0:0:0:
69,69,43385,2,0,P|105:44|181:54,1,105,0|0,0:0|0:0,0:0:0:0:
213,64,43966,2,0,P|292:78|330:64,1,105,0|0,0:0|0:0,0:0:0:0:
405,20,44740,1,0,0:0:0:0:
449,115,45127,6,0,L|438:225,1,105,4|0,0:0|0:0,0:0:0:0:
440,271,45707,2,0,P|423:325|373:340,1,105
328,334,46288,2,0,L|223:323,1,105
189,226,47062,1,0,0:0:0:0:
157,126,47449,6,0,P|93:183|91:243,1,105,4|0,0:0|0:0,0:0:0:0:
92,250,48030,2,0,B|112:294|112:294|177:326,1,105,0|0,0:0|0:0,0:0:0:0:
214,328,48611,2,0,L|324:319,2,105,0|0|0,0:0|0:0|0:0,0:0:0:0:
230,224,49772,6,0,P|220:174|251:106,1,105,4|0,0:0|0:0,0:0:0:0:
288,116,50353,2,0,P|346:120|392:63,1,105
380,40,50933,2,0,P|338:10|287:16,2,105
465,98,52095,6,0,L|459:226,1,105,4|0,0:0|0:0,0:0:0:0:
457,255,52675,2,0,P|415:304|355:289,1,105,0|0,0:0|0:0,0:0:0:0:
327,291,53256,1,0,0:0:0:0:
225,266,53643,1,0,0:0:0:0:
130,312,54030,1,0,0:0:0:0:
29,281,54417,6,0,L|41:165,1,105,4|0,0:0|0:0,0:0:0:0:
70,133,54998,1,0,0:0:0:0:
60,81,55191,2,0,L|51:26,2,52.5,0|0|0,0:0|0:0|0:0,0:0:0:0:
103,110,57901,6,0,P|159:129|223:95,1,105,4|0,0:0|0:0,0:0:0:0:
243,84,58482,2,0,P|292:70|341:89,1,105,8|0,0:0|0:0,0:0:0:0:
379,125,59062,2,0,L|374:188,1,52.5,0|0,0:0|0:0,0:0:0:0:
371,229,59449,1,0,0:0:0:0:
397,274,59643,2,0,L|281:282,1,105,8|0,0:0|0:0,0:0:0:0:
252,315,60224,6,0,B|199:309|199:309|129:339,1,105,4|0,0:0|0:0,0:0:0:0:
103,349,60804,1,8,0:0:0:0:
54,329,60998,2,0,L|43:257,1,52.5,0|0,0:0|0:0,0:0:0:0:
39,224,61385,2,0,B|30:164|30:164|41:118,2,105,2|2|2,0:0|0:0|0:0,0:0:0:0:
139,195,62546,6,0,B|226:206|205:141|298:155,1,157.5,4|8,0:0|0:0,0:0:0:0:
389,173,63514,1,0,0:0:0:0:
440,181,63707,2,0,L|449:249,1,52.5,0|0,0:0|0:0,0:0:0:0:
454,285,64095,1,0,0:0:0:0:
429,331,64288,2,0,P|400:351|319:334,1,105,8|0,0:0|0:0,0:0:0:0:
285,321,64869,5,4,0:0:0:0:
182,297,65256,2,0,L|95:304,1,52.5,0|8,0:0|0:0,0:0:0:0:
84,274,65643,2,0,L|-3:281,1,52.5,0|0,0:0|0:0,0:0:0:0:
4,233,66030,2,0,L|14:122,2,105,0|2|8,1:0|0:0|0:0,0:0:0:0:
90,173,67191,6,0,P|115:114|103:57,1,105,4|0,0:0|0:0,0:0:0:0:
89,26,67772,2,0,L|212:40,1,105,8|0,0:0|0:0,0:0:0:0:
245,29,68353,1,0,0:0:0:0:
275,71,68546,2,0,P|334:95|398:75,2,105,0|8|0,0:0|0:0|0:0,0:0:0:0:
222,77,69514,6,0,L|234:204,1,105,4|0,0:0|0:0,0:0:0:0:
256,227,70095,2,0,L|262:287,1,52.5,8|0,0:0|0:0,0:0:0:0:
300,314,70482,1,0,0:0:0:0:
349,297,70675,2,0,P|417:285|470:303,2,105,2|2|10,0:0|0:0|0:0,0:0:0:0:
249,331,71836,6,0,P|179:347|138:321,1,105,4|0,0:0|0:0,0:0:0:0:
105,308,72417,1,8,0:0:0:0:
91,203,72804,1,0,0:0:0:0:
140,183,72998,2,0,P|212:187|243:208,1,105,4|0,0:0|0:0,0:0:0:0:
265,248,73578,2,0,P|324:279|365:274,1,105,8|0,0:0|0:0,0:0:0:0:
401,243,74159,6,0,B|432:169|432:169|405:80,1,157.5,4|8,0:0|0:0,0:0:0:0:
312,54,75127,1,0,0:0:0:0:
263,72,75320,2,0,P|178:69|138:46,2,105,0|0|2,0:0|0:0|0:0,0:0:0:0:
334,190,76481,6,0,P|352:247|319:306,1,115.50000352478,2|8,0:0|0:0,0:0:0:0:
261,295,77062,1,2,0:0:0:0:
191,293,77256,1,2,0:0:0:0:
55,322,77643,2,0,L|63:202,1,115.50000352478,2|8,0:0|0:0,0:0:0:0:
67,137,78223,1,2,0:0:0:0:
136,139,78417,2,0,L|203:138,1,57.7500017623902,8|2,0:0|0:0,0:0:0:0:
263,135,78804,6,0,P|278:93|252:22,2,115.50000352478,2|2|2,0:0|0:0|0:0,0:0:0:0:
231,196,79772,1,2,0:0:0:0:
251,262,79965,2,0,P|289:279|328:277,1,57.7500017623902,2|2,0:0|0:0,0:0:0:0:
374,282,80352,1,8,0:0:0:0:
512,282,80739,1,8,0:0:0:0:
512,212,80933,1,2,0:0:0:0:
512,143,81127,6,0,L|383:144,1,115.50000352478,2|8,0:0|0:0,0:0:0:0:
327,144,81707,1,2,0:0:0:0:
257,145,81901,1,2,0:0:0:0:
131,85,82288,2,0,P|116:137|132:200,1,115.50000352478,2|8,0:0|0:0,0:0:0:0:
175,246,82868,1,2,0:0:0:0:
240,268,83062,2,0,P|283:270|316:259,1,57.7500017623902,8|2,0:0|0:0,0:0:0:0:
360,237,83449,6,0,L|370:371,1,115.50000352478,2|8,0:0|0:0,0:0:0:0:
434,372,84030,1,2,0:0:0:0:
497,344,84223,1,2,0:0:0:0:
492,274,84417,1,2,0:0:0:0:
486,205,84610,1,14,0:0:0:0:
256,192,84804,12,0,88095,0:0:0:0:
