osu file format v14

[General]
AudioFilename: Annabel - syncretism (animesize ver.).mp3
AudioLeadIn: 1002
PreviewTime: 57707
Countdown: 0
SampleSet: Soft
StackLeniency: 0.4
Mode: 0
LetterboxInBreaks: 0
WidescreenStoryboard: 0

[Editor]
DistanceSpacing: 0.8
BeatDivisor: 4
GridSize: 8
TimelineZoom: 2.5

[Metadata]
Title:syncretism animesize ver.
TitleUnicode:syncretism animesize ver.
Artist:Annabel
ArtistUnicode:Annabel
Creator:F D Flourite
Version:Insane
Source:Hybrid Child
Tags:OVA BL yaoi boys love theme
BeatmapID:817763
BeatmapSetID:373286

[Difficulty]
HPDrainRate:6
CircleSize:4
OverallDifficulty:7.5
ApproachRate:8
SliderMultiplier:1.6
SliderTickRate:1

[Events]
//Background and Video events
0,0,"112962110737883904o.jpg",0,0
//Break Periods
2,56165,56957
//Storyboard Layer 0 (Background)
//Storyboard Layer 1 (Fail)
//Storyboard Layer 2 (Pass)
//Storyboard Layer 3 (Foreground)
//Storyboard Sound Samples

[TimingPoints]
998,387.096774193548,3,2,1,60,1,0
998,-133.333333333333,3,2,1,60,0,0
10288,-100,3,2,1,60,0,0
19578,-111.111111111111,3,2,1,60,0,0
38159,-90.9090909090909,3,2,0,40,0,0
38546,-100,3,2,1,60,0,0
55578,-200,3,2,1,60,0,0
55965,-200,3,2,1,30,0,0
57707,-100,3,2,1,60,0,0
57901,-100,3,2,1,80,0,1
76095,-100,3,2,2,80,0,1
84610,-100,3,2,2,50,0,0
85095,-100,3,2,1,20,0,0
88095,-100,3,2,1,5,0,0

[Colours]
Combo1 : 243,245,167
Combo2 : 255,185,220
Combo3 : 202,136,223
Combo4 : 239,190,188

[HitObjects]
110,111,998,6,0,L|123:257,1,120.000004577637,4|0,0:0|0:0,0:0:0:0:
201,192,1578,2,0,P|259:187|312:247,1,120.000004577637
343,305,2159,6,0,L|337:370,1,60.0000022888184,2|0,0:0|0:0,0:0:0:0:
390,231,2546,1,0,0:0:0:0:
251,310,2740,2,0,B|203:303|203:303|182:306|182:306|119:294,1,120.000004577637
40,211,3320,6,0,P|17:164|46:85,2,120.000004577637,4|0|0,0:0|0:0|0:0,0:0:0:0:
127,231,4288,1,0,0:0:0:0:
203,183,4482,6,0,L|272:172,1,60.0000022888184,2|0,0:0|0:0,0:0:0:0:
431,260,4869,2,0,P|373:270|325:238,1,120.000004577637,2|0,0:0|0:0,0:0:0:0:
398,59,5643,6,0,P|411:116|389:171,1,120.000004577637,4|0,0:0|0:0,0:0:0:0:
208,134,6224,2,0,P|262:101|326:114,1,120.000004577637,0|0,0:0|0:0,0:0:0:0:
279,193,6804,6,0,L|273:332,1,120.000004577637,2|0,0:0|0:0,0:0:0:0:
184,300,7385,2,0,B|124:290|124:290|57:314,1,120.000004577637,0|0,0:0|0:0,0:0:0:0:
68,309,7966,5,4,0:0:0:0:
120,137,8353,2,0,L|126:203,1,60.0000022888184,0|0,0:0|0:0,0:0:0:0:
214,210,8740,1,2,0:0:0:0:
120,137,8933,1,0,0:0:0:0:
227,92,9127,6,0,B|276:86|276:86|295:91|295:91|357:85,1,120.000004577637,2|0,0:0|0:0,0:0:0:0:
422,39,9707,1,0,0:0:0:0:
469,115,9901,2,0,L|460:209,1,90.0000034332277,2|0,0:0|0:0,0:0:0:0:
477,257,10288,5,4,0:0:0:0:
477,257,10675,1,0,0:0:0:0:
383,332,10869,1,0,0:0:0:0:
282,267,11062,1,0,0:0:0:0:
314,151,11256,1,0,0:0:0:0:
433,145,11449,5,4,0:0:0:0:
433,145,11836,1,0,0:0:0:0:
314,151,12030,1,0,0:0:0:0:
215,81,12224,1,0,0:0:0:0:
215,81,12611,5,4,0:0:0:0:
215,81,12998,1,0,0:0:0:0:
138,172,13191,2,0,L|151:331,1,160,2|0,0:0|0:0,0:0:0:0:
29,247,13772,5,0,0:0:0:0:
215,81,14159,2,0,L|251:86,2,26.6666666666667,0|0|0,0:0|0:0|0:0,0:0:0:0:
278,81,14353,2,0,L|283:128,2,40
281,282,14740,1,0,0:0:0:0:
478,59,14933,6,0,P|467:118|477:234,1,160,4|0,0:0|0:0,0:0:0:0:
281,282,15514,1,0,0:0:0:0:
304,112,15707,2,0,P|344:112|384:106,1,80
192,293,16094,6,0,P|166:222|217:137,1,160,4|0,0:0|0:0,0:0:0:0:
343,344,16675,1,0,0:0:0:0:
477,155,16869,2,0,P|488:198|477:238,1,80
180,284,17256,6,0,L|205:107,1,160,4|0,0:0|0:0,0:0:0:0:
130,48,17836,1,0,0:0:0:0:
290,128,18030,1,0,0:0:0:0:
106,169,18224,1,0,0:0:0:0:
306,17,18417,6,0,L|341:21,2,26.6666666666667,0|0|0,0:0|0:0|0:0,0:0:0:0:
362,40,18611,2,0,L|416:48,2,40,0|0|0,0:0|0:0|0:0,0:0:0:0:
364,223,18998,1,0,0:0:0:0:
170,118,19191,1,8,0:0:0:0:
290,128,19385,1,0,0:0:0:0:
144,240,19578,6,0,P|91:284|6:266,1,143.999995605469,4|0,0:0|0:0,0:0:0:0:
50,126,20159,2,0,P|63:171|65:206,1,71.9999978027344,0|0,0:0|0:0,0:0:0:0:
12,364,20546,1,0,0:0:0:0:
148,271,20740,6,0,B|212:261|212:261|246:292|295:288,1,143.999995605469,0|0,0:0|0:0,0:0:0:0:
281,192,21320,1,0,0:0:0:0:
189,347,21514,1,0,0:0:0:0:
166,173,21707,1,0,0:0:0:0:
387,131,21901,6,0,L|376:274,1,143.999995605469,0|0,0:0|0:0,0:0:0:0:
281,192,22482,1,0,0:0:0:0:
472,197,22675,2,0,P|481:237|482:277,1,71.9999978027344,0|0,0:0|0:0,0:0:0:0:
445,51,23062,6,0,P|399:77|301:60,1,143.999995605469,0|0,0:0|0:0,0:0:0:0:
293,59,23514,2,0,L|260:38,2,23.9999992675781,0|0|0,0:0|0:0|0:0,0:0:0:0:
378,211,23836,1,0,0:0:0:0:
178,217,24030,1,0,0:0:0:0:
428,137,24224,6,0,P|453:165|443:272,1,143.999995605469,4|0,0:0|0:0,0:0:0:0:
249,211,24804,2,0,L|178:217,1,71.9999978027344
308,303,25191,1,0,0:0:0:0:
80,267,25385,6,0,P|51:200|84:110,1,143.999995605469
245,62,25966,1,0,0:0:0:0:
346,198,26159,1,0,0:0:0:0:
178,217,26353,1,0,0:0:0:0:
439,107,26546,6,0,L|430:267,1,143.999995605469
252,151,27127,1,0,0:0:0:0:
451,84,27320,1,0,0:0:0:0:
412,273,27514,1,0,0:0:0:0:
178,217,27707,6,0,L|185:252,2,23.9999992675781
160,192,27901,2,0,L|168:142,2,35.9999989013672
346,198,28288,1,0,0:0:0:0:
210,313,28482,2,0,P|161:315|121:281,1,71.9999978027344,0|0,0:0|0:0,0:0:0:0:
239,129,28869,6,0,B|299:109|299:109|391:125,1,143.999995605469,4|0,0:0|0:0,0:0:0:0:
380,267,29449,2,0,B|413:274|441:258|441:258|412:363,1,143.999995605469
512,152,30030,5,0,0:0:0:0:
497,135,30417,2,0,L|482:62,1,71.9999978027344,0|0,0:0|0:0,0:0:0:0:
349,130,30804,2,0,L|338:202,1,71.9999978027344,0|0,0:0|0:0,0:0:0:0:
137,109,31191,6,0,P|189:64|270:76,1,143.999995605469,0|0,0:0|0:0,0:0:0:0:
134,201,31772,2,0,B|94:199|65:167|65:167|75:239,1,143.999995605469,0|0,0:0|0:0,0:0:0:0:
349,130,32353,5,0,0:0:0:0:
349,130,32740,2,0,L|356:93,2,23.9999992675781,0|0|0,0:0|0:0|0:0,0:0:0:0:
363,145,32933,2,0,L|369:192,2,35.9999989013672,0|0|0,0:0|0:0|0:0,0:0:0:0:
256,246,33320,1,0,0:0:0:0:
495,276,33514,6,0,P|448:318|365:304,1,143.999995605469,4|0,0:0|0:0,0:0:0:0:
363,145,34095,1,0,0:0:0:0:
256,246,34288,2,0,P|253:291|261:325,1,71.9999978027344,0|0,0:0|0:0,0:0:0:0:
149,184,34675,6,0,B|93:166|93:166|-2:189,1,143.999995605469,0|0,0:0|0:0,0:0:0:0:
256,137,35256,2,0,L|246:59,1,71.9999978027344,0|0,0:0|0:0,0:0:0:0:
88,268,35643,1,0,0:0:0:0:
239,358,35836,6,0,P|281:364|357:301,1,143.999995605469,0|0,0:0|0:0,0:0:0:0:
289,145,36417,2,0,P|247:139|171:202,1,143.999995605469,0|0,0:0|0:0,0:0:0:0:
265,252,36998,2,0,L|297:240,3,23.9999992675781,0|0|0|0,0:0|0:0|0:0|0:0,0:0:0:0:
389,235,37385,6,0,P|383:185|396:144,1,71.9999978027344,8|0,0:0|0:0,0:0:0:0:
429,33,37772,1,0,0:0:0:0:
478,196,37966,1,0,0:0:0:0:
235,116,38159,6,0,B|211:102|169:93|169:93|150:119|141:163,1,132.00000402832,4|0,0:2|0:0,0:0:0:0:
142,186,38546,5,4,0:0:0:0:
246,353,38740,1,0,0:0:0:0:
62,279,38933,1,2,0:0:0:0:
254,231,39127,1,0,0:0:0:0:
127,383,39320,5,4,0:0:0:0:
127,383,39707,1,0,0:0:0:0:
246,353,39901,1,0,0:0:0:0:
62,279,40095,1,2,0:0:0:0:
254,231,40288,1,0,0:0:0:0:
142,186,40482,5,4,0:0:0:0:
142,186,40869,1,0,0:0:0:0:
254,231,41062,1,0,0:0:0:0:
128,157,41256,1,2,0:0:0:0:
267,259,41449,1,0,0:0:0:0:
286,88,41643,6,0,P|348:62|437:93,1,160,4|0,0:0|0:0,0:0:0:0:
452,108,42095,2,0,L|466:135,2,26.6666666666667,0|0|0,0:0|0:0|0:0,0:0:0:0:
359,213,42417,1,0,0:0:0:0:
465,315,42611,1,0,0:0:0:0:
319,353,42804,6,0,P|254:362|210:278,1,160,4|0,0:0|0:0,0:0:0:0:
286,88,43385,1,0,0:0:0:0:
359,213,43578,1,0,0:0:0:0:
208,290,43772,1,0,0:0:0:0:
385,234,43965,6,0,P|464:239|506:166,1,160
392,76,44546,2,0,L|302:84,1,80
147,190,44933,1,0,0:0:0:0:
29,94,45127,6,0,P|87:41|165:38,1,160,4|0,0:0|0:0,0:0:0:0:
147,190,45707,1,0,0:0:0:0:
289,132,45901,1,0,0:0:0:0:
165,38,46095,1,0,0:0:0:0:
87,262,46288,6,0,P|101:275|112:277,2,26.6666666666667
148,283,46482,2,0,P|179:279|203:264,2,40,0|0|0,0:0|0:0|0:0,0:0:0:0:
221,125,46869,1,0,0:0:0:0:
331,233,47062,1,0,0:0:0:0:
221,125,47256,1,0,0:0:0:0:
386,88,47449,6,0,P|434:78|505:156,1,160,4|0,0:0|0:0,0:0:0:0:
331,233,48030,1,0,0:0:0:0:
424,160,48224,1,0,0:0:0:0:
385,355,48417,1,0,0:0:0:0:
237,228,48611,6,0,B|155:211|157:257|73:242,1,160
105,149,49191,1,0,0:0:0:0:
200,328,49385,1,0,0:0:0:0:
280,145,49578,1,0,0:0:0:0:
451,205,49772,6,0,L|465:320,1,106.666666666667,4|0,0:0|0:0,0:0:0:0:
487,352,50159,2,0,P|444:341|394:352,1,80
296,277,50546,1,0,0:0:0:0:
369,169,50740,1,0,0:0:0:0:
178,70,50933,6,0,L|191:233,1,160
194,256,51385,2,0,L|198:301,2,26.6666666666667
271,124,51707,1,0,0:0:0:0:
92,138,51901,1,0,0:0:0:0:
324,250,52095,6,0,P|391:260|456:197,1,160,4|0,0:0|0:0,0:0:0:0:
369,169,52675,1,0,0:0:0:0:
426,333,52869,1,0,0:0:0:0:
447,114,53062,1,0,0:0:0:0:
269,168,53256,22,0,L|186:164,1,80,0|0,0:0|0:0,0:0:0:0:
73,306,53643,2,0,L|152:309,1,80,0|0,0:0|0:0,0:0:0:0:
91,119,54030,2,0,P|79:166|91:208,1,80,0|0,0:0|0:0,0:0:0:0:
337,242,54417,38,0,P|369:178|327:86,1,160,4|0,0:0|0:0,0:0:0:0:
209,61,54998,1,0,0:0:0:0:
91,119,55191,1,0,0:0:0:0:
109,249,55385,1,0,0:0:0:0:
238,272,55578,6,0,L|247:255,3,13.3333333333333,0|0|0|0,0:0|0:0|0:0|0:0,0:0:0:0:
299,156,55965,1,0,0:0:0:0:
299,156,57707,5,0,0:0:0:0:
434,86,57901,6,0,L|414:268,1,160,4|0,0:0|0:0,0:0:0:0:
166,134,58482,2,0,P|217:108|304:172,1,160,8|0,0:0|0:0,0:0:0:0:
309,296,59062,5,0,0:0:0:0:
160,336,59256,2,0,L|75:329,1,80
72,111,59643,1,8,0:0:0:0:
165,237,59836,1,0,0:0:0:0:
9,254,60030,1,0,0:0:0:0:
309,296,60224,6,0,P|372:308|444:247,1,160,4|0,0:0|0:0,0:0:0:0:
347,128,60804,2,0,P|344:172|353:217,2,80,8|0|0,0:0|0:0|0:0,0:0:0:0:
205,76,61385,5,2,0:0:0:0:
65,165,61578,1,0,0:0:0:0:
213,241,61772,1,2,0:0:0:0:
109,80,61966,1,0,0:0:0:0:
117,245,62159,1,2,0:0:0:0:
257,155,62353,1,0,0:0:0:0:
264,321,62546,6,0,P|317:357|420:336,1,160,4|0,0:0|0:0,0:0:0:0:
368,186,63127,2,0,P|352:229|349:274,1,80,8|0,0:0|0:0,0:0:0:0:
501,315,63514,1,0,0:0:0:0:
512,93,63707,6,0,P|463:95|426:106,1,80,0|0,0:0|0:0,0:0:0:0:
257,155,64095,1,0,0:0:0:0:
306,329,64288,2,0,P|373:340|428:269,1,160,8|0,0:0|0:0,0:0:0:0:
154,207,64869,5,4,0:0:0:0:
154,207,65256,1,0,0:0:0:0:
338,237,65449,1,8,0:0:0:0:
171,321,65643,1,0,0:0:0:0:
257,155,65836,1,0,0:0:0:0:
285,339,66030,6,0,P|330:334|369:334,1,80,0|0,1:0|0:0,0:0:0:0:
465,265,66417,2,0,P|466:225|461:186,1,80,2|0,0:0|0:0,0:0:0:0:
352,99,66804,2,0,P|310:111|237:62,1,120,8|0,0:0|0:0,0:0:0:0:
183,20,67191,6,0,P|132:16|52:86,1,160,4|0,0:0|0:0,0:0:0:0:
120,224,67772,2,0,P|171:228|251:158,1,160,8|0,0:0|0:0,0:0:0:0:
153,123,68353,5,0,0:0:0:0:
29,184,68546,2,0,P|19:231|32:268,1,80,0|0,0:0|0:0,0:0:0:0:
210,333,68933,2,0,P|220:286|207:249,2,80,8|0|0,0:0|0:0|0:0,0:0:0:0:
432,283,69514,6,0,L|520:287,1,80,4|0,0:0|0:0,0:0:0:0:
359,327,69901,1,0,0:0:0:0:
400,174,70095,1,8,0:0:0:0:
374,345,70288,1,0,0:0:0:0:
387,153,70482,1,0,0:0:0:0:
215,238,70675,5,2,0:0:0:0:
37,165,70869,1,0,0:0:0:0:
138,296,71062,1,2,0:0:0:0:
113,106,71256,1,0,0:0:0:0:
49,260,71449,1,10,0:0:0:0:
202,142,71643,1,0,0:0:0:0:
410,185,71836,6,0,L|395:358,1,160,4|0,0:0|0:0,0:0:0:0:
506,264,72417,1,8,0:0:0:0:
297,219,72611,2,0,P|295:269|302:300,1,80,0|0,0:0|0:0,0:0:0:0:
484,113,72998,6,0,P|423:80|337:110,1,160,0|0,0:0|0:0,0:0:0:0:
510,301,73578,2,0,P|512:251|505:220,1,80,8|0,0:0|0:0,0:0:0:0:
410,185,73966,1,0,0:0:0:0:
194,187,74159,6,0,P|134:201|46:126,1,160,4|0,0:0|0:0,0:0:0:0:
140,21,74740,2,0,P|143:73|141:110,1,80,8|0,0:0|0:0,0:0:0:0:
56,257,75127,1,0,0:0:0:0:
194,187,75320,6,0,P|266:191|287:190,1,80,0|0,0:0|0:0,0:0:0:0:
395,85,75707,2,0,P|352:145|344:164,1,80,0|8,0:0|0:0,0:0:0:0:
382,309,76095,2,0,P|348:241|336:224,1,80,2|2,0:0|0:0,0:0:0:0:
265,77,76482,5,6,0:0:0:0:
253,300,76675,1,2,0:0:0:0:
454,199,76869,1,8,0:0:0:0:
193,184,77062,5,2,0:0:0:0:
382,308,77255,1,2,0:0:0:0:
395,84,77449,1,0,0:0:0:0:
325,182,77643,2,0,L|327:135,2,26.6666666666667,2|0|0,0:0|0:0|0:0,0:0:0:0:
325,204,77836,2,0,L|322:251,2,40,2|0|8,0:0|0:0|0:0,0:0:0:0:
123,294,78224,1,2,0:0:0:0:
123,294,78320,1,2,0:0:0:0:
123,294,78417,1,10,0:0:0:0:
193,184,78611,1,0,0:0:0:0:
136,68,78804,5,2,0:0:0:0:
395,84,78998,1,2,0:0:0:0:
193,184,79191,1,0,0:0:0:0:
121,50,79385,5,2,0:0:0:0:
411,66,79578,1,2,0:0:0:0:
193,184,79772,1,0,0:0:0:0:
105,32,79966,6,0,L|86:7,3,26.6666666666667,2|0|0|2,0:0|0:0|0:0|0:0,0:0:0:0:
261,71,80353,1,8,0:0:0:0:
193,184,80546,1,2,0:0:0:0:
349,181,80740,2,0,P|413:178|437:182,1,80,8|2,0:0|0:0,0:0:0:0:
456,189,81030,1,2,0:0:0:0:
456,189,81127,5,2,0:0:0:0:
256,299,81320,1,2,0:0:0:0:
261,71,81514,1,8,0:0:0:0:
388,302,81707,5,2,0:0:0:0:
193,184,81901,1,2,0:0:0:0:
393,74,82095,1,0,0:0:0:0:
136,68,82288,6,0,L|97:66,2,26.6666666666667,2|0|0,0:0|0:0|0:0,0:0:0:0:
161,57,82482,2,0,P|166:22|163:8,2,40,2|0|8,0:0|0:0|0:0,0:0:0:0:
325,187,82869,1,2,0:0:0:0:
325,187,82966,1,2,0:0:0:0:
325,187,83062,1,10,0:0:0:0:
125,297,83256,1,2,0:0:0:0:
193,184,83449,5,2,0:0:0:0:
437,217,83643,1,2,0:0:0:0:
256,299,83836,1,10,0:0:0:0:
184,163,84030,5,2,0:0:0:0:
456,234,84224,1,2,0:0:0:0:
239,303,84417,1,2,0:0:0:0:
288,80,84611,6,0,L|283:51,8,20,2|0|0|0|0|0|0|0|0,0:0|0:0|0:0|0:0|0:0|0:0|0:0|0:0|0:0,0:0:0:0:
256,192,85095,12,0,88095,0:0:0:0:
