osu file format v14

[General]
AudioFilename: Annabel - syncretism (animesize ver.).mp3
AudioLeadIn: 1002
PreviewTime: 57707
Countdown: 0
SampleSet: Soft
StackLeniency: 0.4
Mode: 0
LetterboxInBreaks: 0
WidescreenStoryboard: 0

[Editor]
DistanceSpacing: 1.2
BeatDivisor: 4
GridSize: 8
TimelineZoom: 2.2

[Metadata]
Title:syncretism animesize ver.
TitleUnicode:syncretism animesize ver.
Artist:Annabel
ArtistUnicode:Annabel
Creator:F D Flourite
Version:Hard
Source:Hybrid Child
Tags:OVA BL yaoi boys love theme
BeatmapID:817762
BeatmapSetID:373286

[Difficulty]
HPDrainRate:5
CircleSize:4
OverallDifficulty:6
ApproachRate:7
SliderMultiplier:1.3
SliderTickRate:1

[Events]
//Background and Video events
0,0,"112962110737883904o.jpg",0,0
//Break Periods
2,55778,56807
//Storyboard Layer 0 (Background)
//Storyboard Layer 1 (Fail)
//Storyboard Layer 2 (Pass)
//Storyboard Layer 3 (Foreground)
//Storyboard Sound Samples

[TimingPoints]
998,387.096774193548,3,2,1,60,1,0
998,-117.647058823529,3,2,1,60,0,0
10288,-100,3,2,1,60,0,0
57901,-95.2380952380952,3,2,1,80,0,1
76095,-95.2380952380952,3,2,2,80,0,1
84610,-95.2380952380952,3,2,1,50,0,0
84707,-95.2380952380952,3,2,1,20,0,0
88095,-95.2380952380952,3,2,1,5,0,0

[Colours]
Combo1 : 243,245,167
Combo2 : 255,185,220
Combo3 : 202,136,223
Combo4 : 239,190,188

[HitObjects]
106,112,999,6,0,P|152:43|284:68,1,221.000004215241,4|0,0:0|0:0,0:0:0:0:
355,178,2160,2,0,L|342:301,2,110.50000210762,2|0|0,0:0|0:0|0:0,0:0:0:0:
215,145,3321,6,0,B|92:118|146:221|10:187,1,221.000004215241,4|0,0:0|0:0,0:0:0:0:
28,330,4482,2,0,P|61:371|125:368,2,110.50000210762,2|2|0,0:0|0:0|0:0,0:0:0:0:
130,229,5643,6,0,L|252:219,1,110.50000210762,4|0,0:0|0:0,0:0:0:0:
300,259,6224,2,0,P|356:269|419:216,1,110.50000210762,0|0,0:0|0:0,0:0:0:0:
391,173,6804,2,0,L|385:105,1,55.2500010538101,2|0,0:0|0:0,0:0:0:0:
483,68,7191,1,0,0:0:0:0:
483,68,7385,2,0,L|473:202,1,110.50000210762,0|0,0:0|0:0,0:0:0:0:
476,250,7966,5,4,0:0:0:0:
476,250,8353,2,0,L|406:253,1,55.2500010538101,0|0,0:0|0:0,0:0:0:0:
368,301,8740,2,0,L|312:303,1,55.2500010538101,2|0,0:0|0:0,0:0:0:0:
260,352,9127,2,0,L|150:356,1,110.50000210762,2|0,0:0|0:0,0:0:0:0:
79,343,9707,1,0,0:0:0:0:
32,288,9901,2,0,P|28:255|34:222,1,55.2500010538101,2|0,0:0|0:0,0:0:0:0:
79,172,10288,6,0,P|134:151|205:211,1,130,4|0,0:0|0:0,0:0:0:0:
239,246,10869,1,0,0:0:0:0:
239,246,11062,2,0,L|225:317,1,65,0|0,0:0|0:0,0:0:0:0:
294,348,11449,2,0,B|350:338|350:338|368:320|368:320|441:308,1,130,4|0,0:0|0:0,0:0:0:0:
492,299,12030,1,0,0:0:0:0:
504,221,12224,1,0,0:0:0:0:
409,97,12611,6,0,P|370:78|277:128,1,130,4|0,0:0|0:0,0:0:0:0:
237,159,13191,2,0,P|179:186|119:166,1,130,2|0,0:0|0:0,0:0:0:0:
63,112,13772,1,0,0:0:0:0:
63,112,14159,1,0,0:0:0:0:
49,189,14353,1,0,0:0:0:0:
35,265,14546,1,0,0:0:0:0:
165,350,14933,6,0,L|324:331,1,130,4|0,0:0|0:0,0:0:0:0:
370,349,15514,1,0,0:0:0:0:
428,297,15707,2,0,P|437:253|427:222,1,65,0|0,0:0|0:0,0:0:0:0:
371,184,16095,2,0,P|432:198|485:134,1,130,4|0,0:0|0:0,0:0:0:0:
460,81,16675,2,0,L|391:70,1,65,0|0,0:0|0:0,0:0:0:0:
318,57,17062,1,0,0:0:0:0:
246,87,17256,6,0,B|185:98|185:98|119:62,1,130,4|0,0:0|0:0,0:0:0:0:
50,43,17836,1,0,0:0:0:0:
9,109,18030,2,0,L|21:178,1,65
61,240,18417,1,0,0:0:0:0:
138,246,18611,1,0,0:0:0:0:
215,253,18804,1,0,0:0:0:0:
292,260,18998,2,0,P|323:240|337:198,2,65,0|8|0,0:0|0:0|0:0,0:0:0:0:
262,188,19578,6,0,P|244:144|287:68,1,130,4|0,0:0|0:0,0:0:0:0:
320,138,20159,1,0,0:0:0:0:
392,109,20353,2,0,L|468:102,1,65,0|0,0:0|0:0,0:0:0:0:
500,167,20740,2,0,P|510:217|466:295,1,130,0|0,0:0|0:0,0:0:0:0:
399,276,21320,2,0,P|347:275|323:287,1,65,0|0,0:0|0:0,0:0:0:0:
266,316,21707,1,0,0:0:0:0:
203,363,21901,6,0,L|219:227,1,130,0|0,0:0|0:0,0:0:0:0:
221,155,22482,2,0,P|154:184|144:258,1,130,0|0,0:0|0:0,0:0:0:0:
127,311,23062,2,0,L|52:299,1,65,0|0,0:0|0:0,0:0:0:0:
10,242,23449,2,0,L|3:106,1,130,0|0,0:0|0:0,0:0:0:0:
146,50,24224,6,0,B|206:28|206:28|278:36,1,130,4|0,0:0|0:0,0:0:0:0:
337,76,24804,2,0,P|344:114|333:151,2,65,0|0|0,0:0|0:0|0:0,0:0:0:0:
405,37,25385,2,0,L|477:42,1,65,0|0,0:0|0:0,0:0:0:0:
484,118,25772,2,0,L|419:113,1,65,0|0,0:0|0:0,0:0:0:0:
437,189,26159,2,0,L|509:194,1,65,0|0,0:0|0:0,0:0:0:0:
363,212,26546,6,0,P|310:248|233:223,1,130,0|0,0:0|0:0,0:0:0:0:
183,192,27127,1,0,0:0:0:0:
122,240,27320,2,0,L|112:309,1,65,0|0,0:0|0:0,0:0:0:0:
42,337,27707,2,0,L|29:197,1,130,0|0,0:0|0:0,0:0:0:0:
54,133,28288,1,0,0:0:0:0:
85,61,28482,2,0,L|160:63,1,65,0|0,0:0|0:0,0:0:0:0:
259,106,28869,6,0,P|314:118|375:63,1,130,4|0,0:0|0:0,0:0:0:0:
301,41,29449,2,0,L|328:183,1,130,0|0,0:0|0:0,0:0:0:0:
345,244,30030,1,0,0:0:0:0:
345,244,30417,2,0,L|334:322,1,65,0|0,0:0|0:0,0:0:0:0:
253,342,30804,2,0,L|263:278,1,65,0|0,0:0|0:0,0:0:0:0:
183,192,31191,6,0,B|111:183|111:183|59:138,1,130,0|0,0:0|0:0,0:0:0:0:
76,67,31772,2,0,P|112:28|207:37,1,130,0|0,0:0|0:0,0:0:0:0:
249,69,32353,2,0,P|295:86|314:84,1,65,0|0,0:0|0:0,0:0:0:0:
384,61,32740,2,0,P|416:62|445:76,1,65,0|0,0:0|0:0,0:0:0:0:
482,145,33127,2,0,L|490:215,1,65,0|0,0:0|0:0,0:0:0:0:
426,308,33514,6,0,B|376:305|376:305|350:293|350:293|286:289,1,130,4|0,0:0|0:0,0:0:0:0:
227,258,34095,2,0,P|221:300|231:326,1,65,0|0,0:0|0:0,0:0:0:0:
291,365,34482,1,0,0:0:0:0:
291,365,34675,2,0,B|230:345|230:345|158:363,1,130,0|0,0:0|0:0,0:0:0:0:
88,365,35256,1,0,0:0:0:0:
26,317,35449,2,0,P|14:277|25:230,1,65
91,141,35836,6,0,L|102:271,1,130
181,273,36417,2,0,P|241:268|258:260,1,65,0|0,0:0|0:0,0:0:0:0:
303,214,36804,1,0,0:0:0:0:
379,231,36998,2,0,P|427:248|456:240,1,65,0|0,0:0|0:0,0:0:0:0:
492,188,37385,2,0,P|482:137|461:116,1,65,8|0,0:0|0:0,0:0:0:0:
398,112,37772,2,0,P|359:145|351:174,1,65,0|0,0:0|0:0,0:0:0:0:
303,214,38159,5,4,0:2:0:0:
303,214,38546,5,4,0:0:0:0:
237,105,38740,1,0,0:0:0:0:
226,231,38933,1,2,0:0:0:0:
309,136,39127,1,0,0:0:0:0:
186,164,39320,1,4,0:0:0:0:
186,164,39707,5,4,0:0:0:0:
252,273,39901,1,0,0:0:0:0:
263,147,40094,1,2,0:0:0:0:
180,242,40288,1,0,0:0:0:0:
303,214,40482,1,0,0:0:0:0:
303,214,40869,5,0,0:0:0:0:
445,147,41062,1,0,0:0:0:0:
309,136,41256,1,2,0:0:0:0:
380,102,41449,1,0,0:0:0:0:
315,58,41642,1,4,0:0:0:0:
315,58,42030,5,0,0:0:0:0:
309,136,42224,1,0,0:0:0:0:
303,214,42417,1,2,0:0:0:0:
232,247,42611,1,0,0:0:0:0:
161,280,42804,6,0,P|91:292|43:236,1,130,4|0,0:0|0:0,0:0:0:0:
58,178,43385,2,0,P|128:166|176:222,1,130,0|0,0:0|0:0,0:0:0:0:
232,247,43966,2,0,L|243:318,1,65,0|0,0:0|0:0,0:0:0:0:
303,214,44353,2,0,L|318:82,1,130,0|0,0:0|0:0,0:0:0:0:
487,225,45127,6,0,P|437:260|364:245,1,130,4|0,0:0|0:0,0:0:0:0:
303,213,45707,2,0,B|248:206|248:206|228:196|228:196|164:188,1,130,0|0,0:0|0:0,0:0:0:0:
102,214,46288,2,0,P|85:273|111:341,2,130,2|2|0,0:0|0:0|0:0,0:0:0:0:
209,101,47449,6,0,L|350:92,1,130,4|0,0:0|0:0,0:0:0:0:
404,134,48030,2,0,P|424:209|403:272,1,130,0|0,0:0|0:0,0:0:0:0:
334,271,48611,2,0,L|255:264,2,65
383,330,49191,1,0,0:0:0:0:
314,366,49385,2,0,P|291:378|248:377,1,65,0|0,0:0|0:0,0:0:0:0:
183,340,49772,6,0,B|165:302|165:302|179:200,1,130,4|0,0:0|0:0,0:0:0:0:
156,139,50353,2,0,P|205:140|254:206,1,130,0|0,0:0|0:0,0:0:0:0:
283,270,50933,2,0,B|330:315|330:315|419:315,2,130,0|2|0,0:0|0:0|0:0,0:0:0:0:
361,134,52095,6,0,P|340:64|271:55,1,130,4|0,0:0|0:0,0:0:0:0:
213,59,52675,2,0,P|167:75|90:38,1,130,0|0,0:0|0:0,0:0:0:0:
25,9,53256,2,0,L|13:90,1,65,0|0,0:0|0:0,0:0:0:0:
60,137,53643,2,0,L|68:209,1,65,0|0,0:0|0:0,0:0:0:0:
14,258,54030,2,0,L|2:339,1,65,0|0,0:0|0:0,0:0:0:0:
113,368,54417,6,0,P|170:371|214:298,1,130,4|0,0:0|0:0,0:0:0:0:
201,241,54998,1,0,0:0:0:0:
178,166,55191,2,0,L|161:102,1,65,0|0,0:0|0:0,0:0:0:0:
137,28,55578,1,4,0:0:0:0:
227,75,57707,5,0,0:0:0:0:
227,75,57901,2,0,P|314:100|381:59,1,136.499995834351,4|0,0:0|0:0,0:0:0:0:
426,46,58482,2,0,B|451:125|451:125|432:192,1,136.499995834351,8|0,0:0|0:0,0:0:0:0:
407,253,59062,2,0,L|412:327,2,68.2499979171754,0|0|0,0:0|0:0|0:0,0:0:0:0:
329,227,59643,2,0,P|285:202|195:218,1,136.499995834351,8|0,0:0|0:0,0:0:0:0:
125,242,60224,6,0,B|100:241|76:271|76:271|40:246|-12:264,1,136.499995834351,4|0,0:0|0:0,0:0:0:0:
27,337,60804,1,8,0:0:0:0:
108,341,60998,2,0,L|195:336,1,68.2499979171754,0|0,0:0|0:0,0:0:0:0:
256,318,61385,2,0,P|294:305|316:273,1,68.2499979171754,2|0,0:0|0:0,0:0:0:0:
244,177,61772,2,0,P|236:216|252:251,1,68.2499979171754,2|0,0:0|0:0,0:0:0:0:
372,237,62159,2,0,P|341:210|303:207,1,68.2499979171754,2|0,0:0|0:0,0:0:0:0:
400,313,62546,6,0,P|439:282|441:197,1,136.499995834351,4|0,0:0|0:0,0:0:0:0:
394,133,63127,1,8,0:0:0:0:
324,90,63320,2,0,L|255:86,1,68.2499979171754,0|0,0:0|0:0,0:0:0:0:
174,99,63707,2,0,P|173:65|194:31,1,68.2499979171754,0|0,0:0|0:0,0:0:0:0:
196,182,64095,1,0,0:0:0:0:
196,182,64288,2,0,P|205:258|165:322,1,136.499995834351,8|0,0:0|0:0,0:0:0:0:
109,353,64869,5,4,0:0:0:0:
109,353,65256,2,0,L|39:345,1,68.2499979171754,0|8,0:0|0:0,0:0:0:0:
178,309,65643,2,0,L|245:316,1,68.2499979171754,0|0,0:0|0:0,0:0:0:0:
315,359,66030,2,0,P|390:368|448:318,2,136.499995834351,0|2|8,1:0|0:0|0:0,0:0:0:0:
318,276,66998,1,0,0:0:0:0:
391,178,67191,6,0,B|420:177|446:188|446:188|416:84,1,136.499995834351,4|0,0:0|0:0,0:0:0:0:
400,32,67772,2,0,L|323:39,1,68.2499979171754,8|0,0:0|0:0,0:0:0:0:
250,44,68159,1,0,0:0:0:0:
168,53,68353,2,0,L|163:122,1,68.2499979171754,0|0,0:0|0:0,0:0:0:0:
171,202,68740,1,0,0:0:0:0:
235,251,68933,2,0,P|192:231|110:273,1,136.499995834351,8|0,0:0|0:0,0:0:0:0:
222,343,69514,6,0,L|303:348,1,68.2499979171754,4|0,0:0|0:0,0:0:0:0:
369,366,69901,1,0,0:0:0:0:
426,307,70095,1,8,0:0:0:0:
480,246,70288,2,0,L|472:173,1,68.2499979171754,0|0,0:0|0:0,0:0:0:0:
391,163,70675,2,0,L|399:234,1,68.2499979171754,2|0,0:0|0:0,0:0:0:0:
307,196,71062,2,0,L|241:167,1,68.2499979171754,2|0,0:0|0:0,0:0:0:0:
319,107,71449,2,0,L|376:64,1,68.2499979171754,10|0,0:0|0:0,0:0:0:0:
223,72,71836,6,0,P|188:109|84:84,1,136.499995834351,4|0,0:0|0:0,0:0:0:0:
39,60,72417,2,0,L|24:138,1,68.2499979171754,8|0,0:0|0:0,0:0:0:0:
6,206,72804,1,0,0:0:0:0:
39,280,72998,2,0,B|76:331|76:331|159:328,1,136.499995834351,0|0,0:0|0:0,0:0:0:0:
230,323,73578,1,8,0:0:0:0:
311,315,73772,2,0,P|363:323|394:351,1,68.2499979171754,0|0,0:0|0:0,0:0:0:0:
506,371,74159,6,0,P|476:333|487:239,1,136.499995834351,4|0,0:0|0:0,0:0:0:0:
508,171,74740,1,8,0:0:0:0:
508,171,75127,1,0,0:0:0:0:
428,187,75320,2,0,L|342:194,1,68.2499979171754,0|0,0:0|0:0,0:0:0:0:
249,93,75707,2,0,L|317:98,1,68.2499979171754,0|8,0:0|0:0,0:0:0:0:
277,249,76095,2,0,L|270:163,1,68.2499979171754,2|2,0:0|0:0,0:0:0:0:
406,39,76482,5,6,0:0:0:0:
428,187,76675,1,2,0:0:0:0:
428,187,76869,1,8,0:0:0:0:
512,64,77062,1,2,0:0:0:0:
512,64,77255,1,2,0:0:0:0:
175,64,77643,5,2,0:0:0:0:
203,220,77836,2,0,L|210:265,2,34.1249989585877,2|0|8,0:0|0:0|0:0,0:0:0:0:
53,166,78224,2,0,L|17:195,2,34.1249989585877,2|2|10,0:0|0:0|0:0,0:0:0:0:
145,150,78611,1,0,0:0:0:0:
203,220,78804,5,2,0:0:0:0:
348,225,78998,2,0,L|422:213,1,68.2499979171754,2|2,0:0|0:0,0:0:0:0:
203,220,79385,1,2,0:0:0:0:
279,96,79578,1,2,0:0:0:0:
276,178,79772,1,0,0:0:0:0:
277,260,79966,6,0,L|285:329,1,68.2499979171754,2|2,0:0|0:0,0:0:0:0:
210,287,80353,2,0,L|202:219,1,68.2499979171754,8|2,0:0|0:0,0:0:0:0:
127,178,80740,2,0,L|135:246,1,68.2499979171754,8|2,0:0|0:0,0:0:0:0:
145,327,81127,5,2,0:0:0:0:
0,300,81320,1,2,0:0:0:0:
0,300,81514,1,8,0:0:0:0:
134,245,81707,1,2,0:0:0:0:
134,245,81901,1,2,0:0:0:0:
410,288,82288,5,2,0:0:0:0:
358,151,82482,2,0,L|361:110,2,34.1249989585877,2|0|8,0:0|0:0|0:0,0:0:0:0:
265,264,82869,2,0,L|262:299,2,34.1249989585877,2|2|10,0:0|0:0|0:0,0:0:0:0:
410,288,83256,1,2,0:0:0:0:
358,151,83449,5,2,0:0:0:0:
445,33,83643,2,0,L|534:49,1,68.2499979171754,2|8,0:0|0:0,0:0:0:0:
300,16,84030,1,2,0:0:0:0:
358,151,84224,2,0,L|447:167,1,68.2499979171754,2|2,0:0|0:0,0:0:0:0:
265,264,84611,1,2,0:0:0:0:
256,192,84707,12,0,88095,0:0:0:0:
