osu file format v14

[General]
AudioFilename: Annabel - syncretism (animesize ver.).mp3
AudioLeadIn: 1002
PreviewTime: 57707
Countdown: 0
SampleSet: Soft
StackLeniency: 0.4
Mode: 0
LetterboxInBreaks: 0
WidescreenStoryboard: 0

[Editor]
DistanceSpacing: 1
BeatDivisor: 4
GridSize: 16
TimelineZoom: 2.2

[Metadata]
Title:syncretism animesize ver.
TitleUnicode:syncretism animesize ver.
Artist:Annabel
ArtistUnicode:Annabel
Creator:F D Flourite
Version:Easy
Source:Hybrid Child
Tags:OVA BL yaoi boys love theme
BeatmapID:817761
BeatmapSetID:373286

[Difficulty]
HPDrainRate:2
CircleSize:3
OverallDifficulty:2
ApproachRate:3
SliderMultiplier:0.8
SliderTickRate:1

[Events]
//Background and Video events
0,0,"112962110737883904o.jpg",0,0
//Break Periods
2,55778,56461
//Storyboard Layer 0 (Background)
//Storyboard Layer 1 (Fail)
//Storyboard Layer 2 (Pass)
//Storyboard Layer 3 (Foreground)
//Storyboard Sound Samples

[TimingPoints]
998,387.096774193548,3,2,1,40,1,0
10288,-100,3,2,1,60,0,0
19578,-100,3,2,1,40,0,0
57901,-100,3,2,1,80,0,1
76095,-100,3,2,2,80,0,1
84610,-100,3,2,1,60,0,0
85095,-100,3,2,1,20,0,0
88095,-100,3,2,1,5,0,0

[Colours]
Combo1 : 243,245,167
Combo2 : 255,185,220
Combo3 : 202,136,223
Combo4 : 239,190,188

[HitObjects]
16,213,998,6,0,P|57:234|146:169,1,160,4|0,0:0|0:0,0:0:0:0:
162,100,2159,2,0,P|216:45|290:65,1,160,2|0,0:0|0:0,0:0:0:0:
337,129,3320,2,0,B|330:189|330:189|342:203|342:203|335:286,1,160,4|0,0:0|0:0,0:0:0:0:
281,343,4482,2,0,P|247:337|198:349,2,80,2|2|0,0:0|0:0|0:0,0:0:0:0:
359,359,5643,6,0,B|429:320|429:320|438:235,1,160,4|0,0:0|0:0,0:0:0:0:
398,170,6804,2,0,B|321:159|321:213|244:204,1,160,2|0,0:0|0:0,0:0:0:0:
201,135,7966,2,0,P|164:202|199:270,1,160,4|2,0:0|0:0,0:0:0:0:
279,272,9127,2,0,B|339:280|339:280|366:294|366:294|434:304,1,160,2|2,0:0|0:0,0:0:0:0:
492,249,10288,6,0,P|503:189|425:135,1,160,4|0,0:0|0:0,0:0:0:0:
351,143,11449,2,0,L|186:149,1,160,4|0,0:0|0:0,0:0:0:0:
116,118,12611,2,0,B|96:195|96:195|122:281,1,160,4|0,0:0|0:0,0:0:0:0:
193,303,13772,2,0,L|182:382,2,80,0|0|0,0:0|0:0|0:0,0:0:0:0:
252,249,14933,6,0,P|292:234|407:246,1,160,4|0,0:0|0:0,0:0:0:0:
482,272,16095,2,0,B|506:170|506:170|492:113,1,160,4|0,0:0|0:0,0:0:0:0:
425,73,17256,2,0,B|338:67|338:67|306:93|259:89,1,160,4|0,0:0|0:0,0:0:0:0:
195,61,18417,2,0,P|148:50|109:56,2,80,0|0|8,0:0|0:0|0:0,0:0:0:0:
207,139,19578,6,0,L|199:305,1,160,4|0,0:0|0:0,0:0:0:0:
279,305,20740,2,0,L|286:145,1,160,0|0,0:0|0:0,0:0:0:0:
353,100,21901,2,0,P|418:106|460:191,1,160,0|0,0:0|0:0,0:0:0:0:
464,262,23062,2,0,P|431:331|356:344,1,160,0|0,0:0|0:0,0:0:0:0:
281,316,24224,6,0,B|222:295|222:295|119:313,1,160,4|0,0:0|0:0,0:0:0:0:
47,323,25385,2,0,P|33:285|42:166,1,160,0|0,0:0|0:0,0:0:0:0:
107,123,26546,2,0,P|148:132|235:55,1,160,0|0,0:0|0:0,0:0:0:0:
304,27,27707,2,0,L|392:33,1,80,0|0,0:0|0:0,0:0:0:0:
463,39,28482,1,0,0:0:0:0:
491,113,28869,6,0,L|471:276,1,160,4|0,0:0|0:0,0:0:0:0:
393,252,30030,2,0,P|348:231|242:278,1,160,0|0,0:0|0:0,0:0:0:0:
190,320,31191,2,0,B|125:363|125:363|41:363,1,160,0|0,0:0|0:0,0:0:0:0:
2,293,32353,2,0,P|2:190|37:133,1,160,0|0,0:0|0:0,0:0:0:0:
100,107,33514,6,0,B|162:98|162:98|203:76|203:76|266:69,1,160,4|0,0:0|0:0,0:0:0:0:
332,72,34675,2,0,P|357:111|334:229,1,160,0|0,0:0|0:0,0:0:0:0:
262,227,35836,2,0,L|96:215,1,160,0|0,0:0|0:0,0:0:0:0:
42,269,36998,2,0,P|25:313|36:358,2,80,0|8|0,0:0|0:0|0:0,0:0:0:0:
104,318,38159,6,0,P|186:305|259:341,1,160,4|2,0:2|0:0,0:0:0:0:
333,346,39320,2,0,L|323:184,1,160,4|2,0:0|0:0,0:0:0:0:
382,132,40482,2,0,P|334:106|243:166,1,160,4|2,0:0|0:0,0:0:0:0:
199,215,41643,2,0,P|138:244|59:188,1,160,4|2,0:0|0:0,0:0:0:0:
51,121,42804,6,0,B|97:56|97:56|190:41,1,160,4|0,0:0|0:0,0:0:0:0:
247,81,43966,2,0,P|300:92|392:38,1,160,0|0,0:0|0:0,0:0:0:0:
468,43,45127,2,0,L|453:219,1,160,4|0,0:0|0:0,0:0:0:0:
439,281,46288,2,0,P|383:311|360:310,1,80,0|0,0:0|0:0,0:0:0:0:
376,231,47062,1,0,0:0:0:0:
310,185,47449,6,0,P|264:173|167:245,1,160,4|2,0:0|0:0,0:0:0:0:
175,308,48611,2,0,P|234:358|311:351,1,160,4|2,0:0|0:0,0:0:0:0:
387,325,49772,2,0,B|427:312|467:323|467:323|456:278|491:235,1,160,4|2,0:0|0:0,0:0:0:0:
508,172,50933,2,0,P|511:116|419:72,1,160,4|2,0:0|0:0,0:0:0:0:
350,82,52095,6,0,B|320:90|281:55|281:55|201:99,1,160,4|0,0:0|0:0,0:0:0:0:
146,145,53256,2,0,P|78:185|0:175,1,160,0|0,0:0|0:0,0:0:0:0:
12,96,54417,2,0,L|21:14,2,80,4|0|0,0:0|0:0|0:0,0:0:0:0:
0,174,55578,1,0,0:0:0:0:
403,311,57901,6,0,P|426:277|392:162,1,160,4|0,0:0|0:0,0:0:0:0:
324,143,59062,2,0,B|264:136|264:136|234:117|234:117|159:109,1,160,2|0,0:0|0:0,0:0:0:0:
90,100,60224,2,0,B|69:168|69:168|92:261,1,160,4|0,0:0|0:0,0:0:0:0:
152,304,61385,2,0,P|212:307|242:299,1,80,2|2,0:0|0:0,0:0:0:0:
309,286,62159,1,8,0:0:0:0:
291,208,62546,6,0,P|296:145|383:118,1,160,4|0,0:0|0:0,0:0:0:0:
456,134,63707,2,0,L|446:299,1,160,2|0,0:0|0:0,0:0:0:0:
379,337,64869,1,4,0:0:0:0:
299,329,65256,2,0,P|254:326|205:341,1,80,0|0,0:0|0:0,0:0:0:0:
141,344,66030,2,0,P|87:339|55:320,2,80,0|2|8,1:0|0:0|0:0,0:0:0:0:
173,270,67191,6,0,L|161:100,1,160,4|0,0:0|0:0,0:0:0:0:
211,47,68353,2,0,B|295:58|295:58|311:96|359:109,1,160,2|0,0:0|0:0,0:0:0:0:
370,29,69514,2,0,P|410:54|401:167,1,160,4|0,0:0|0:0,0:0:0:0:
369,225,70675,2,0,L|363:308,1,80,2|2,0:0|0:0,0:0:0:0:
303,357,71449,1,10,0:0:0:0:
223,346,71836,6,0,P|165:343|117:255,1,160,4|0,0:0|0:0,0:0:0:0:
91,185,72997,2,0,P|149:188|197:276,1,160,2|0,0:0|0:0,0:0:0:0:
277,260,74159,2,0,B|386:247|386:247|436:204,1,160,4|0,0:0|0:0,0:0:0:0:
405,136,75320,2,0,B|296:149|296:149|246:192,1,160,2|10,0:0|0:0,0:0:0:0:
177,182,76482,6,0,L|92:169,2,80,6|8|2,0:0|0:0|0:0,0:0:0:0:
217,251,77643,2,0,L|302:264,2,80,2|8|10,0:0|0:0|0:0,0:0:0:0:
175,182,78804,6,0,P|174:124|182:102,1,80,2|0,0:0|0:0,0:0:0:0:
241,50,79578,1,2,0:0:0:0:
296,107,79966,2,0,P|298:162|285:194,1,80,2|8,0:0|0:0,0:0:0:0:
232,241,80740,1,8,0:0:0:0:
169,290,81127,6,0,L|175:371,2,80,2|8|2,0:0|0:0|0:0,0:0:0:0:
158,210,82288,2,0,L|152:129,2,80,2|8|10,0:0|0:0|0:0,0:0:0:0:
232,241,83449,5,2,0:0:0:0:
311,247,83836,1,10,0:0:0:0:
382,212,84224,1,2,0:0:0:0:
404,135,84611,5,2,0:0:0:0:
256,192,84998,12,0,88095,0:0:0:0:
