osu file format v14

[General]
AudioFilename: audio.mp3
AudioLeadIn: 1002
PreviewTime: 57659
Countdown: 0
SampleSet: Soft
StackLeniency: 0.4
Mode: 0
LetterboxInBreaks: 0
WidescreenStoryboard: 1

[Editor]
DistanceSpacing: 0.9
BeatDivisor: 4
GridSize: 8
TimelineZoom: 2.5

[Metadata]
Title:syncretism (TV Size)
TitleUnicode:syncretism (TV Size)
Artist:Annabel
ArtistUnicode:Annabel
Creator:Ascended
Version:prototype
Source:Hybrid Child
Tags:ova bl yaoi boys' love 少年愛 shounen shonen ai homosexual gay theme anime animation female vocals japanese jp folk pop jpop j-pop -ascended- -_ascended_- Chompy Kyouren gokugohan12468 KittyAdventure Shinkuretizumu riya 拓植敏道 syncratism syncrotism
BeatmapID:4073963
BeatmapSetID:1964744

[Difficulty]
HPDrainRate:7
CircleSize:4
OverallDifficulty:8
ApproachRate:8
SliderMultiplier:1.55
SliderTickRate:1

[Events]
//Background and Video events
0,0,"gay anime agian.jpg",0,0
//Break Periods
//Storyboard Layer 0 (Background)
//Storyboard Layer 1 (Fail)
//Storyboard Layer 2 (Pass)
//Storyboard Layer 3 (Foreground)
//Storyboard Layer 4 (Overlay)
//Storyboard Sound Samples

[TimingPoints]
998,387.096774193548,3,2,0,60,1,0

[Colours]
Combo1 : 239,190,188
Combo2 : 255,185,220

[HitObjects]
0,0,997,5,2,0:0:0:0:
11,11,1578,1,2,0:0:0:0:
96,37,2159,5,2,0:0:0:0:
89,61,2417,1,2,0:0:0:0:
109,74,2739,1,2,0:0:0:0:
256,192,3320,5,2,0:0:0:0:
190,129,3707,5,0,0:0:0:0:
170,138,3901,1,2,0:0:0:0:
256,192,4288,5,0,0:0:0:0:
314,270,4481,5,2,0:0:0:0:
314,292,4675,1,0,0:0:0:0:
355,255,4868,1,2,0:0:0:0:
419,328,5256,5,2,0:0:0:0:
512,384,5643,5,2,0:0:0:0:
438,319,6030,5,0,0:0:0:0:
425,338,6223,1,2,0:0:0:0:
437,335,6610,1,0,0:0:0:0:
335,245,6804,5,2,0:0:0:0:
328,269,7062,1,2,0:0:0:0:
348,282,7385,1,2,0:0:0:0:
257,185,7772,5,0,0:0:0:0:
262,202,7965,1,0,0:0:0:0:
184,143,8352,5,2,0:0:0:0:
175,123,8546,1,0,0:0:0:0:
158,141,8739,1,2,0:0:0:0:
202,109,8933,1,0,0:0:0:0:
105,55,9127,5,2,0:0:0:0:
86,77,9514,1,2,0:0:0:0:
88,53,9901,1,2,0:0:0:0:
0,0,10288,6,0,B|-30:78|-1:155|-1:155,1,155,2|2,1:2|0:0,0:0:0:0:
0,152,10868,1,0,0:0:0:0:
87,134,11062,1,0,0:0:0:0:
59,214,11256,1,0,0:0:0:0:
127,268,11449,6,0,B|218:245|248:340|248:340,1,155,2|2,1:2|0:0,0:0:0:0:
325,308,12030,1,0,0:0:0:0:
383,369,12223,1,0,0:0:0:0:
267,223,12610,6,0,B|363:186|325:88|325:88,1,155,2|2,1:2|0:0,0:0:0:0:
327,97,13191,1,0,0:0:0:0:
420,129,13578,1,2,0:0:0:0:
459,53,13772,1,0,3:0:0:0:
459,53,14159,1,0,0:0:0:0:
459,53,14546,1,0,0:0:0:0:
241,143,14933,6,0,B|181:127|123:138|123:138,1,116.25,2|0,1:2|0:0,0:0:0:0:
113,125,15320,2,0,L|107:81,1,38.75,2|0,1:2|0:0,0:0:0:0:
196,45,15707,1,0,0:0:0:0:
196,45,15901,1,0,0:0:0:0:
162,223,16094,6,0,B|102:207|44:218|44:218,1,116.25,2|0,1:2|0:0,0:0:0:0:
34,205,16481,2,0,L|28:161,1,38.75,2|0,1:2|0:0,0:0:0:0:
98,303,16868,1,0,0:0:0:0:
98,303,17062,1,0,0:0:0:0:
240,289,17256,6,0,B|299:304|357:293|357:293,1,116.25,2|0,1:2|0:0,0:0:0:0:
368,307,17643,2,0,L|374:351,1,38.75,2|0,1:2|0:0,0:0:0:0:
298,382,17836,1,0,0:0:0:0:
298,382,18030,1,0,0:0:0:0:
192,169,18417,6,0,L|196:207,3,38.75,0|0|0|0,3:0|0:0|0:0|0:0,0:0:0:0:
205,216,18804,2,2,B|220:157|209:99|209:99,1,116.25,2|0,3:2|0:0,0:0:0:0:
205,81,19191,1,8,0:0:0:0:
113,58,19385,1,0,1:0:0:0:
271,18,19578,5,6,1:2:0:0:
413,156,20159,1,2,3:2:0:0:
496,116,20352,1,0,0:0:0:0:
421,165,20546,1,0,3:2:0:0:
471,26,20739,6,0,B|376:5|347:99|347:99,1,155,2|0,1:2|1:0,0:0:0:0:
275,146,21320,2,0,B|268:189|277:230|277:230,1,77.5,2|0,0:3|3:0,0:0:0:0:
275,223,21707,1,2,0:3:0:0:
384,359,21901,5,2,1:2:0:0:
180,177,22481,1,2,3:2:0:0:
98,211,22674,1,0,0:0:0:0:
67,131,22868,1,0,3:2:0:0:
147,95,23062,5,2,1:2:0:0:
365,289,23449,1,2,1:2:0:0:
365,289,23546,1,2,0:0:0:0:
365,289,23643,1,2,0:0:0:0:
283,323,23836,1,0,1:0:0:0:
252,243,24030,1,2,0:3:0:0:
327,211,24223,5,2,1:2:0:0:
194,358,24610,1,0,0:0:0:0:
104,341,24804,1,2,3:2:0:0:
186,368,24997,1,0,0:0:0:0:
119,331,25191,1,0,3:2:0:0:
23,379,25385,6,0,B|4:302|20:222|20:222,1,155,2|0,1:2|0:0,0:0:0:0:
19,225,25965,1,2,0:3:0:0:
94,164,26159,2,0,B|129:196|113:241|113:241,1,77.5,0|2,1:0|0:3,0:0:0:0:
0,142,26546,6,0,B|99:154|116:61|116:61,1,155,2|0,1:2|0:0,0:0:0:0:
48,14,27127,1,0,1:0:0:0:
103,78,27320,1,2,0:0:0:0:
191,27,27707,6,0,L|215:23,4,19.375,0|0|0|0|0,1:0|0:0|0:0|0:0|0:0,0:0:0:0:
343,81,28094,1,2,0:0:0:0:
262,98,28288,1,2,0:3:0:0:
184,118,28481,1,2,3:2:0:0:
265,105,28675,1,2,0:3:0:0:
353,93,28868,5,6,1:2:0:0:
308,306,29449,1,2,3:2:0:0:
235,348,29643,2,0,B|193:345|159:331|159:331,1,77.5,0|0,0:0|3:0,0:0:0:0:
307,288,30030,2,0,B|396:259|436:358|436:358,1,155,2|0,1:2|1:0,0:0:0:0:
512,310,30610,2,0,B|509:268|495:234|495:234,1,77.5,2|0,0:3|3:0,0:0:0:0:
495,234,30997,1,2,0:3:0:0:
339,376,31191,5,2,1:2:0:0:
238,198,31772,1,2,3:2:0:0:
364,106,31965,2,0,B|368:103|327:122|289:126,1,77.5,0|0,0:0|3:0,0:0:0:0:
290,126,32352,1,2,1:2:0:0:
416,201,32739,5,2,1:2:0:0:
416,201,32836,1,2,0:0:0:0:
416,201,32933,1,2,0:0:0:0:
467,63,33127,1,0,1:0:0:0:
329,12,33320,1,2,0:3:0:0:
364,106,33514,6,0,B|291:94|272:138|199:123,1,155,2|0,1:2|0:0,0:0:0:0:
211,125,34094,1,2,3:2:0:0:
133,93,34288,2,0,B|125:51|131:12|131:12,1,77.5
137,182,34675,1,2,1:2:0:0:
137,182,35062,5,0,0:0:0:0:
61,238,35256,1,2,0:3:0:0:
52,156,35449,1,0,1:0:0:0:
148,265,35643,1,2,0:3:0:0:
22,363,35836,1,2,1:2:0:0:
231,215,36223,5,0,0:0:0:0:
302,263,36417,2,0,B|391:292|431:193|431:193,1,155,0|0,1:0|1:0,0:0:0:0:
223,304,36997,1,2,1:2:0:0:
223,304,37094,1,2,0:0:0:0:
223,304,37191,1,10,0:0:0:0:
409,377,37385,5,0,1:0:0:0:
389,289,37578,1,0,1:0:0:0:
439,117,37772,5,8,0:0:0:0:
333,176,37965,1,0,1:0:0:0:
486,273,38159,5,4,1:2:0:0:
259,122,38546,6,0,B|264:91|256:44|256:44,1,77.5,2|0,0:0|3:0,0:0:0:0:
207,194,38933,1,0,0:0:0:0:
281,249,39127,1,0,3:0:0:0:
221,308,39320,2,0,B|125:290|101:393|101:393,2,155,0|4|0,1:0|0:0|0:0,0:0:0:0:
221,308,40288,1,0,3:0:0:0:
115,236,40481,5,0,1:0:0:0:
304,364,40868,6,0,B|322:322|314:285|314:285,1,77.5,2|0,0:0|3:0,0:0:0:0:
258,214,41256,1,2,0:0:0:0:
258,214,41449,1,0,3:0:0:0:
323,144,41643,2,0,B|308:32|202:50|202:50,1,155,6|0,0:0|3:0,0:0:0:0:
219,48,42127,1,2,0:0:0:0:
219,48,42223,1,2,0:3:0:0:
168,130,42417,1,0,0:0:0:0:
87,114,42610,1,2,0:3:0:0:
137,47,42804,6,0,B|148:132|140:203|140:203,1,155,6|2,1:2|0:0,0:0:0:0:
59,242,43385,1,2,3:2:0:0:
59,242,43772,1,2,3:2:0:0:
128,290,43965,2,0,B|211:301|178:347|271:368,1,155,0|2,1:0|0:0,0:0:0:0:
337,329,44546,1,2,0:3:0:0:
418,367,44739,2,0,B|426:331|416:290|416:290,1,77.5,0|0,3:0|3:0,0:0:0:0:
247,239,45127,6,0,B|343:257|367:154|367:154,1,155,6|0,1:2|0:0,0:0:0:0:
190,32,45707,2,0,B|169:130|275:152|275:152,1,155,2|2,1:2|1:2,0:0:0:0:
283,56,46288,2,0,L|286:31,4,19.375,2|0|0|0|0,1:2|0:0|0:0|0:0|0:0,0:0:0:0:
360,155,46675,5,2,1:2:0:0:
451,125,46868,1,2,0:0:0:0:
319,247,47062,5,0,1:0:0:0:
309,225,47256,1,0,3:0:0:0:
169,160,47449,6,0,B|67:151|51:256|51:256,1,155,4|2,1:2|0:0,0:0:0:0:
234,372,48030,2,0,B|243:270|138:254|138:254,1,155,0|2,1:0|0:0,0:0:0:0:
92,330,48610,5,0,1:0:0:0:
92,330,48997,2,0,B|49:331|17:344|17:344,1,77.5,2|0,0:0|3:3,0:0:0:0:
151,257,49385,5,0,1:0:0:0:
137,170,49578,1,0,3:3:0:0:
235,304,49772,6,0,B|290:292|339:319|339:319,1,103.333333333333,6|2,1:2|0:0,0:0:0:0:
497,135,50352,1,0,1:0:0:0:
497,135,50739,1,0,1:0:0:0:
413,177,50933,5,4,0:0:0:0:
342,115,51320,2,0,L|346:86,4,19.375,0|0|0|0|0,1:0|0:0|0:0|0:0|0:0,0:0:0:0:
400,177,51707,1,2,0:0:0:0:
321,202,51901,1,2,0:3:0:0:
410,187,52094,6,0,B|433:265|411:353|411:353,1,155,6|2,1:2|0:0,0:0:0:0:
329,377,52675,2,0,B|319:339|336:294|336:294,1,77.5,2|0,3:2|0:0,0:0:0:0:
333,300,53062,1,0,3:0:0:0:
252,142,53256,6,0,B|211:148|171:170|171:170,1,77.5,2|0,1:2|0:0,0:0:0:0:
76,43,53643,2,0,B|96:78|102:117|102:117,1,77.5,2|0,0:0|0:0,0:0:0:0:
134,244,54030,1,2,3:2:0:0:
52,195,54223,1,0,0:0:0:0:
174,162,54417,6,0,B|281:141|286:248|286:248,1,155,6|0,1:2|0:0,0:0:0:0:
285,239,54997,1,2,0:3:0:0:
265,383,55191,1,0,3:0:0:0:
342,333,55385,1,0,3:3:0:0:
209,306,55578,6,0,L|180:313,4,19.375,2|0|0|0|0,1:2|0:0|0:0|0:0|0:0,0:0:0:0:
173,323,55868,1,0,0:0:0:0:
153,328,55965,1,0,0:0:0:0:
356,58,57707,6,0,L|406:46,1,38.75
356,58,57901,6,0,B|384:128|367:213|367:213,1,155,4|0,1:1|0:0,0:0:0:0:
272,75,58481,2,0,B|260:35|284:1|284:1,1,77.5,8|0,0:0|0:0,0:0:0:0:
284,0,58868,1,0,1:0:0:0:
214,140,59062,5,4,1:2:0:0:
65,89,59256,2,0,B|101:83|141:102|141:102,1,77.5
108,267,59643,5,8,0:0:0:0:
21,247,59836,1,0,1:1:0:0:
91,182,60030,1,0,1:0:0:0:
91,182,60127,1,0,1:0:0:0:
91,182,60223,2,0,B|154:172|155:241|250:224,1,155,4|0,1:2|0:0,0:0:0:0:
234,226,60804,1,8,0:0:0:0:
313,262,61191,1,0,1:0:0:0:
251,384,61385,5,4,1:2:0:0:
226,308,61578,1,0,0:0:0:0:
398,229,61772,5,4,1:2:0:0:
383,322,61965,1,0,0:0:0:0:
308,176,62159,5,2,1:2:0:0:
308,176,62546,6,0,B|329:75|429:97|429:97,1,155,4|0,1:2|0:0,0:0:0:0:
374,20,63127,2,0,B|375:19|339:19|297:8,1,77.5,8|0,0:0|0:0,0:0:0:0:
297,8,63514,1,0,1:0:0:0:
399,176,63707,5,4,1:2:0:0:
502,65,63901,2,0,B|498:54|524:107|493:142|493:142,1,77.5
330,243,64288,2,0,B|295:216|302:168|302:168,1,77.5,8|0,0:0|0:0,0:0:0:0:
347,106,64675,1,0,1:0:0:0:
347,106,64772,1,0,1:0:0:0:
347,106,64868,1,4,1:2:0:0:
347,106,65256,5,0,1:0:0:0:
301,174,65449,1,8,0:0:0:0:
219,138,65643,1,0,1:0:0:0:
266,73,65836,1,8,0:0:0:0:
87,127,66030,5,4,1:2:0:0:
132,108,66223,1,0,0:0:0:0:
116,286,66417,5,4,1:2:0:0:
147,196,66610,1,0,1:0:0:0:
88,0,66804,5,12,0:2:0:0:
181,41,66997,1,0,1:0:0:0:
0,126,67191,5,4,1:2:0:0:
233,344,67772,2,0,B|238:301|213:266|213:266,1,77.5,8|0,0:0|0:0,0:0:0:0:
215,269,68159,1,0,1:0:0:0:
46,255,68352,5,4,1:2:0:0:
142,364,68546,2,0,B|103:364|66:337|66:337,1,77.5,0|0,0:0|1:0,0:0:0:0:
241,190,68933,6,0,B|245:179|224:281|124:271,1,155,8|0,0:0|1:0,0:0:0:0:
126,271,69417,1,2,0:0:0:0:
126,271,69514,1,4,1:2:0:0:
281,104,69707,6,0,B|380:101|388:206|388:206,1,155,2|8,0:0|0:0,0:0:0:0:
482,46,70288,2,0,B|442:40|399:64|399:64,1,77.5,0|0,1:0|0:0,0:0:0:0:
477,229,70675,5,4,1:2:0:0:
477,229,71062,5,4,1:2:0:0:
460,139,71256,1,0,0:0:0:0:
295,189,71449,5,4,1:2:0:0:
290,286,71643,1,0,0:0:0:0:
147,322,71836,6,0,B|37:314|50:212|50:212,1,155,4|0,1:2|1:0,0:0:0:0:
49,223,72417,1,8,0:0:0:0:
168,151,72610,2,0,B|180:196|167:242|167:242,1,77.5,0|0,1:0|0:0,0:0:0:0:
66,103,72997,5,4,1:2:0:0:
276,166,73288,1,2,0:3:0:0:
215,380,73578,1,8,0:0:0:0:
304,360,73772,2,0,B|342:355|383:362|383:362,1,77.5,0|0,1:0|0:0,0:0:0:0:
381,361,74062,1,2,0:0:0:0:
381,361,74159,6,0,B|466:350|419:303|520:287,1,155,4|0,1:2|0:0,0:0:0:0:
365,261,74739,2,0,B|339:194|362:109,1,155,8|0,0:0|1:0,0:0:0:0:
432,49,75320,2,0,B|456:83|450:126|450:126,1,77.5,4|0,0:0|0:0,0:0:0:0:
450,122,75707,1,0,1:0:0:0:
311,189,75901,5,8,0:0:0:0:
210,162,76094,1,0,1:0:0:0:
199,65,76288,1,0,1:0:0:0:
279,6,76481,6,0,L|286:45,1,38.75,0|0,1:0|0:0,0:0:0:0:
116,108,76675,2,0,L|123:147,1,38.75,0|0,1:0|0:0,0:0:0:0:
140,228,76868,1,8,0:0:0:0:
140,228,77062,6,0,L|133:267,1,38.75,0|0,1:0|0:0,0:0:0:0:
54,308,77256,2,0,L|47:347,1,38.75,0|0,1:0|0:0,0:0:0:0:
47,346,77643,6,0,L|86:339,1,38.75,0|0,1:0|0:0,0:0:0:0:
222,272,77836,2,0,L|261:265,1,38.75,0|0,1:0|0:0,0:0:0:0:
354,292,78030,1,8,0:0:0:0:
283,362,78223,5,0,1:0:0:0:
283,362,78320,1,0,1:0:0:0:
283,362,78417,1,8,0:0:0:0:
338,205,78610,1,0,1:0:0:0:
432,253,78804,5,0,1:0:0:0:
432,253,78997,2,0,B|452:290|439:333|439:333,1,77.5,0|8,1:0|0:0,0:0:0:0:
261,164,79385,5,0,1:0:0:0:
261,164,79578,2,0,B|259:120|269:88|269:88,1,77.5,0|0,1:0|0:0,0:0:0:0:
334,34,79965,5,8,0:0:0:0:
192,86,80159,1,0,1:0:0:0:
192,86,80256,1,0,1:0:0:0:
192,86,80352,1,8,0:0:0:0:
247,9,80546,1,0,1:0:0:0:
342,128,80739,1,8,0:0:0:0:
235,160,80933,5,0,1:0:0:0:
206,166,81030,1,0,1:0:0:0:
179,173,81127,2,0,L|133:183,1,38.75,0|0,1:0|0:0,0:0:0:0:
106,24,81320,2,0,L|60:34,1,38.75,0|0,1:0|0:0,0:0:0:0:
0,107,81514,1,8,0:0:0:0:
0,107,81707,6,0,L|37:115,1,38.75,0|0,1:0|0:0,0:0:0:0:
62,241,81900,2,0,L|99:249,1,38.75,0|0,1:0|0:0,0:0:0:0:
99,249,82288,6,0,L|106:288,1,38.75,0|0,1:0|0:0,0:0:0:0:
258,362,82481,2,0,L|265:323,1,38.75,0|0,1:0|0:0,0:0:0:0:
47,357,82675,1,8,0:0:0:0:
191,262,82868,5,0,1:0:0:0:
191,262,82965,1,0,1:0:0:0:
191,262,83062,1,8,0:0:0:0:
350,354,83255,1,0,1:0:0:0:
376,272,83449,5,0,1:0:0:0:
376,272,83643,2,0,B|386:235|375:189|375:189,1,77.5,0|8,1:0|0:0,0:0:0:0:
175,114,84030,5,0,1:0:0:0:
275,155,84223,1,8,0:0:0:0:
357,79,84417,1,0,1:0:0:0:
256,0,84610,5,4,1:0:0:0:
