osu file format v14

[General]
AudioFilename: audio.mp3
AudioLeadIn: 1002
PreviewTime: 57659
Countdown: 0
SampleSet: Soft
StackLeniency: 0.4
Mode: 0
LetterboxInBreaks: 0
WidescreenStoryboard: 1

[Editor]
DistanceSpacing: 0.9
BeatDivisor: 8
GridSize: 4
TimelineZoom: 2.5

[Metadata]
Title:syncretism (TV Size)
TitleUnicode:syncretism (TV Size)
Artist:Annabel
ArtistUnicode:Annabel
Creator:Ascended
Version:hybrid normal
Source:Hybrid Child
Tags:ova bl yaoi boys' love 少年愛 shounen shonen ai homosexual gay theme anime animation female vocals japanese jp folk pop jpop j-pop -ascended- -_ascended_- Chompy Kyouren gokugohan12468 KittyAdventure Shinkuretizumu riya 拓植敏道 syncratism syncrotism
BeatmapID:4074085
BeatmapSetID:1964744

[Difficulty]
HPDrainRate:4
CircleSize:3.5
OverallDifficulty:4
ApproachRate:5
SliderMultiplier:1.15
SliderTickRate:1

[Events]
//Background and Video events
0,0,"gay anime agian.jpg",0,0
//Break Periods
//Storyboard Layer 0 (Background)
//Storyboard Layer 1 (Fail)
//Storyboard Layer 2 (Pass)
//Storyboard Layer 3 (Foreground)
//Storyboard Layer 4 (Overlay)
//Storyboard Sound Samples

[TimingPoints]
998,387.096774193548,3,2,0,60,1,0

[Colours]
Combo1 : 239,190,188
Combo2 : 255,185,220

[HitObjects]
408,357,10288,6,0,B|485:356|485:286|485:286,1,115,2|2,1:2|0:0,0:0:0:0:
466,246,10868,1,0,0:0:0:0:
466,246,11062,1,0,0:0:0:0:
363,263,11449,2,0,B|308:242|246:245|246:245,1,115,2|2,1:2|0:0,0:0:0:0:
204,269,12030,2,0,B|197:304|199:328|199:328,1,57.5
107,374,12610,6,0,B|36:377|29:303|29:303,1,115,2|2,1:2|0:0,0:0:0:0:
58,262,13190,1,0,0:0:0:0:
21,164,13578,1,2,0:0:0:0:
21,164,13772,2,0,B|13:106|19:49|19:49,1,115,0|0,3:0|0:0,0:0:0:0:
111,2,14546,1,0,0:0:0:0:
170,87,14933,6,0,B|243:62|226:-3|226:-3,2,115,2|2|0,1:2|1:2|0:0,0:0:0:0:
178,138,15901,1,0,0:0:0:0:
178,138,16094,2,0,B|117:145|60:162|60:162,2,115,2|2|0,1:2|1:2|0:0,0:0:0:0:
274,176,17256,2,0,B|281:237|298:294|298:294,2,115,2|2|0,1:2|1:2|0:0,0:0:0:0:
297,132,18223,1,0,0:0:0:0:
297,132,18417,1,0,3:0:0:0:
327,33,18804,2,2,B|355:41|385:43|385:43,1,57.5,2|0,3:2|0:0,0:0:0:0:
440,67,19191,5,8,0:0:0:0:
440,67,19385,1,0,1:0:0:0:
440,67,19578,1,6,1:2:0:0:
459,225,20159,1,2,3:2:0:0:
459,225,20352,2,0,B|424:229|399:235|399:235,1,57.5,0|0,0:0|3:2,0:0:0:0:
358,261,20739,2,0,B|350:321|361:378|361:378,2,115,2|0|0,1:2|1:0|3:0,0:0:0:0:
332,221,21707,5,2,0:3:0:0:
332,221,21901,1,2,1:2:0:0:
208,313,22481,1,2,3:2:0:0:
208,313,22675,2,0,B|173:309|148:303|148:303,1,57.5,0|0,0:0|3:2,0:0:0:0:
107,331,23062,1,2,1:2:0:0:
41,258,23449,1,2,1:2:0:0:
41,258,23643,2,0,B|45:223|51:198|51:198,1,57.5,2|0,0:0|1:0,0:0:0:0:
96,175,24029,5,2,0:3:0:0:
96,175,24223,1,2,1:2:0:0:
53,30,24804,1,2,3:2:0:0:
53,30,24997,1,0,0:0:0:0:
153,3,25385,2,0,B|236:17|224:89|224:89,1,115,2|0,1:2|0:0,0:0:0:0:
257,119,25965,1,2,0:3:0:0:
257,119,26159,2,0,B|286:119|317:108|317:108,1,57.5,0|2,1:0|0:3,0:0:0:0:
362,127,26546,6,0,B|376:68|362:10|362:10,2,115,2|0|2,1:2|0:0|0:0,0:0:0:0:
311,217,27707,1,0,1:0:0:0:
368,302,28094,2,0,B|397:302|428:313|428:313,1,57.5,2|2,0:0|0:3,0:0:0:0:
470,288,28481,2,0,B|470:259|481:228|481:228,1,57.5,2|2,3:2|0:3,0:0:0:0:
449,189,28868,5,6,1:2:0:0:
476,39,29449,1,2,3:2:0:0:
476,39,29643,2,0,B|447:39|416:28|416:28,1,57.5,0|0,0:0|3:0,0:0:0:0:
382,0,30030,2,0,B|300:12|311:86|311:86,1,115,2|0,1:2|1:0,0:0:0:0:
274,113,30610,1,2,0:3:0:0:
173,88,30997,5,2,0:3:0:0:
173,88,31191,2,0,B|169:147|175:205|175:205,1,115,2|0,1:2|0:0,0:0:0:0:
214,244,31772,1,2,3:2:0:0:
214,244,31965,1,0,0:0:0:0:
161,333,32352,2,0,B|83:356|66:276|66:276,1,115,2|2,1:2|1:2,0:0:0:0:
28,265,32933,1,2,0:0:0:0:
28,265,33127,2,0,B|28:236|17:205|17:205,1,57.5,0|2,1:0|0:3,0:0:0:0:
35,159,33514,5,2,1:2:0:0:
74,9,34094,1,2,3:2:0:0:
74,9,34288,2,0,B|102:21|141:25|141:25,1,57.5
180,14,34675,1,2,1:2:0:0:
264,74,35062,1,0,0:0:0:0:
232,172,35449,1,0,1:0:0:0:
294,254,35836,6,0,B|341:320|403:267|403:267,1,115,2|0,1:2|0:0,0:0:0:0:
438,245,36417,1,0,1:0:0:0:
487,155,36804,1,0,1:0:0:0:
487,155,36998,2,0,B|487:126|498:95|498:95,1,57.5,2|10,1:2|0:0,0:0:0:0:
473,53,37385,2,0,B|444:53|413:42|413:42,1,57.5,0|0,1:0|1:0,0:0:0:0:
374,37,37772,5,8,0:0:0:0:
374,37,37965,1,0,1:0:0:0:
374,37,38159,1,4,1:2:0:0:
300,110,38546,2,0,B|268:122|233:121|233:121,2,57.5,2|0|0,0:0|3:0|0:0,0:0:0:0:
331,158,39127,1,0,3:0:0:0:
331,158,39320,2,0,B|320:220|322:282|322:282,1,115,0|4,1:0|0:0,0:0:0:0:
252,348,40094,2,0,B|220:336|185:337|185:337,1,57.5,0|0,0:0|3:0,0:0:0:0:
146,354,40481,5,0,1:0:0:0:
64,291,40868,2,0,B|32:303|-3:302|-3:302,2,57.5,2|0|2,0:0|3:0|0:0,0:0:0:0:
101,255,41449,1,0,3:0:0:0:
101,255,41642,2,0,B|90:194|92:131|92:131,1,115,6|0,0:0|3:0,0:0:0:0:
70,48,42417,1,0,3:0:0:0:
70,48,42610,1,2,0:3:0:0:
70,48,42804,6,0,B|142:22|169:84|169:84,1,115,6|2,1:2|0:0,0:0:0:0:
212,109,43385,2,0,B|268:111|329:91|329:91,1,115,2|2,3:2|3:2,0:0:0:0:
374,75,43965,1,0,1:0:0:0:
448,146,44352,2,0,B|481:230|394:253|394:253,1,115,2|0,0:0|3:0,0:0:0:0:
347,323,45127,2,0,B|314:331|280:318|296:310|267:297|233:306|233:306,1,115,6|0,1:2|0:0,0:0:0:0:
190,280,45707,2,0,B|176:199|257:191|257:191,1,115,2|2,1:2|1:2,0:0:0:0:
280,155,46288,2,0,B|294:94|289:31|289:31,2,115,2|2|0,1:2|1:2|1:0,0:0:0:0:
188,106,47449,5,4,1:2:0:0:
91,84,47836,1,2,0:0:0:0:
91,84,48030,1,0,1:0:0:0:
20,160,48417,1,2,0:0:0:0:
20,160,48610,2,0,B|3:223|11:284|11:284,1,115,0|2,1:0|0:0,0:0:0:0:
15,329,49191,1,0,3:3:0:0:
15,329,49385,1,0,1:0:0:0:
111,366,49772,6,0,B|150:376|209:381|209:381,2,86.25,6|2|0,1:2|0:3|1:0,0:0:0:0:
113,266,50739,1,0,1:0:0:0:
113,266,50933,2,0,B|138:179|221:214|221:214,1,115,4|0,0:0|1:0,0:0:0:0:
308,195,51707,1,2,0:0:0:0:
308,195,51901,1,2,0:3:0:0:
308,195,52094,6,0,B|353:271|424:216|424:216,1,115,6|2,1:2|0:0,0:0:0:0:
449,198,52675,2,0,B|460:139|462:74|462:74,1,115,2|0,3:2|3:0,0:0:0:0:
463,32,53256,1,2,1:2:0:0:
364,0,53643,1,2,0:0:0:0:
268,40,54030,1,2,3:2:0:0:
232,137,54417,2,0,B|202:135|170:128|170:128,1,57.5,6|0,1:2|0:0,0:0:0:0:
135,162,54804,2,0,B|70:144|12:142|12:142,1,115,2|0,0:0|3:0,0:0:0:0:
8,98,55385,5,0,3:3:0:0:
8,98,55578,1,2,1:2:0:0:
256,192,55675,12,4,57901,1:1:0:0:
253,250,58481,6,0,B|251:183|260:129|260:129,1,115,8|0,0:0|1:0,0:0:0:0:
287,92,59062,2,0,B|293:66|290:35|290:35,2,57.5,4|0|0,1:2|0:0|0:0,0:0:0:0:
336,110,59643,2,0,B|413:63|450:145|450:145,1,115,8|0,0:0|1:0,0:0:0:0:
455,174,60223,2,0,B|488:169|517:169|517:169,2,57.5,4|0|0,1:2|0:0|0:0,0:0:0:0:
436,222,60804,1,8,0:0:0:0:
397,320,61191,5,0,1:0:0:0:
397,320,61385,1,4,1:2:0:0:
296,295,61772,1,4,1:2:0:0:
209,351,62159,1,2,1:2:0:0:
107,371,62546,6,0,B|25:368|34:287|34:287,1,115,4|0,1:2|0:0,0:0:0:0:
74,266,63127,2,0,B|70:203|81:145|81:145,1,115,8|0,0:0|1:0,0:0:0:0:
58,104,63707,2,0,B|31:102|-4:99|-4:99,2,57.5,4|0|0,1:2|0:0|0:0,0:0:0:0:
96,69,64288,2,0,B|111:-11|189:10|189:10,1,115,8|0,0:0|1:0,0:0:0:0:
225,29,64868,1,4,1:2:0:0:
315,78,65256,6,0,B|343:72|377:73|377:73,2,57.5,0|8|0,1:0|0:0|1:0,0:0:0:0:
281,117,65836,1,8,0:0:0:0:
281,117,66030,2,0,B|219:117|165:135|165:135,2,115,4|4|12,1:2|1:2|0:2,0:0:0:0:
373,163,67191,6,0,B|446:198|405:268|405:268,1,115,4|0,1:2|0:0,0:0:0:0:
384,303,67772,2,0,B|330:294|269:293|269:293,1,115,8|0,0:0|1:0,0:0:0:0:
221,312,68352,2,0,B|223:343|216:374|216:374,2,57.5,4|0|0,1:2|0:0|1:0,0:0:0:0:
188,271,68933,2,0,B|198:208|200:150|200:150,1,115,8|0,0:0|1:0,0:0:0:0:
211,109,69514,1,4,1:2:0:0:
211,109,69707,1,2,0:0:0:0:
139,34,70094,6,0,B|112:32|77:29|77:29,2,57.5,8|0|0,0:0|1:0|0:0,0:0:0:0:
185,11,70675,1,4,1:2:0:0:
284,37,71062,1,4,1:2:0:0:
333,127,71449,1,4,1:2:0:0:
320,229,71836,6,0,B|353:237|387:224|371:216|400:203|434:212|434:212,1,115,4|0,1:2|1:0,0:0:0:0:
478,191,72417,2,0,B|476:160|483:129|483:129,2,57.5,8|0|0,0:0|1:0|0:0,0:0:0:0:
511,232,72998,2,0,B|501:295|499:353|499:353,1,115,4|0,1:2|0:0,0:0:0:0:
458,376,73578,1,8,0:0:0:0:
458,376,73772,1,0,1:0:0:0:
370,321,74159,6,0,B|341:322|308:327|308:327,1,57.5,4|0,1:2|0:0,0:0:0:0:
274,360,74546,1,0,0:0:0:0:
274,360,74739,2,0,B|245:364|212:367|212:367,1,57.5,8|0,0:0|0:0,0:0:0:0:
168,347,75127,1,0,1:0:0:0:
168,347,75320,2,0,B|175:284|180:226|180:226,1,115,4|0,0:0|1:0,0:0:0:0:
152,187,75901,2,0,B|122:189|90:193|90:193,2,57.5,8|0|0,0:0|1:0|1:0,0:0:0:0:
178,144,76481,5,0,1:0:0:0:
178,144,76675,1,0,1:0:0:0:
249,69,77062,5,0,1:0:0:0:
249,69,77256,1,0,1:0:0:0:
359,84,77643,5,0,1:0:0:0:
359,84,77837,1,0,1:0:0:0:
359,84,78030,2,0,B|386:82|421:79|421:79,2,57.5,8|0|8,0:0|1:0|0:0,0:0:0:0:
338,133,78610,5,0,1:0:0:0:
338,133,78804,2,0,B|330:197|326:254|326:254,1,115,0|8,1:0|0:0,0:0:0:0:
317,304,79385,1,0,1:0:0:0:
206,294,79772,1,0,0:0:0:0:
206,294,79965,2,0,B|145:283|82:282|82:282,1,115,8|8,0:0|0:0,0:0:0:0:
37,301,80546,2,0,B|35:331|31:363|31:363,2,57.5,0|8|0,1:0|0:0|1:0,0:0:0:0:
11,255,81127,5,0,1:0:0:0:
11,255,81320,1,0,1:0:0:0:
86,168,81707,5,0,1:0:0:0:
86,168,81900,1,0,1:0:0:0:
60,65,82288,5,0,1:0:0:0:
60,65,82482,1,0,1:0:0:0:
60,65,82675,2,0,B|30:60|-2:60|-2:60,2,57.5,8|0|8,0:0|1:0|0:0,0:0:0:0:
111,36,83256,5,0,1:0:0:0:
111,36,83450,2,0,B|175:42|232:45|232:45,1,115,0|8,1:0|0:0,0:0:0:0:
282,53,84031,1,0,1:0:0:0:
351,151,84417,1,0,1:0:0:0:
351,151,84610,1,4,1:0:0:0:
256,192,84707,12,0,88094,0:0:0:0:
