osu file format v14

[General]
AudioFilename: audio.mp3
AudioLeadIn: 1002
PreviewTime: 57659
Countdown: 0
SampleSet: Soft
StackLeniency: 0.4
Mode: 0
LetterboxInBreaks: 0
WidescreenStoryboard: 1

[Editor]
DistanceSpacing: 0.9
BeatDivisor: 4
GridSize: 8
TimelineZoom: 2.5

[Metadata]
Title:syncretism (TV Size)
TitleUnicode:syncretism (TV Size)
Artist:Annabel
ArtistUnicode:Annabel
Creator:Ascended
Version:hard
Source:Hybrid Child
Tags:ova bl yaoi boys' love 少年愛 shounen shonen ai homosexual gay theme anime animation female vocals japanese jp folk pop jpop j-pop -ascended- -_ascended_- Chompy Kyouren gokugohan12468 KittyAdventure Shinkuretizumu riya 拓植敏道 syncratism syncrotism
BeatmapID:4074084
BeatmapSetID:1964744

[Difficulty]
HPDrainRate:6
CircleSize:3.7
OverallDifficulty:6
ApproachRate:6.5
SliderMultiplier:1.4
SliderTickRate:1

[Events]
//Background and Video events
0,0,"gay anime agian.jpg",0,0
//Break Periods
//Storyboard Layer 0 (Background)
//Storyboard Layer 1 (Fail)
//Storyboard Layer 2 (Pass)
//Storyboard Layer 3 (Foreground)
//Storyboard Layer 4 (Overlay)
//Storyboard Sound Samples

[TimingPoints]
998,387.096774193548,3,2,0,60,1,0

[Colours]
Combo1 : 239,190,188
Combo2 : 255,185,220

[HitObjects]
456,322,10288,6,0,B|373:336|410:372|329:385,1,140,2|2,1:2|0:0,0:0:0:0:
255,349,10868,1,0,0:0:0:0:
255,349,11062,2,0,B|250:314|255:280|255:280,1,70
284,195,11449,2,0,B|194:172|167:258|167:258,1,140,2|2,1:2|0:0,0:0:0:0:
167,345,12030,1,0,0:0:0:0:
167,345,12223,1,0,0:0:0:0:
6,256,12610,6,0,B|15:183|6:118|6:118,1,140,2|2,1:2|0:0,0:0:0:0:
59,41,13191,1,0,0:0:0:0:
196,133,13578,1,2,0:0:0:0:
196,133,13772,2,0,B|288:93|254:19|254:19,2,140,0|0|0,3:0|0:0|0:0,0:0:0:0:
232,309,14933,6,0,B|270:303|306:306|306:306,1,70,2|0,1:2|0:0,0:0:0:0:
383,377,15320,2,0,B|409:311|386:234|386:234,1,140,2|0,1:2|0:0,0:0:0:0:
229,226,16094,2,0,B|191:220|155:223|155:223,1,70,2|0,1:2|0:0,0:0:0:0:
76,293,16481,2,0,B|50:227|73:150|73:150,1,140,2|0,1:2|0:0,0:0:0:0:
242,135,17256,2,0,B|280:129|316:132|316:132,1,70,2|0,1:2|0:0,0:0:0:0:
393,203,17643,2,0,B|419:137|396:60|396:60,1,140,2|0,1:2|0:0,0:0:0:0:
240,12,18417,6,0,B|166:6|179:49|103:41,1,140,0|2,3:0|3:2,0:0:0:0:
21,10,18997,1,0,0:0:0:0:
42,89,19191,2,0,B|51:126|40:161|40:161,1,70,8|0,0:0|1:0,0:0:0:0:
0,233,19578,5,6,1:2:0:0:
181,372,20159,1,2,3:2:0:0:
181,372,20352,2,0,B|186:333|187:302|187:302,1,70,0|0,0:0|3:2,0:0:0:0:
216,213,20739,2,0,B|127:196|98:274|98:274,2,140,2|0|0,1:2|1:0|3:0,0:0:0:0:
279,289,21707,5,2,0:3:0:0:
279,289,21901,1,2,1:2:0:0:
222,71,22481,1,2,3:2:0:0:
222,71,22675,2,0,B|248:66|292:63|292:63,1,70,0|0,0:0|3:2,0:0:0:0:
366,4,23062,1,2,1:2:0:0:
499,112,23449,2,0,B|473:117|429:120|429:120,1,70,2|2,1:2|0:0,0:0:0:0:
366,187,23836,1,0,1:0:0:0:
366,187,24030,1,2,0:3:0:0:
404,265,24223,6,0,B|494:248|515:337|515:337,1,140,2|0,1:2|0:0,0:0:0:0:
437,384,24804,2,0,B|400:373|362:371|362:371,1,70,2|0,3:2|0:0,0:0:0:0:
256,240,25385,2,0,B|237:171|260:100|260:100,1,140,2|0,1:2|0:0,0:0:0:0:
230,22,25965,1,2,0:3:0:0:
230,22,26159,2,0,B|186:25|167:66|167:66,1,70,0|2,1:0|0:3,0:0:0:0:
85,24,26546,6,0,B|57:104|130:145|130:145,1,140,2|0,1:2|0:0,0:0:0:0:
164,224,27127,1,0,1:0:0:0:
76,210,27320,1,2,0:0:0:0:
14,376,27707,2,0,B|86:383|73:340|147:346,1,140,0|2,1:0|0:0,0:0:0:0:
234,307,28288,1,2,0:3:0:0:
234,307,28481,2,0,B|243:339|237:379|237:379,1,70,2|2,3:2|0:3,0:0:0:0:
331,333,28868,5,6,1:2:0:0:
214,127,29449,1,2,3:2:0:0:
214,127,29643,2,0,B|205:95|211:55|211:55,1,70,0|0,0:0|3:0,0:0:0:0:
301,85,30030,2,0,B|381:96|413:17|413:17,1,140,2|0,1:2|1:0,0:0:0:0:
500,68,30610,1,2,0:3:0:0:
500,68,30804,2,0,B|509:100|503:140|503:140,1,70,0|2,3:0|0:3,0:0:0:0:
423,176,31191,6,0,B|344:161|360:214|280:197,1,140,2|0,1:2|0:0,0:0:0:0:
210,238,31772,1,2,3:2:0:0:
282,289,31965,2,0,B|292:328|282:369|282:369,1,70,0|0,0:0|3:0,0:0:0:0:
129,384,32352,1,2,1:2:0:0:
23,253,32739,6,0,B|51:172|133:189|133:189,1,140,2|0,1:2|1:0,0:0:0:0:
79,111,33320,1,2,0:3:0:0:
164,101,33514,2,0,B|249:134|227:211|227:211,1,140,2|0,1:2|0:0,0:0:0:0:
158,275,34094,1,2,3:2:0:0:
158,275,34288,2,0,B|171:310|171:346|171:346,1,70
255,380,34675,5,2,1:2:0:0:
415,330,35062,2,0,B|402:295|402:259|402:259,1,70,0|2,0:0|0:3,0:0:0:0:
338,176,35449,2,0,B|298:242|312:318|312:318,1,140,0|2,1:0|1:2,0:0:0:0:
144,280,36223,1,0,0:0:0:0:
144,280,36417,2,0,B|61:233|105:158|105:158,1,140,0|0,1:0|1:0,0:0:0:0:
19,124,36997,2,0,B|9:88|19:52|19:52,1,70,2|10,1:2|0:0,0:0:0:0:
109,15,37385,1,0,1:0:0:0:
109,15,37578,1,0,1:0:0:0:
172,90,37772,1,8,0:0:0:0:
172,90,37965,1,0,1:0:0:0:
259,50,38159,5,4,1:2:0:0:
206,203,38546,2,0,B|202:242|207:276|207:276,1,70,2|0,0:0|3:0,0:0:0:0:
172,358,38933,2,0,B|211:362|245:357|245:357,1,70,0|0,0:0|3:0,0:0:0:0:
316,298,39320,1,0,1:0:0:0:
482,372,39707,1,4,0:0:0:0:
482,372,39901,2,0,B|495:332|490:292|490:292,2,70,0|0|0,0:0|0:0|3:0,0:0:0:0:
401,325,40481,5,0,1:0:0:0:
488,188,40868,2,0,B|509:162|487:115|487:115,1,70,2|0,0:0|3:0,0:0:0:0:
412,81,41255,2,0,B|367:82|347:114|347:114,1,70,2|0,0:0|3:0,0:0:0:0:
365,195,41642,1,6,0:0:0:0:
260,77,42029,1,0,3:0:0:0:
260,77,42223,2,0,B|273:37|268:-3|268:-3,2,70,2|0|2,0:3|0:0|0:3,0:0:0:0:
200,149,42803,5,6,1:2:0:0:
60,67,43191,1,2,0:0:0:0:
60,67,43385,2,0,B|21:131|40:207|40:207,1,140,2|2,3:2|3:2,0:0:0:0:
121,166,43965,1,0,1:0:0:0:
13,297,44352,1,2,0:0:0:0:
13,297,44546,2,0,B|16:336|56:351|56:351,1,70,2|0,0:3|3:0,0:0:0:0:
123,284,44933,1,0,3:0:0:0:
144,371,45127,6,0,B|214:354|187:311|270:292,1,140,6|0,1:2|0:0,0:0:0:0:
347,265,45707,2,0,B|310:181|234:205|234:205,1,140,2|2,1:2|1:2,0:0:0:0:
153,162,46288,1,2,1:2:0:0:
162,4,46675,2,0,B|201:-1|235:4|235:4,1,70,2|2,1:2|0:0,0:0:0:0:
308,49,47062,2,0,B|347:54|381:49|381:49,1,70,0|0,1:0|3:0,0:0:0:0:
451,130,47449,6,0,B|362:107|334:182|334:182,1,140,4|2,1:2|0:0,0:0:0:0:
246,154,48030,2,0,B|220:237|298:270|298:270,1,140,0|2,1:0|0:0,0:0:0:0:
391,250,48610,1,0,1:0:0:0:
269,357,48997,2,0,B|230:362|196:357|196:357,1,70,2|0,0:0|3:3,0:0:0:0:
108,384,49384,2,0,B|103:345|108:311|108:311,1,70,0|0,1:0|3:3,0:0:0:0:
102,223,49772,6,0,B|38:215|17:283|17:283,2,105,6|2|0,1:2|0:3|1:0,0:0:0:0:
256,147,50739,1,0,1:0:0:0:
256,147,50933,1,4,0:0:0:0:
400,233,51320,2,0,B|426:172|401:91|401:91,1,140,0|2,1:0|0:0,0:0:0:0:
473,44,51901,1,2,0:3:0:0:
512,121,52094,5,6,1:2:0:0:
486,278,52481,1,2,0:0:0:0:
486,278,52675,2,0,B|403:238|367:324|367:324,1,140,2|0,3:2|3:0,0:0:0:0:
283,359,53256,1,2,1:2:0:0:
235,202,53643,1,2,0:0:0:0:
235,202,53836,1,0,3:0:0:0:
289,128,54030,2,0,B|293:92|288:53|288:53,1,70,2|0,3:2|3:0,0:0:0:0:
220,6,54417,1,6,1:2:0:0:
66,47,54804,1,0,0:0:0:0:
66,47,54997,2,0,B|43:121|65:190|65:190,1,140,2|0,0:3|3:3,0:0:0:0:
151,122,55578,6,0,L|188:129,4,35,2|0|0|0|0,1:2|0:0|0:0|0:0|0:0,0:0:0:0:
60,373,57901,6,0,B|39:306|63:232|63:232,1,140,4|0,1:1|0:0,0:0:0:0:
32,146,58481,2,0,B|125:123|147:209|147:209,1,140,8|0,0:0|1:0,0:0:0:0:
143,289,59062,1,4,1:2:0:0:
232,230,59256,2,0,B|237:194|226:159|226:159,1,70
175,85,59643,2,0,B|174:44|181:14|181:14,1,70,8|0,0:0|1:1,0:0:0:0:
274,63,60030,5,0,1:0:0:0:
274,63,60127,1,0,1:0:0:0:
274,63,60223,2,0,B|367:40|389:126|389:126,1,140,4|0,1:2|0:0,0:0:0:0:
473,94,60804,2,0,B|489:174|467:236|467:236,1,140,8|0,0:0|1:0,0:0:0:0:
385,255,61385,1,4,1:2:0:0:
273,384,61772,1,4,1:2:0:0:
136,292,62159,1,2,1:2:0:0:
238,167,62546,6,0,B|169:150|191:108|116:88,1,140,4|0,1:2|0:0,0:0:0:0:
103,0,63127,2,0,B|10:20|26:109|26:109,1,140,8|0,0:0|1:0,0:0:0:0:
83,179,63707,1,4,1:2:0:0:
24,250,63901,2,0,B|58:269|95:266|95:266,1,70
167,216,64288,2,0,B|191:246|183:287|183:287,1,70,8|0,0:0|0:0,0:0:0:0:
118,363,64675,5,0,1:0:0:0:
118,363,64772,1,0,1:0:0:0:
118,363,64868,1,4,1:2:0:0:
276,295,65256,2,0,B|314:286|344:298|344:298,1,70,0|8,1:0|0:0,0:0:0:0:
411,372,65643,2,0,B|449:381|479:369|479:369,1,70,0|8,1:0|0:0,0:0:0:0:
511,294,66030,1,4,1:2:0:0:
396,160,66417,5,4,1:2:0:0:
396,160,66610,1,0,1:0:0:0:
313,204,66804,1,12,0:2:0:0:
313,204,66997,1,0,1:0:0:0:
227,166,67191,6,0,B|144:159|161:207|81:197,1,140,4|0,1:2|0:0,0:0:0:0:
17,145,67772,2,0,B|-12:73|38:13|38:13,1,140,8|0,0:0|1:0,0:0:0:0:
104,98,68352,1,4,1:2:0:0:
183,58,68546,2,0,B|219:53|254:64|254:64,1,70,0|0,0:0|1:0,0:0:0:0:
345,23,68933,2,0,B|350:63|347:94|347:94,1,70,8|0,0:0|0:0,0:0:0:0:
272,163,69320,5,0,1:0:0:0:
272,163,69417,1,2,0:0:0:0:
272,163,69514,1,4,1:2:0:0:
355,193,69707,2,0,B|448:170|470:256|470:256,1,140,2|8,0:0|0:0,0:0:0:0:
452,346,70288,1,0,1:0:0:0:
452,346,70481,1,0,0:0:0:0:
371,292,70675,1,4,1:2:0:0:
217,381,71062,1,4,1:2:0:0:
116,249,71449,1,4,1:2:0:0:
258,169,71836,6,0,B|272:78|192:61|192:61,1,140,4|0,1:2|1:0,0:0:0:0:
106,19,72417,1,8,0:0:0:0:
106,19,72610,2,0,B|100:57|101:91|101:91,1,70,0|0,1:0|0:0,0:0:0:0:
55,175,72997,2,0,B|-5:148|13:85|13:85,2,105,4|2|8,1:2|0:3|0:0,0:0:0:0:
149,161,73772,1,0,1:0:0:0:
236,310,74159,6,0,B|321:298|305:356|396:345,1,140,4|0,1:2|0:0,0:0:0:0:
457,301,74739,2,0,B|474:230|452:163|452:163,1,140,8|0,0:0|1:0,0:0:0:0:
375,103,75320,2,0,B|351:135|358:173|358:173,1,70,4|0,0:0|0:0,0:0:0:0:
367,259,75707,1,0,1:0:0:0:
367,259,75901,1,8,0:0:0:0:
279,226,76094,2,0,B|248:233|204:222|204:222,1,70,0|0,1:0|1:0,0:0:0:0:
136,280,76481,5,0,1:0:0:0:
44,269,76675,2,0,B|36:238|47:194|47:194,1,70,0|8,1:0|0:0,0:0:0:0:
22,111,77062,5,0,1:0:0:0:
117,128,77256,1,0,1:0:0:0:
243,17,77643,5,0,1:0:0:0:
305,82,77836,1,0,1:0:0:0:
226,133,78030,2,0,B|220:168|224:205|224:205,1,70,8|0,0:0|1:0,0:0:0:0:
245,232,78320,1,0,1:0:0:0:
245,232,78417,2,0,B|239:268|243:304|243:304,1,70,8|0,0:0|1:0,0:0:0:0:
306,380,78804,5,0,1:0:0:0:
406,365,78997,2,0,B|412:329|408:293|408:293,1,70,0|8,1:0|0:0,0:0:0:0:
489,239,79385,5,0,1:0:0:0:
395,207,79578,1,0,1:0:0:0:
459,48,79965,6,0,B|382:72|321:69|321:69,1,140,8|8,0:0|0:0,0:0:0:0:
239,34,80546,2,0,B|224:73|243:113|243:113,1,70,0|8,1:0|0:0,0:0:0:0:
295,193,80933,5,0,1:0:0:0:
295,193,81030,1,0,1:0:0:0:
295,193,81127,1,0,1:0:0:0:
206,233,81320,2,0,B|212:274|210:306|210:306,1,70,0|8,1:0|0:0,0:0:0:0:
145,373,81707,5,0,1:0:0:0:
52,359,81901,1,0,1:0:0:0:
8,183,82288,5,0,1:0:0:0:
106,164,82481,1,0,1:0:0:0:
197,206,82675,2,0,B|203:171|199:134|199:134,1,70,8|0,0:0|1:0,0:0:0:0:
178,108,82965,1,0,1:0:0:0:
178,108,83062,2,0,B|184:72|180:36|180:36,1,70,8|0,0:0|1:0,0:0:0:0:
271,79,83449,5,0,1:0:0:0:
346,32,83643,2,0,B|381:21|420:22|420:22,1,70,0|8,1:0|0:0,0:0:0:0:
491,85,84030,1,0,1:0:0:0:
491,85,84223,2,0,B|499:120|487:154|487:154,1,70,8|0,0:0|1:0,0:0:0:0:
403,114,84610,1,4,1:0:0:0:
