osu file format v14

[General]
AudioFilename: audio.mp3
AudioLeadIn: 0
PreviewTime: 141590
Countdown: 0
SampleSet: Soft
StackLeniency: 0.4
Mode: 0
LetterboxInBreaks: 0
WidescreenStoryboard: 1

[Editor]
Bookmarks: 4200,181364,190655
DistanceSpacing: 1
BeatDivisor: 4
GridSize: 4
TimelineZoom: 1.2

[Metadata]
Title:syncretism
TitleUnicode:syncretism
Artist:Annabel
ArtistUnicode:Annabel
Creator:Sulfur
Version:Kaine's Hard
Source:Hybrid Child
Tags:Kaine Su1fu7 riya 拓植敏道 シンクレティズム OVA BL yaoi boys love theme shounen ai
BeatmapID:1531720
BeatmapSetID:700584

[Difficulty]
HPDrainRate:5
CircleSize:3.5
OverallDifficulty:7
ApproachRate:7
SliderMultiplier:1.4
SliderTickRate:1

[Events]
//Background and Video events
0,0,"anime.jpg",0,0
//Break Periods
2,84716,93368
2,181364,189755
//Storyboard Layer 0 (Background)
//Storyboard Layer 1 (Fail)
//Storyboard Layer 2 (Pass)
//Storyboard Layer 3 (Foreground)
//Storyboard Sound Samples

[TimingPoints]
910,387.096774193548,3,2,1,40,1,0
910,-166.666666666667,3,2,1,40,0,0
18329,-111.111111111111,3,2,1,40,0,0
18426,-111.111111111111,3,2,1,25,0,0
18716,-111.111111111111,3,2,1,40,0,0
18813,-111.111111111111,3,2,1,25,0,0
19102,-111.111111111111,3,2,1,40,0,0
19490,-125,3,2,1,40,0,0
56651,-90.9090909090909,3,2,1,60,0,1
74071,-90.9090909090909,3,2,1,60,0,0
75232,-90.9090909090909,3,2,1,60,0,1
82200,-90.9090909090909,3,2,1,60,0,0
84917,389.61038961039,3,2,1,60,1,0
94268,387.096774193548,3,2,1,50,1,0
94268,-125,3,2,1,50,0,0
102397,-90.9090909090909,3,2,1,50,0,0
102493,-90.9090909090909,3,2,1,50,0,0
102784,-90.9090909090909,3,2,1,50,0,0
102880,-90.9090909090909,3,2,1,50,0,0
103171,-90.9090909090909,3,2,1,50,0,0
103558,-125,3,2,1,50,0,0
141880,-90.9090909090909,3,2,1,60,0,1
160461,-76.9230769230769,3,2,1,60,0,0
179042,-90.9090909090909,3,2,1,60,0,0
190655,-125,3,2,1,45,0,0
199945,-90.9090909090909,3,2,1,60,0,1
217751,-90.9090909090909,3,2,1,60,0,0
218526,-90.9090909090909,3,2,1,60,0,1
226655,-156.25,3,2,1,60,0,0
227817,-156.25,3,2,2,40,0,0
228977,-156.25,3,2,1,20,0,0
230138,-156.25,3,2,1,5,0,0

[Colours]
Combo1 : 255,215,94
Combo2 : 166,166,210
Combo3 : 174,255,255
Combo4 : 255,176,138

[HitObjects]
81,137,910,6,0,L|220:126,1,125.999996154785,2|0,0:0|0:0,0:0:0:0:
451,246,2071,2,0,L|319:254,1,125.999996154785,2|0,0:0|0:0,0:0:0:0:
67,305,3232,2,0,L|55:211,1,83.9999974365235,2|0,0:0|0:0,0:0:0:0:
39,115,3813,1,0,0:0:0:0:
39,115,4200,5,0,0:0:0:0:
120,153,4393,2,0,L|175:149,1,41.9999987182618,2|0,0:0|0:0,0:0:0:0:
242,187,4780,2,0,L|297:183,1,41.9999987182618,0|0,0:0|0:0,0:0:0:0:
372,175,5168,1,0,0:0:0:0:
465,211,5555,38,0,P|473:168|451:118,1,83.9999974365235,2|0,0:0|0:0,0:0:0:0:
370,89,6135,2,0,L|313:94,1,41.9999987182618,0|0,0:0|0:0,0:0:0:0:
239,58,6522,1,0,0:0:0:0:
177,126,6716,2,0,L|184:186,1,41.9999987182618,2|0,0:0|0:0,0:0:0:0:
133,331,7297,2,0,L|126:275,1,41.9999987182618,0|0,0:0|0:0,0:0:0:0:
55,212,7684,1,0,0:0:0:0:
32,308,7877,1,2,0:0:0:0:
229,255,8264,6,0,L|286:260,1,41.9999987182618,0|0,0:0|0:0,0:0:0:0:
369,267,8651,2,0,L|426:272,1,41.9999987182618,2|0,0:0|0:0,0:0:0:0:
326,139,9039,2,0,P|321:161|326:192,1,41.9999987182618,0|0,0:0|0:0,0:0:0:0:
425,141,9426,2,0,P|428:116|418:84,1,41.9999987182618,2|0,0:0|0:0,0:0:0:0:
344,35,9813,1,0,0:0:0:0:
344,35,10200,38,0,P|299:23|252:42,1,83.9999974365235,2|2,0:3|0:0,0:0:0:0:
223,122,10780,2,0,L|225:165,2,41.9999987182618,0|2|0,0:0|0:0|0:0,0:0:0:0:
184,235,11361,6,0,P|228:246|273:232,1,83.9999974365235,2|2,0:3|0:0,0:0:0:0:
306,141,11941,2,0,L|303:97,1,41.9999987182618,0|2,0:0|0:0,0:0:0:0:
386,219,12522,38,0,L|378:309,1,83.9999974365235,2|2,0:3|0:0,0:0:0:0:
476,241,13103,2,0,P|480:218|474:182,1,41.9999987182618,0|0,0:0|0:0,0:0:0:0:
421,125,13490,1,2,0:0:0:0:
320,140,13684,2,0,L|224:132,1,83.9999974365235,2|0,0:3|0:0,0:0:0:0:
236,133,14458,1,0,0:3:0:0:
149,268,14845,38,0,P|153:289|149:309,1,41.9999987182618,2|0,0:0|0:0,0:0:0:0:
68,371,15232,2,0,P|64:350|68:330,1,41.9999987182618,0|0,0:0|0:0,0:0:0:0:
148,227,16006,38,0,P|152:248|148:268,1,41.9999987182618,2|0,0:0|0:0,0:0:0:0:
67,330,16393,2,0,P|63:309|67:289,1,41.9999987182618,0|0,0:0|0:0,0:0:0:0:
148,186,17168,6,0,P|152:207|148:227,1,41.9999987182618,2|0,0:0|0:0,0:0:0:0:
67,289,17555,2,0,P|63:268|67:248,1,41.9999987182618,0|0,0:0|0:0,0:0:0:0:
218,25,18329,6,0,L|224:88,1,62.9999980773926,0|0,3:3|0:0,0:0:0:0:
298,148,18716,2,0,L|301:183,2,31.4999990386963,0|0|0,3:3|0:0|0:0,0:0:0:0:
366,85,19103,2,0,L|452:78,1,62.9999980773926,8|0,3:2|3:3,0:0:0:0:
357,267,19490,38,0,P|306:286|204:225,1,168,0|2,0:0|0:0,0:0:0:0:
205,153,20264,1,0,0:0:0:0:
212,338,20651,1,0,0:0:0:0:
56,282,21039,2,0,L|59:224,1,56,2|0,0:0|0:0,0:0:0:0:
36,135,21426,1,0,0:0:0:0:
195,153,21813,38,0,P|231:112|350:120,1,168,0|2,0:0|0:0,0:0:0:0:
332,204,22587,1,0,0:0:0:0:
343,19,22974,1,2,0:0:0:0:
499,39,23361,2,0,L|492:96,1,56,2|0,0:0|0:0,0:0:0:0:
512,206,23749,1,0,0:0:0:0:
415,338,24135,6,0,B|304:330|304:330|245:350,1,168,2|0,0:0|0:0,0:0:0:0:
145,382,24909,2,0,L|65:366,1,56,0|0,0:0|0:0,0:0:0:0:
23,245,25297,2,0,P|57:237|86:246,1,56,2|0,0:0|0:0,0:0:0:0:
136,295,25684,2,0,P|163:299|190:292,1,56,0|0,0:0|0:0,0:0:0:0:
228,223,26071,2,0,P|262:215|291:224,1,56,0|0,0:0|0:0,0:0:0:0:
414,283,26458,2,0,B|422:172|422:172|402:113,1,168,2|0,0:0|0:0,0:0:0:0:
289,36,27232,2,0,L|284:100,1,56,0|0,0:0|0:0,0:0:0:0:
177,139,27619,5,2,0:0:0:0:
160,134,27813,1,0,0:0:0:0:
48,174,28006,1,2,0:0:0:0:
60,161,28200,1,0,0:0:0:0:
82,44,28393,1,2,0:0:0:0:
86,60,28587,1,0,0:0:0:0:
126,214,28780,22,0,L|112:382,1,168,2|0,0:0|0:0,0:0:0:0:
196,307,29555,1,0,0:0:0:0:
349,382,29942,1,2,0:0:0:0:
428,255,30329,2,0,L|432:185,1,56,0|0,0:0|0:0,0:0:0:0:
496,142,30716,1,2,0:0:0:0:
484,22,31103,6,0,L|316:7,1,168,2|0,0:0|0:0,0:0:0:0:
391,92,31878,1,0,0:0:0:0:
162,0,32264,1,0,0:0:0:0:
122,156,32651,2,0,L|50:152,1,56,0|0,0:0|0:0,0:0:0:0:
14,95,33039,1,2,0:0:0:0:
21,322,33426,38,0,P|98:349|192:327,1,168,2|0,0:0|0:0,0:0:0:0:
281,276,34200,2,0,L|280:346,1,56,0|0,0:0|0:0,0:0:0:0:
376,286,34587,2,0,P|382:260|369:218,1,56,2|0,0:0|0:0,0:0:0:0:
297,131,34974,2,0,P|291:158|298:185,1,56,0|0,0:0|0:0,0:0:0:0:
383,96,35361,2,0,P|389:70|376:29,1,56,0|0,0:0|0:0,0:0:0:0:
286,35,35748,21,2,3:0:0:0:
278,31,35942,1,0,3:0:0:0:
200,91,36135,1,2,3:0:0:0:
192,95,36329,1,0,3:0:0:0:
103,49,36522,1,2,3:0:0:0:
95,45,36716,1,0,3:0:0:0:
61,166,36909,6,0,L|68:230,1,56,2|0,3:0|3:2,0:0:0:0:
144,335,37297,2,0,L|151:280,1,56,10|0,3:2|3:2,0:0:0:0:
238,341,37684,1,2,3:0:0:0:
244,345,37877,1,0,0:0:0:0:
383,357,38071,38,0,P|389:327|381:283,1,56,4|0,0:0|0:0,0:0:0:0:
362,228,38458,1,0,0:0:0:0:
362,228,38651,1,2,0:0:0:0:
407,154,38845,1,0,0:0:0:0:
407,154,39039,1,0,0:0:0:0:
322,90,39232,2,0,P|316:120|324:164,1,56,0|0,0:0|0:0,0:0:0:0:
208,30,39619,2,0,P|236:20|271:-8,1,56,2|0,0:0|3:0,0:0:0:0:
214,159,40006,2,0,P|191:138|148:123,1,56,2|0,0:0|3:0,0:0:0:0:
51,45,40393,22,0,L|48:126,1,56,2|0,0:0|0:0,0:0:0:0:
86,207,40780,1,0,0:0:0:0:
86,207,40974,1,2,0:0:0:0:
39,306,41168,1,0,0:0:0:0:
39,306,41362,1,0,0:0:0:0:
144,301,41555,2,0,P|171:295|209:303,1,56,0|0,0:0|0:0,0:0:0:0:
251,165,41942,2,0,P|242:191|216:220,1,56,2|0,0:0|3:0,0:0:0:0:
315,325,42329,2,0,P|296:304|284:267,1,56,2|0,0:0|3:0,0:0:0:0:
440,218,42716,6,0,L|433:332,1,112,2|0,0:0|0:0,0:0:0:0:
392,146,43297,2,0,P|453:133|513:170,1,112,0|0,3:0|0:0,0:0:0:0:
337,70,43877,2,0,P|276:83|216:46,1,112,0|0,0:0|3:0,0:0:0:0:
131,0,44458,1,0,0:0:0:0:
30,52,44651,1,0,0:0:0:0:
30,52,44845,1,0,0:0:0:0:
127,123,45039,6,0,L|118:238,1,112,2|0,0:0|0:0,0:0:0:0:
58,328,45619,2,0,P|122:317|177:342,1,112,0|0,0:0|0:0,0:0:0:0:
334,255,46200,2,0,P|270:266|215:241,1,112,2|0,3:2|0:0,0:0:0:0:
209,236,46780,1,0,0:0:0:0:
291,138,46974,1,0,0:0:0:0:
291,138,47168,1,0,0:0:0:0:
485,194,47361,6,0,P|497:254|479:312,1,112,2|0,0:0|0:0,0:0:0:0:
406,143,47942,2,0,P|393:82|412:25,1,112,0|0,0:0|0:0,0:0:0:0:
402,237,48522,2,0,L|280:227,1,112,2|0,0:0|0:0,0:0:0:0:
203,300,49103,1,0,3:0:0:0:
187,204,49297,1,0,3:0:0:0:
118,267,49490,1,0,3:0:0:0:
118,137,49684,38,0,P|167:111|224:118,1,112,2|0,0:0|0:0,0:0:0:0:
389,169,50264,2,0,P|340:195|283:188,1,112,2|2,0:0|0:0,0:0:0:0:
409,73,50845,2,0,P|458:47|515:54,1,112,2|0,0:0|0:0,0:0:0:0:
479,163,51426,1,0,3:0:0:0:
479,259,51619,1,0,3:0:0:0:
479,360,51813,1,0,0:0:0:0:
400,293,52006,6,0,L|263:299,1,112,2|0,0:0|0:0,0:0:0:0:
165,360,52587,2,0,P|185:318|171:254,1,112,0|0,0:0|0:0,0:0:0:0:
74,180,53168,1,2,0:0:0:0:
71,188,53361,1,0,0:0:0:0:
163,155,53555,1,0,0:0:0:0:
167,63,53749,1,0,0:0:0:0:
81,29,53942,1,0,0:0:0:0:
23,101,54136,1,0,0:0:0:0:
101,106,54329,37,0,0:0:0:0:
160,299,56651,6,0,L|6:292,1,154.000004699707,4|0,3:2|0:0,0:0:0:0:
225,221,57232,2,0,P|257:303|225:375,1,154.000004699707,2|0,3:2|0:0,0:0:0:0:
136,208,57813,2,0,L|131:128,1,77.0000023498536,0|0,0:0|0:0,0:0:0:0:
123,30,58200,1,0,0:0:0:0:
215,76,58393,2,0,P|255:81|310:66,1,77.0000023498536,8|0,0:0|0:0,0:0:0:0:
375,22,58780,1,8,0:0:0:0:
454,149,58974,38,0,P|392:128|309:199,1,154.000004699707,2|0,3:2|0:0,0:0:0:0:
338,289,59555,2,0,P|400:310|483:239,1,154.000004699707,8|0,0:0|0:0,0:0:0:0:
236,242,60135,2,0,L|150:249,1,77.0000023498536,2|0,3:2|0:0,0:0:0:0:
85,322,60522,2,0,L|-1:315,1,77.0000023498536,2|0,3:2|0:0,0:0:0:0:
8,315,60909,1,0,0:0:0:0:
0,79,61297,6,0,P|83:100|154:74,1,154.000004699707,2|0,0:0|0:0,0:0:0:0:
258,0,61877,2,0,P|237:82|256:162,1,154.000004699707,2|0,3:2|0:0,0:0:0:0:
401,229,62458,2,0,P|362:224|322:240,1,77.0000023498536,2|0,0:0|0:0,0:0:0:0:
253,318,62845,1,0,0:0:0:0:
149,270,63039,2,0,L|61:276,1,77.0000023498536,8|0,0:0|3:2,0:0:0:0:
0,197,63426,1,0,0:0:0:0:
25,94,63619,1,2,0:0:0:0:
25,94,64006,6,0,P|66:101|130:89,1,77.0000023498536,0|0,0:0|3:0,0:0:0:0:
240,36,64393,2,0,P|198:29|160:38,1,77.0000023498536,0|0,0:0|0:0,0:0:0:0:
301,100,64780,2,0,L|467:107,2,154.000004699707,10|2|2,3:2|0:0|0:0,0:0:0:0:
260,318,65942,22,0,P|325:343|413:308,1,154.000004699707,6|0,0:0|0:0,0:0:0:0:
315,234,66522,2,0,P|234:220|173:269,1,154.000004699707,2|0,0:0|0:0,0:0:0:0:
78,361,67103,2,0,P|80:323|72:278,1,77.0000023498536,2|0,0:0|0:0,0:0:0:0:
11,207,67490,1,0,0:0:0:0:
67,116,67684,2,0,P|106:123|154:119,1,77.0000023498536,8|0,0:0|0:0,0:0:0:0:
228,77,68071,1,0,0:0:0:0:
310,1,68264,22,0,L|303:171,1,154.000004699707,2|0,0:0|0:0,0:0:0:0:
371,219,68845,1,0,3:0:0:0:
460,187,69039,1,2,0:0:0:0:
385,125,69232,1,0,0:0:0:0:
287,234,69426,6,0,L|284:318,1,77.0000023498536,2|0,0:0|0:0,0:0:0:0:
171,370,69813,2,0,L|173:293,1,77.0000023498536,2|0,3:2|0:0,0:0:0:0:
65,198,70200,2,0,L|62:282,1,77.0000023498536,2|0,3:2|0:0,0:0:0:0:
129,129,70587,6,0,P|69:102|-12:149,1,154.000004699707,2|0,3:2|0:0,0:0:0:0:
160,217,71168,2,0,P|206:225|255:210,1,77.0000023498536,0|0,3:0|0:0,0:0:0:0:
313,161,71555,1,0,0:0:0:0:
324,257,71748,2,0,L|330:343,1,77.0000023498536,0|0,0:0|0:0,0:0:0:0:
417,373,72135,1,0,3:0:0:0:
496,311,72329,2,0,L|490:225,1,77.0000023498536,8|0,0:0|0:0,0:0:0:0:
240,305,72909,6,0,P|178:346|106:326,1,154.000004699707,0|0,0:0|0:0,0:0:0:0:
89,208,73490,2,0,P|151:167|223:187,1,154.000004699707,0|0,3:0|0:0,0:0:0:0:
21,325,74071,38,0,L|5:241,1,77.0000023498536,8|0,3:2|0:0,0:0:0:0:
29,155,74458,2,0,L|33:107,3,38.5000011749268,2|2|2|0,3:2|3:2|3:2|0:0,0:0:0:0:
49,76,74845,2,0,L|45:-4,1,77.0000023498536,8|0,0:0|3:0,0:0:0:0:
152,68,75232,5,4,3:2:0:0:
150,76,75426,1,2,3:2:0:0:
256,204,75813,37,0,3:2:0:0:
258,212,76007,1,2,3:2:0:0:
152,341,76393,5,0,3:2:0:0:
150,349,76587,1,2,3:2:0:0:
19,358,76780,1,8,0:0:0:0:
76,241,76974,38,0,L|74:196,2,38.5000011749268,0|0|8,1:0|1:0|1:2,0:0:0:0:
79,280,77361,1,0,1:0:0:0:
2,151,77555,6,0,P|62:119|147:148,1,154.000004699707,0|0,3:2|0:0,0:0:0:0:
325,229,78135,2,0,P|267:260|181:235,1,154.000004699707,0|0,3:2|0:0,0:0:0:0:
368,136,78716,2,0,P|407:131|469:149,1,77.0000023498536,0|2,3:2|3:2,0:0:0:0:
501,230,79103,5,8,0:0:0:0:
501,230,79297,1,0,1:0:0:0:
426,365,79490,1,8,0:0:0:0:
327,231,79684,22,0,L|329:186,2,38.5000011749268,0|0|8,1:0|1:0|1:2,0:0:0:0:
324,270,80071,1,2,3:2:0:0:
166,184,80458,5,0,3:2:0:0:
163,176,80652,1,2,3:2:0:0:
28,235,81039,37,0,3:2:0:0:
20,232,81232,1,2,3:2:0:0:
135,325,81426,1,8,0:0:0:0:
267,236,81619,6,0,L|264:177,2,38.5000011749268,0|0|0,1:0|1:0|1:0,0:0:0:0:
269,274,82006,1,0,1:0:0:0:
185,144,82200,6,0,P|259:101|336:133,1,154.000004699707,2|0,3:2|0:0,0:0:0:0:
155,30,82780,2,0,P|81:73|4:41,1,154.000004699707,2|0,3:2|0:0,0:0:0:0:
19,55,83361,5,4,0:0:0:0:
20,170,94268,54,0,L|90:174,1,56,2|0,0:3|0:0,0:0:0:0:
153,240,94655,1,2,0:0:0:0:
152,244,94848,1,0,0:0:0:0:
63,278,95042,1,0,0:0:0:0:
64,282,95235,1,0,0:0:0:0:
237,264,95429,6,0,P|240:232|230:200,1,56,2|0,0:3|0:0,0:0:0:0:
167,128,95816,1,2,0:0:0:0:
204,29,96009,1,0,0:0:0:0:
205,25,96203,1,2,0:0:0:0:
205,25,96590,38,0,P|273:34|322:7,1,112,2|2,0:3|0:0,0:0:0:0:
394,14,97171,2,0,L|388:75,2,56,0|0|2,0:0|0:0|0:0,0:0:0:0:
437,141,97751,2,0,P|380:157|327:128,1,112,2|0,0:3|3:0,0:0:0:0:
334,135,98526,1,0,3:0:0:0:
160,46,98913,22,0,P|167:73|158:113,1,56,2|0,0:0|0:0,0:0:0:0:
71,165,99300,1,0,0:0:0:0:
163,100,100074,6,0,P|170:127|161:167,1,56,2|0,0:0|0:0,0:0:0:0:
74,219,100461,1,0,0:0:0:0:
166,154,101235,38,0,P|173:181|164:221,1,56,2|0,0:0|0:0,0:0:0:0:
77,273,101622,1,0,0:0:0:0:
231,379,102397,6,0,L|237:303,1,77.0000023498536,0|0,0:0|0:0,0:0:0:0:
306,246,102784,2,0,L|307:201,2,38.5000011749268,0|0|0,0:0|0:0|0:0,0:0:0:0:
374,309,103171,2,0,L|460:316,1,77.0000023498536,8|0,3:2|3:0,0:0:0:0:
417,153,103558,6,0,B|363:128|363:128|242:138,1,168,4|0,0:0|0:0,0:0:0:0:
155,69,104332,1,0,0:0:0:0:
168,232,104719,1,2,0:0:0:0:
87,149,105106,2,0,L|25:160,1,56,0|0,0:0|3:0,0:0:0:0:
0,50,105493,2,0,L|55:59,1,56,0|0,3:0|0:0,0:0:0:0:
203,136,105880,6,0,B|271:140|299:89|299:89|304:163,1,168,2|0,0:0|0:0,0:0:0:0:
312,252,106655,1,0,0:0:0:0:
425,350,107042,1,2,0:0:0:0:
458,214,107429,2,0,L|465:150,1,56,2|0,0:0|3:0,0:0:0:0:
427,65,107816,2,0,L|434:1,1,56,0|0,3:0|0:0,0:0:0:0:
362,145,108203,38,0,P|283:162|206:109,1,168,0|0,0:0|0:0,0:0:0:0:
118,19,108977,2,0,L|116:85,1,56,0|0,0:0|0:0,0:0:0:0:
121,184,109364,2,0,P|90:179|47:188,1,56,2|0,0:0|0:0,0:0:0:0:
0,278,109751,2,0,P|31:283|74:274,1,56,0|0,0:0|0:0,0:0:0:0:
206,264,110138,2,0,P|175:259|132:268,1,56,0|0,0:0|0:0,0:0:0:0:
270,338,110526,6,0,P|296:296|263:184,1,168,2|0,0:0|0:0,0:0:0:0:
184,87,111300,2,0,L|255:92,1,56,0|0,0:0|0:0,0:0:0:0:
495,132,111687,37,0,3:0:0:0:
475,126,111881,1,0,0:0:0:0:
349,158,112074,1,2,0:0:0:0:
361,145,112268,1,0,3:0:0:0:
399,18,112461,1,2,0:0:0:0:
402,38,112655,1,0,3:0:0:0:
430,201,112848,6,0,L|411:374,1,168,2|0,0:0|0:0,0:0:0:0:
411,367,113622,1,0,0:0:0:0:
270,285,114009,2,0,P|219:292|201:307,1,56,2|0,2:2|0:0,0:0:0:0:
135,237,114397,2,0,P|108:261|97:291,1,56,2|0,0:0|3:0,0:0:0:0:
75,374,114784,1,0,3:0:0:0:
75,374,114977,1,0,0:0:0:0:
40,189,115171,38,0,L|59:16,1,168,2|0,0:0|0:0,0:0:0:0:
59,23,115945,1,0,0:0:0:0:
200,105,116332,2,0,P|251:98|269:83,1,56,2|0,0:0|0:0,0:0:0:0:
335,153,116720,2,0,P|362:129|373:99,1,56,2|0,0:0|3:0,0:0:0:0:
323,19,117107,1,0,3:0:0:0:
323,19,117300,1,0,0:0:0:0:
250,194,117493,6,0,P|325:243|412:208,1,168,2|0,0:0|0:0,0:0:0:0:
478,161,118267,1,0,0:0:0:0:
497,263,118461,1,0,0:0:0:0:
388,324,118655,38,0,P|348:330|309:318,1,56,2|0,0:0|0:0,0:0:0:0:
250,194,119042,2,0,P|275:225|284:265,1,56,0|0,0:0|0:0,0:0:0:0:
206,378,119429,2,0,P|220:340|250:312,1,56,0|0,0:0|0:0,0:0:0:0:
120,241,119816,6,0,B|107:293|115:355|115:355|72:320,1,168,0|0,0:0|0:0,0:0:0:0:
22,214,120590,2,0,L|27:150,1,56,0|0,0:0|0:0,0:0:0:0:
35,39,120977,1,2,0:0:0:0:
43,43,121171,1,0,0:0:0:0:
136,115,121364,1,8,0:0:0:0:
144,111,121558,1,0,0:0:0:0:
240,50,121751,1,0,3:0:0:0:
248,54,121945,1,0,0:0:0:0:
359,127,122138,38,0,L|440:121,1,56,4|0,0:0|0:0,0:0:0:0:
488,213,122526,1,0,0:0:0:0:
488,213,122719,1,2,0:0:0:0:
413,304,122913,1,0,0:0:0:0:
413,304,123106,1,0,0:0:0:0:
285,257,123300,6,0,P|255:254|221:263,2,56,2|0|0,0:0|0:0|0:0,0:0:0:0:
180,339,123880,2,0,P|150:342|116:333,1,56,0|2,3:0|0:0,0:0:0:0:
124,336,124267,1,0,3:0:0:0:
15,329,124461,6,0,L|17:405,1,56,2|0,0:0|0:0,0:0:0:0:
59,223,124848,1,0,0:0:0:0:
59,223,125042,1,2,0:0:0:0:
9,113,125235,1,0,0:0:0:0:
9,113,125429,1,0,0:0:0:0:
178,64,125622,6,0,P|212:69|244:62,2,56,2|0|2,0:0|0:0|0:0,0:0:0:0:
239,153,126203,2,0,P|275:146|301:155,1,56,0|2,3:0|0:0,0:0:0:0:
293,150,126590,1,0,3:0:0:0:
366,328,126784,38,0,L|359:217,1,112,2|0,0:0|0:0,0:0:0:0:
458,160,127364,2,0,P|471:217|450:278,1,112,2|0,0:0|0:0,0:0:0:0:
363,110,127945,2,0,P|348:56|361:2,1,112,2|0,0:0|0:0,0:0:0:0:
361,2,128526,1,0,0:0:0:0:
266,102,128719,1,0,0:0:0:0:
266,102,128913,1,0,0:0:0:0:
108,30,129106,6,0,L|-3:35,1,112,2|0,0:0|0:0,0:0:0:0:
158,111,129687,2,0,L|269:105,1,112,2|0,0:0|0:0,0:0:0:0:
62,123,130267,2,0,P|59:159|67:181,1,56,2|0,3:2|0:0,0:0:0:0:
54,272,130655,2,0,P|17:269|-4:277,1,56,0|0,0:0|0:0,0:0:0:0:
142,235,131042,2,0,P|178:237|200:230,1,56,0|0,0:0|0:0,0:0:0:0:
323,140,131429,6,0,L|318:269,1,112,2|0,0:0|0:0,0:0:0:0:
381,70,132009,2,0,P|321:52|260:77,1,112,0|0,0:0|0:0,0:0:0:0:
418,156,132590,2,0,P|464:121|474:63,1,112,0|0,0:0|0:0,0:0:0:0:
475,70,133171,1,0,3:0:0:0:
490,232,133364,1,2,0:0:0:0:
490,232,133558,1,0,3:0:0:0:
362,345,133751,6,0,P|306:333|239:358,1,112,2|0,0:0|0:0,0:0:0:0:
161,247,134332,2,0,P|216:258|284:234,1,112,2|2,0:0|0:0,0:0:0:0:
75,200,134913,2,0,P|66:232|68:267,1,56,2|0,0:0|0:0,0:0:0:0:
117,337,135300,1,2,0:0:0:0:
117,337,135493,1,0,0:0:0:0:
157,154,135687,2,0,P|161:130|151:86,1,56,0|0,0:0|3:0,0:0:0:0:
25,54,136074,38,0,L|144:69,1,112,2|0,0:0|0:0,0:0:0:0:
377,37,136655,2,0,L|265:22,1,112,0|0,0:0|0:0,0:0:0:0:
370,188,137235,2,0,L|367:251,1,56,2|0,0:0|0:0,0:0:0:0:
459,163,137622,1,0,0:0:0:0:
463,71,137816,1,0,0:0:0:0:
377,37,138009,38,0,L|384:104,1,56,2|0,0:0|0:0,0:0:0:0:
372,251,138397,2,0,L|366:195,1,56,2|0,0:0|0:0,0:0:0:0:
288,142,138784,1,2,0:0:0:0:
285,134,138977,1,0,3:0:0:0:
218,221,139171,1,2,0:0:0:0:
221,213,139364,1,0,1:0:0:0:
174,125,139558,5,0,0:0:0:0:
256,192,139655,12,0,141493,0:0:0:0:
330,275,141880,38,0,L|486:280,1,154.000004699707,4|0,0:0|0:0,0:0:0:0:
253,200,142461,2,0,P|223:279|257:358,1,154.000004699707,2|0,3:2|0:0,0:0:0:0:
348,182,143042,2,0,P|355:149|344:97,1,77.0000023498536,2|0,0:0|0:0,0:0:0:0:
284,33,143429,1,0,0:0:0:0:
206,78,143622,2,0,P|166:86|119:68,1,77.0000023498536,8|0,0:0|0:0,0:0:0:0:
53,32,144009,1,0,3:0:0:0:
6,207,144203,6,0,P|67:165|139:185,1,154.000004699707,2|0,3:2|0:0,0:0:0:0:
157,303,144784,2,0,P|95:344|23:324,1,154.000004699707,8|0,2:0|0:0,0:0:0:0:
242,232,145364,2,0,L|330:240,1,77.0000023498536,2|0,0:0|0:0,0:0:0:0:
392,315,145751,2,0,L|480:307,1,77.0000023498536,2|0,0:0|0:0,0:0:0:0:
468,308,146138,1,2,0:0:0:0:
196,152,146526,38,0,P|157:196|176:297,1,154.000004699707,2|0,3:2|0:0,0:0:0:0:
282,146,147106,2,0,P|301:85|265:2,1,154.000004699707,2|0,3:2|0:0,0:0:0:0:
171,66,147687,2,0,P|136:74|84:66,1,77.0000023498536,2|0,0:0|0:0,0:0:0:0:
0,19,148074,1,0,0:0:0:0:
18,131,148267,2,0,L|10:218,1,77.0000023498536,8|2,0:0|0:0,0:0:0:0:
31,316,148655,1,0,3:0:0:0:
115,250,148848,1,2,0:0:0:0:
115,250,149235,22,0,P|156:257|220:245,1,77.0000023498536,2|0,0:0|3:0,0:0:0:0:
315,190,149622,2,0,P|279:179|240:187,1,77.0000023498536,0|2,0:0|0:0,0:0:0:0:
354,264,150009,2,0,L|520:271,2,154.000004699707,10|2|2,0:0|0:0|0:0,0:0:0:0:
439,152,151171,22,0,P|451:107|419:4,1,154.000004699707,6|0,3:2|0:0,0:0:0:0:
264,30,151751,2,0,P|252:75|284:178,1,154.000004699707,10|0,0:2|0:0,0:0:0:0:
377,272,152332,2,0,P|336:269|290:282,1,77.0000023498536,2|0,0:0|0:0,0:0:0:0:
210,346,152719,1,0,3:0:0:0:
123,288,152913,2,0,L|110:199,1,77.0000023498536,8|0,0:0|0:0,0:0:0:0:
100,116,153300,1,8,0:0:0:0:
198,159,153493,6,0,P|252:167|360:134,1,154.000004699707,2|0,0:0|0:0,0:0:0:0:
411,69,154074,1,0,0:0:0:0:
439,162,154267,1,0,0:0:0:0:
509,89,154461,1,0,0:0:0:0:
462,250,154655,6,0,P|414:251|371:222,1,77.0000023498536,2|0,0:0|0:0,0:0:0:0:
299,365,155042,2,0,P|322:322|368:300,1,77.0000023498536,2|0,0:0|0:0,0:0:0:0:
280,166,155429,2,0,P|304:207|301:258,1,77.0000023498536,2|0,3:2|0:0,0:0:0:0:
149,258,155816,22,0,L|142:98,1,154.000004699707,2|0,0:0|0:0,0:0:0:0:
241,64,156397,2,0,P|250:102|239:145,1,77.0000023498536,0|0,3:0|0:0,0:0:0:0:
159,11,156784,1,0,0:0:0:0:
338,24,156977,2,0,L|414:30,1,77.0000023498536,2|0,0:0|0:0,0:0:0:0:
464,118,157364,1,0,0:0:0:0:
411,198,157558,2,0,L|335:192,1,77.0000023498536,0|0,0:0|0:0,0:0:0:0:
152,176,158138,6,0,P|89:217|17:196,1,154.000004699707,2|0,0:0|0:0,0:0:0:0:
0,78,158719,2,0,P|63:37|135:58,1,154.000004699707,8|0,2:2|0:0,0:0:0:0:
258,123,159300,38,0,L|251:205,1,77.0000023498536,2|0,0:0|0:0,0:0:0:0:
330,271,159687,2,0,L|323:347,1,77.0000023498536,2|8,3:2|3:2,0:0:0:0:
216,368,160074,1,2,3:2:0:0:
216,368,160267,1,0,3:2:0:0:
101,288,160461,6,0,L|93:177,1,90.9999958343508,6|0,0:0|0:0,0:0:0:0:
82,71,160848,1,0,0:0:0:0:
84,77,161042,1,8,0:0:0:0:
190,131,161235,1,2,0:0:0:0:
192,125,161429,1,0,0:0:0:0:
279,44,161622,38,0,L|378:48,1,90.9999958343508,2|0,0:0|0:0,0:0:0:0:
473,89,162009,2,0,P|480:45|470:1,1,90.9999958343508,0|0,0:0|3:0,0:0:0:0:
384,153,162397,1,2,0:0:0:0:
385,160,162590,1,0,0:0:0:0:
431,271,162784,6,0,P|379:281|318:264,1,90.9999958343508,2|0,0:0|0:0,0:0:0:0:
230,219,163171,1,0,0:0:0:0:
232,225,163365,1,8,0:0:0:0:
122,279,163558,1,2,0:0:0:0:
124,273,163752,1,0,0:0:0:0:
22,175,163945,38,0,L|13:270,1,90.9999958343508,2|0,0:0|0:0,0:0:0:0:
140,193,164332,2,0,L|131:98,1,90.9999958343508,0|0,0:0|3:0,0:0:0:0:
37,15,164719,1,2,0:0:0:0:
46,17,164913,1,0,3:0:0:0:
196,14,165106,6,0,P|237:21|316:-7,1,90.9999958343508,2|0,0:0|0:0,0:0:0:0:
178,158,165493,2,0,P|163:118|99:64,1,90.9999958343508,0|8,0:0|0:0,0:0:0:0:
312,102,165880,2,0,P|285:134|270:216,1,90.9999958343508,2|0,0:0|0:0,0:0:0:0:
339,294,166267,1,2,0:0:0:0:
342,286,166461,1,0,0:0:0:0:
213,346,166655,1,0,0:0:0:0:
216,354,166849,1,0,3:0:0:0:
100,289,167042,2,0,L|-1:294,1,90.9999958343508,2|0,0:0|0:0,0:0:0:0:
146,177,167429,6,0,L|247:182,1,90.9999958343508,2|8,0:0|0:0,0:0:0:0:
411,93,167816,2,0,L|310:98,1,90.9999958343508,0|0,0:2|3:2,0:0:0:0:
244,11,168203,1,2,3:2:0:0:
247,2,168397,1,0,0:2:0:0:
101,13,168590,6,0,L|110:133,1,90.9999958343508,2|0,3:2|0:2,0:0:0:0:
216,158,168977,2,0,L|213:206,2,45.4999979171754,2|0|0,3:2|3:0|3:0,0:0:0:0:
249,281,169364,2,0,P|205:287|153:266,1,90.9999958343508,2|0,0:0|2:0,0:0:0:0:
377,228,169751,6,0,L|368:355,1,90.9999958343508,6|0,0:0|0:0,0:0:0:0:
479,232,170138,1,0,0:0:0:0:
484,225,170332,1,8,0:0:0:0:
419,128,170526,1,2,0:0:0:0:
414,121,170720,1,0,0:0:0:0:
273,127,170913,6,0,P|273:82|297:44,1,90.9999958343508,2|0,0:0|0:0,0:0:0:0:
317,193,171300,2,0,P|356:216|377:255,1,90.9999958343508,0|8,0:0|0:0,0:0:0:0:
236,196,171687,2,0,P|197:218|151:218,1,90.9999958343508,2|0,0:0|0:0,0:0:0:0:
33,173,172074,1,2,0:0:0:0:
35,165,172267,1,0,3:0:0:0:
103,49,172461,1,0,0:0:0:0:
101,41,172654,1,8,3:2:0:0:
185,162,172848,2,0,L|283:159,1,90.9999958343508,2|0,0:0|0:0,0:0:0:0:
375,207,173235,38,0,P|387:153|380:113,1,90.9999958343508,2|0,0:0|0:0,0:0:0:0:
328,45,173622,2,0,P|274:33|234:40,1,90.9999958343508,0|0,0:0|3:0,0:0:0:0:
154,146,174009,1,2,3:2:0:0:
161,151,174203,1,0,3:0:0:0:
228,259,174397,6,0,P|274:271|321:254,1,90.9999958343508,2|0,3:2|2:2,0:0:0:0:
372,99,174784,2,0,P|338:132|329:182,1,90.9999958343508,2|0,2:2|3:2,0:0:0:0:
438,303,175171,2,0,P|425:257|387:224,1,90.9999958343508,2|0,3:2|2:2,0:0:0:0:
275,323,175558,38,0,L|169:331,1,90.9999958343508,2|0,0:0|0:0,0:0:0:0:
76,340,175945,1,0,0:0:0:0:
117,252,176138,2,0,L|108:156,2,90.9999958343508,8|2|2,0:0|3:2|0:0,0:0:0:0:
235,237,176719,6,0,P|287:229|340:253,1,90.9999958343508,2|0,0:0|0:0,0:0:0:0:
415,289,177106,1,0,0:0:0:0:
413,181,177300,2,0,L|425:78,2,90.9999958343508,0|2|0,3:2|3:2|0:0,0:0:0:0:
302,89,177880,38,0,P|252:98|195:77,1,90.9999958343508,2|0,0:0|0:0,0:0:0:0:
107,42,178267,1,0,0:0:0:0:
120,158,178461,2,0,L|116:258,2,90.9999958343508,8|10|10,0:0|0:0|0:0,0:0:0:0:
183,330,179042,22,0,P|117:352|27:305,2,154.000004699707,4|0|0,0:0|0:0|0:0,0:0:0:0:
183,330,180203,1,2,0:0:0:0:
29,221,190655,54,0,P|92:238|144:222,1,112,2|2,0:0|0:0,0:0:0:0:
197,157,191235,1,2,0:0:0:0:
197,157,191816,6,0,L|278:165,1,56,2|0,0:0|0:0,0:0:0:0:
336,129,192203,2,0,L|417:137,1,56,2|0,0:0|0:0,0:0:0:0:
475,101,192590,1,2,0:0:0:0:
475,101,192977,38,0,L|481:183,1,56,0|2,0:0|0:0,0:0:0:0:
479,156,193558,2,0,L|475:212,1,56,0|0,0:0|0:0,0:0:0:0:
475,211,194138,1,2,0:0:0:0:
382,309,194526,2,0,L|388:348,2,28,0|0|0,3:0|0:0|0:0,0:0:0:0:
376,283,194913,1,0,3:0:0:0:
230,279,195300,22,0,P|198:276|164:293,1,56,2|0,0:0|0:0,0:0:0:0:
96,346,195687,1,0,0:0:0:0:
96,346,196461,6,0,L|85:269,1,56,0|0,0:0|0:0,0:0:0:0:
74,198,196848,1,0,0:0:0:0:
74,198,197622,38,0,P|106:201|140:184,1,56,0|2,0:0|0:0,0:0:0:0:
208,131,198009,1,2,0:0:0:0:
208,131,198784,6,0,L|325:143,1,112,2|8,0:0|3:2,0:0:0:0:
319,142,199558,1,10,3:2:0:0:
365,234,199945,38,0,P|415:180|402:83,1,154.000004699707,4|0,3:2|0:0,0:0:0:0:
266,232,200526,2,0,L|276:329,1,77.0000023498536,2|0,3:2|0:0,0:0:0:0:
273,308,200913,1,0,0:0:0:0:
141,253,201106,2,0,P|65:246|-8:291,1,154.000004699707,2|0,0:0|0:0,0:0:0:0:
57,168,201687,2,0,P|71:130|64:85,1,77.0000023498536,8|2,0:0|0:0,0:0:0:0:
2,13,202074,1,0,3:0:0:0:
160,47,202267,6,0,L|331:40,1,154.000004699707,2|0,3:2|0:0,0:0:0:0:
483,126,202848,2,0,L|406:129,1,77.0000023498536,8|0,0:0|0:0,0:0:0:0:
406,128,203234,1,0,0:0:0:0:
295,253,203429,38,0,P|329:271|392:274,1,77.0000023498536,2|0,0:0|0:0,0:0:0:0:
326,113,203816,2,0,P|292:133|258:187,1,77.0000023498536,2|0,0:0|0:0,0:0:0:0:
430,209,204203,2,0,P|428:169|398:112,1,77.0000023498536,2|0,0:0|0:0,0:0:0:0:
226,81,204590,6,0,B|117:91|117:91|139:97|153:117,1,154.000004699707,2|0,3:2|0:0,0:0:0:0:
122,254,205171,2,0,B|90:282|62:287|33:280|9:254|9:254|69:248,1,154.000004699707,2|0,3:2|0:0,0:0:0:0:
224,238,205751,2,0,P|267:250|300:276,1,77.0000023498536,2|0,0:0|0:0,0:0:0:0:
332,353,206138,1,0,0:0:0:0:
391,275,206332,2,0,L|396:169,1,77.0000023498536,8|2,0:0|0:0,0:0:0:0:
364,106,206719,1,0,3:0:0:0:
460,122,206913,1,2,0:0:0:0:
460,122,207300,6,0,P|470:79|455:19,1,77.0000023498536,0|0,0:0|3:0,0:0:0:0:
319,181,207687,2,0,P|357:191|395:188,1,77.0000023498536,0|0,0:0|0:0,0:0:0:0:
247,129,208074,2,0,L|79:140,2,154.000004699707,10|2|2,3:2|0:0|0:0,0:0:0:0:
170,305,209235,38,0,B|132:320|99:303|99:303|73:330|23:317,1,154.000004699707,4|0,3:2|0:0,0:0:0:0:
220,227,209816,2,0,B|266:254|264:310|264:310|276:274|321:264,1,154.000004699707,2|0,3:2|0:0,0:0:0:0:
412,251,210397,38,0,P|458:255|496:288,1,77.0000023498536,2|0,0:0|0:0,0:0:0:0:
510,354,210784,1,0,0:0:0:0:
421,332,210977,2,0,L|334:341,1,77.0000023498536,2|0,3:2|0:0,0:0:0:0:
344,339,211364,1,0,0:0:0:0:
395,216,211558,6,0,P|409:167|370:58,1,154.000004699707,2|0,0:0|0:0,0:0:0:0:
276,31,212138,1,0,0:0:0:0:
291,133,212332,1,0,0:0:0:0:
191,98,212526,1,0,0:0:0:0:
190,275,212719,38,0,P|170:308|123:324,1,77.0000023498536,2|0,0:0|0:0,0:0:0:0:
189,179,213106,2,0,P|226:179|258:201,1,77.0000023498536,2|0,0:0|0:0,0:0:0:0:
107,227,213493,2,0,P|88:193|91:156,1,77.0000023498536,2|0,0:0|0:0,0:0:0:0:
197,26,213880,6,0,L|190:179,1,154.000004699707,2|0,0:0|0:0,0:0:0:0:
288,221,214461,2,0,P|296:183|289:146,1,77.0000023498536,0|0,3:0|0:0,0:0:0:0:
207,273,214848,1,0,0:0:0:0:
386,260,215041,2,0,L|462:254,1,77.0000023498536,2|0,0:0|0:0,0:0:0:0:
512,166,215428,1,0,3:0:0:0:
459,86,215622,2,0,L|383:92,1,77.0000023498536,0|0,0:0|0:0,0:0:0:0:
204,55,216203,6,0,P|132:34|69:75,1,154.000004699707,2|0,0:0|0:0,0:0:0:0:
87,194,216784,2,0,P|158:214|221:173,1,154.000004699707,0|0,3:0|0:0,0:0:0:0:
306,92,217364,2,0,P|346:85|397:99,1,77.0000023498536,2|0,0:0|0:0,0:0:0:0:
447,172,217751,2,0,P|453:212|440:263,1,77.0000023498536,2|8,0:0|0:0,0:0:0:0:
367,356,218138,1,0,3:0:0:0:
367,356,218332,1,0,3:2:0:0:
236,264,218526,37,4,3:2:0:0:
235,276,218719,1,2,3:2:0:0:
112,384,219106,37,0,3:0:0:0:
111,372,219299,1,2,3:2:0:0:
4,252,219687,5,0,3:0:0:0:
3,264,219880,1,2,3:2:0:0:
116,200,220074,1,8,1:2:0:0:
9,112,220267,2,0,L|4:69,2,38.5000011749268,0|0|0,1:0|1:0|1:0,0:0:0:0:
14,147,220655,1,0,1:0:0:0:
148,79,220848,38,0,L|151:-7,2,77.0000023498536,0|2|0,3:0|3:2|0:0,0:0:0:0:
230,163,221429,2,0,L|227:249,2,77.0000023498536,0|2|0,3:0|3:2|0:0,0:0:0:0:
265,324,222009,2,0,P|223:331|169:308,1,77.0000023498536,0|2,3:0|3:2,0:0:0:0:
135,244,222397,1,8,1:2:0:0:
135,244,222590,1,0,1:0:0:0:
49,340,222784,1,8,1:2:0:0:
4,182,222977,6,0,L|-3:127,2,38.5000011749268,0|0|0,1:0|1:0|1:0,0:0:0:0:
9,217,223364,1,2,3:2:0:0:
104,66,223751,37,0,3:0:0:0:
104,58,223944,1,2,3:2:0:0:
209,164,224332,5,0,3:0:0:0:
215,160,224525,1,2,3:2:0:0:
236,47,224719,1,10,2:2:0:0:
362,118,224913,2,0,L|422:122,2,38.5000011749268,0|0|8,1:0|1:0|1:2,0:0:0:0:
334,117,225300,1,0,1:0:0:0:
478,186,225493,22,0,P|498:125|460:43,1,154.000004699707,2|0,3:2|2:2,0:0:0:0:
317,115,226074,2,0,L|322:195,2,77.0000023498536,2|0|0,3:2|3:2|2:2,0:0:0:0:
165,73,226655,38,0,B|182:38|176:-1|130:-24|85:7|93:49|93:49|66:21|28:16|-6:52|8:105|50:109|50:109|17:127|0:162|24:207|77:209|96:170|96:170|100:206|129:234|178:226|197:175|165:145|165:145|201:150|236:133|242:85|213:63|171:68,1,806.4,4|0,0:0|0:0,0:0:0:0:
