osu file format v14

[General]
AudioFilename: audio.mp3
AudioLeadIn: 0
PreviewTime: 141590
Countdown: 0
SampleSet: Soft
StackLeniency: 1
Mode: 0
LetterboxInBreaks: 0
WidescreenStoryboard: 0

[Editor]
DistanceSpacing: 1
BeatDivisor: 6
GridSize: 8
TimelineZoom: 2.3

[Metadata]
Title:syncretism
TitleUnicode:syncretism
Artist:Annabel
ArtistUnicode:Annabel
Creator:Sulfur
Version:Insane
Source:Hybrid Child
Tags:Kaine Su1fu7 riya 拓植敏道 シンクレティズム OVA BL yaoi boys love theme shounen ai
BeatmapID:1483165
BeatmapSetID:700584

[Difficulty]
HPDrainRate:5
CircleSize:3.8
OverallDifficulty:7.4
ApproachRate:8.2
SliderMultiplier:1.4
SliderTickRate:1

[Events]
//Background and Video events
0,0,"anime.jpg",0,0
//Break Periods
2,84716,93548
2,139951,140967
2,181564,189935
//Storyboard Layer 0 (Background)
//Storyboard Layer 1 (Fail)
//Storyboard Layer 2 (Pass)
//Storyboard Layer 3 (Foreground)
//Storyboard Sound Samples

[TimingPoints]
910,387.096774193548,3,2,1,40,1,0
910,-166.666666666667,3,2,1,40,0,0
10200,-125,3,2,1,40,0,0
13684,-166.666666666667,3,2,1,40,0,0
14845,-125,3,2,1,40,0,0
19491,-166.666666666667,3,2,1,50,0,0
47361,-142.857142857143,3,2,1,50,0,0
49684,-125,3,2,1,50,0,0
54329,-142.857142857143,3,2,1,50,0,0
56651,-100,3,2,1,60,0,1
74458,-100,3,2,1,60,0,0
75232,-100,3,2,1,60,0,1
84917,389.61038961039,3,2,1,60,1,0
94268,387.096774193548,3,2,1,50,1,0
94268,-166.666666666667,3,2,1,50,0,0
98913,-142.857142857143,3,2,1,50,0,0
141687,-100,3,2,1,60,0,0
141880,-100,3,2,1,60,0,1
160461,-100,3,2,1,60,0,0
179042,-142.857142857143,3,2,1,60,0,0
190655,-142.857142857143,3,2,1,45,0,0
199945,-100,3,2,1,60,0,1
217751,-100,3,2,1,60,0,0
218526,-100,3,2,1,60,0,1
226655,-100,3,2,1,60,0,0

[Colours]
Combo1 : 255,215,94
Combo2 : 166,166,210
Combo3 : 174,255,255
Combo4 : 255,176,138

[HitObjects]
267,259,910,6,0,B|201:239|142:290,1,125.999996154785,2|0,0:0|0:0,0:0:0:0:
424,352,2071,2,0,P|496:337|468:270,1,167.999994873047,2|0,0:0|0:0,0:0:0:0:
496,136,3232,6,0,P|435:153|374:143,1,125.999996154785,2|0,0:0|0:0,0:0:0:0:
256,272,4200,1,0,0:0:0:0:
264,296,4394,2,0,P|299:321|336:340,2,83.9999974365235,2|0|0,0:0|0:0|0:0,0:0:0:0:
96,369,5555,6,0,P|47:329|20:273,1,125.999996154785,2|0,0:0|0:0,0:0:0:0:
112,176,6523,1,0,0:0:0:0:
134,188,6716,2,0,P|183:228|210:284,2,125.999996154785,2|0|2,0:0|0:0|0:0,0:0:0:0:
200,90,8265,6,0,P|220:96|240:100,1,41.9999987182618
319,23,8652,2,0,P|298:59|274:94,1,83.9999974365235,2|0,0:0|0:0,0:0:0:0:
306,233,9426,2,0,P|325:196|348:161,1,83.9999974365235,2|0,0:0|0:0,0:0:0:0:
397,362,10200,5,2,0:3:0:0:
397,362,10587,2,0,L|341:355,1,56,2|0,0:0|0:0,0:0:0:0:
257,303,10974,2,0,L|201:309,1,56,2|0,0:0|0:0,0:0:0:0:
85,186,11361,5,2,0:3:0:0:
85,186,11749,2,0,L|140:192,1,56,2|0,0:0|0:0,0:0:0:0:
220,99,12136,1,2,0:0:0:0:
473,124,12523,5,2,0:3:0:0:
472,124,12910,2,0,P|473:151|472:179,1,56,2|0,0:0|0:0,0:0:0:0:
471,179,13491,1,2,0:0:0:0:
448,254,13684,2,0,L|364:256,2,83.9999974365235,2|0|0,0:3|0:0|0:3,0:0:0:0:
474,116,14845,6,0,P|446:111|405:94,1,56,2|0,0:0|0:0,0:0:0:0:
339,37,15232,2,0,P|366:32|407:15,1,56,0|0,0:0|0:0,0:0:0:0:
107,142,16007,6,0,P|112:114|129:73,1,56,2|0,0:0|0:0,0:0:0:0:
186,7,16394,2,0,P|191:34|208:75,1,56,0|0,0:0|0:0,0:0:0:0:
184,336,17168,6,0,P|156:331|115:314,1,56,2|0,0:0|0:0,0:0:0:0:
66,239,17555,2,0,P|93:234|134:217,1,56,0|0,0:0|0:0,0:0:0:0:
413,339,18329,6,0,B|412:314|412:314|417:283,1,56,0|0,3:3|0:0,0:3:0:0:
436,154,18716,2,0,L|371:143,1,56,0|0,3:3|0:0,0:3:0:0:
224,176,19103,1,8,3:2:0:0:
192,19,19297,1,0,3:3:0:0:
130,119,19491,6,0,P|117:155|142:251,1,125.999996154785,0|2,0:0|0:0,0:0:0:0:
197,285,20265,1,0,0:0:0:0:
354,295,20652,1,0,0:0:0:0:
354,295,21039,1,2,0:0:0:0:
16,339,21813,6,0,P|67:345|150:318,1,125.999996154785,0|2,0:0|0:0,0:0:0:0:
203,283,22587,1,0,0:0:0:0:
60,124,22974,1,2,0:0:0:0:
71,205,23361,1,2,0:0:0:0:
369,37,24136,6,0,P|306:31|243:36,1,125.999996154785,2|0,0:0|0:0,0:0:0:0:
189,105,24910,2,0,P|162:114|136:119,1,41.9999987182618,0|0,0:0|0:0,0:0:0:0:
103,48,25297,2,0,B|116:106|116:106|105:171,1,125.999996154785,2|0,0:0|0:0,0:0:0:0:
28,268,26071,2,0,P|55:277|81:282,1,41.9999987182618
158,231,26458,6,0,P|200:230|152:299,1,167.999994873047,2|0,0:0|0:0,0:0:0:0:
289,167,27620,2,0,L|349:170,1,41.9999987182618,2|0,0:0|0:0,0:0:0:0:
374,97,28007,2,0,L|339:75,1,41.9999987182618,2|0,0:0|0:0,0:0:0:0:
427,19,28394,2,0,L|447:57,1,41.9999987182618,2|0,0:0|0:0,0:0:0:0:
480,163,28781,6,0,B|507:202|506:234|506:234|489:267|494:292,1,125.999996154785,2|0,0:0|0:0,0:0:0:0:
412,317,29555,2,0,P|370:320|325:351,1,83.9999974365235,0|2,0:0|0:0,0:0:0:0:
334,340,30329,2,0,P|329:306|323:287,1,41.9999987182618,0|0,0:0|0:0,0:0:0:0:
262,213,30716,1,2,0:0:0:0:
44,39,31103,6,0,B|72:64|81:107|81:107|98:87|83:55,1,125.999996154785,2|0,0:0|0:0,0:0:0:0:
167,128,31878,2,0,P|177:88|171:47,1,83.9999974365235,0|2,0:0|0:0,0:0:0:0:
170,46,32652,2,0,L|226:54,1,41.9999987182618
300,64,33039,1,2,0:0:0:0:
420,350,33426,6,0,P|367:371|260:319,1,167.999994873047,2|0,0:0|0:0,0:0:0:0:
423,176,34587,1,2,0:0:0:0:
423,176,34974,2,0,P|365:152|290:175,1,125.999996154785
355,261,35748,5,2,3:0:0:0:
283,293,35942,1,0,3:0:0:0:
193,288,36136,1,2,3:0:0:0:
113,236,36329,1,0,3:0:0:0:
72,143,36523,1,2,3:0:0:0:
92,35,36716,1,0,3:0:0:0:
100,141,36909,2,0,P|84:156|68:169,1,41.9999987182618,2|0,3:0|3:2,0:2:0:0:
8,264,37297,2,0,P|14:290|16:311,1,41.9999987182618,10|0,3:2|3:2,0:2:0:0:
168,304,37684,2,0,P|171:283|176:263,1,41.9999987182618,2|0,3:0|0:0,0:0:0:0:
256,169,38071,5,4,0:0:0:0:
256,169,38458,1,0,0:0:0:0:
281,183,38652,1,2,0:0:0:0:
308,193,38845,2,0,P|344:198|368:193,1,41.9999987182618
492,162,39232,2,0,P|476:148|458:136,1,41.9999987182618,0|0,0:0|0:0,0:0:0:0:
370,111,39620,1,2,0:0:0:0:
384,131,39813,1,0,3:0:0:0:
427,212,40007,1,2,0:0:0:0:
395,298,40200,1,0,3:0:0:0:
508,339,40394,5,2,0:0:0:0:
508,339,40781,1,0,0:0:0:0:
483,353,40975,1,2,0:0:0:0:
456,363,41168,2,0,P|420:368|396:363,1,41.9999987182618
329,330,41555,2,0,P|286:318|273:317,1,41.9999987182618,0|0,0:0|0:0,0:0:0:0:
198,353,41942,1,2,0:0:0:0:
198,353,42136,1,0,3:0:0:0:
127,287,42329,1,2,0:0:0:0:
153,193,42523,1,0,3:0:0:0:
33,160,42716,6,0,P|62:106|89:87,1,83.9999974365235,2|0,0:0|0:0,0:0:0:0:
262,133,43297,2,0,P|237:99|202:78,1,83.9999974365235,0|0,3:0|0:0,0:0:0:0:
157,197,43878,1,0,0:0:0:0:
157,197,44265,2,0,L|186:239,1,41.9999987182618,0|0,3:0|0:0,0:0:0:0:
264,288,44652,1,0,0:0:0:0:
364,282,44845,1,0,0:0:0:0:
455,141,45039,6,0,P|446:188|448:239,1,83.9999974365235,2|0,0:0|0:0,0:0:0:0:
364,282,45620,2,0,P|363:240|355:198,1,83.9999974365235,0|0,0:0|0:0,0:0:0:0:
391,63,46200,2,0,P|363:79|341:86,1,41.9999987182618,2|0,3:2|0:0,0:0:0:0:
262,72,46587,2,0,P|235:70|211:74,1,41.9999987182618
157,119,46974,2,0,P|130:121|106:117,1,41.9999987182618
200,296,47361,6,0,P|175:254|129:238,1,97.9999970092774,2|0,0:0|0:0,0:0:0:0:
129,380,47942,2,0,P|83:363|58:322,1,97.9999970092774,0|0,0:0|0:0,0:0:0:0:
9,174,48523,1,2,0:0:0:0:
9,174,48910,2,0,P|16:150|22:127,1,48.9999985046387,0|0,0:0|3:0,0:0:0:0:
8,27,49297,1,0,3:0:0:0:
3,37,49491,1,0,3:0:0:0:
134,116,49684,6,0,P|187:134|243:132,1,112,2|0,0:0|0:0,0:0:0:0:
310,244,50265,1,2,0:0:0:0:
310,244,50652,1,2,0:0:0:0:
361,131,50844,1,2,0:0:0:0:
361,131,51232,2,0,P|388:134|415:142,1,56,0|0,0:0|3:0,0:0:0:0:
397,264,51620,2,0,P|368:257|341:245,1,56,0|0,3:0|0:0,0:0:0:0:
512,217,52007,6,0,P|521:266|448:377,1,168,2|0,0:0|0:0,0:0:0:0:
264,354,52974,1,0,0:0:0:0:
264,354,53168,2,0,P|240:350|202:353,1,56,2|0,0:0|0:0,0:0:0:0:
124,363,53555,2,0,P|127:339|127:298,1,56
61,268,53942,2,0,P|51:246|41:208,1,56,0|0,0:0|0:0,0:0:0:0:
59,118,54329,6,0,P|62:164|132:85,1,244.999992523194
83,18,55491,2,2,L|86:35,3,16.3333328348796,2|2|2|2,0:2|0:2|0:2|0:2,0:2:0:0:
112,137,55878,2,0,P|140:138|173:147,1,48.9999985046387,0|0,3:0|3:0,0:0:0:0:
238,202,56265,1,8,3:2:0:0:
335,198,56458,1,0,1:0:0:0:
491,384,56652,6,0,P|435:296|448:209,1,175,4|0,3:2|0:0,0:0:0:0:
439,228,57232,2,0,P|477:189|492:154,1,70,2|0,3:2|0:0,0:0:0:0:
512,0,57620,1,0,0:0:0:0:
462,86,57813,2,0,P|428:97|370:106,1,70
279,74,58200,1,0,0:0:0:0:
252,223,58394,2,0,P|232:193|215:163,1,70,8|0,0:0|0:0,0:0:0:0:
288,48,58781,1,8,0:0:0:0:
48,84,58974,6,0,P|47:152|85:210,1,140,2|0,3:2|0:0,0:0:0:0:
184,280,59555,1,8,0:0:0:0:
184,280,59942,1,0,0:0:0:0:
426,222,60136,2,0,P|455:265|461:317,1,105,2|0,3:2|0:0,0:0:0:0:
461,317,60523,2,0,P|405:315|326:375,1,140,2|2,3:2|0:0,0:0:0:0:
78,17,61297,6,0,P|42:79|46:153,1,140,2|0,0:0|0:0,0:0:0:0:
83,236,61877,1,2,3:2:0:0:
264,152,62264,1,0,0:0:0:0:
312,248,62458,2,0,P|257:292|200:331,1,140,2|0,0:0|0:0,0:0:0:0:
109,383,63039,1,8,0:0:0:0:
109,383,63232,2,0,L|33:379,1,70,0|0,3:2|0:0,0:0:0:0:
87,230,63619,5,2,0:0:0:0:
87,230,64007,1,0,0:0:0:0:
109,203,64200,1,0,3:0:0:0:
129,174,64394,2,0,P|137:135|135:102,1,70
376,32,64781,2,0,P|349:95|359:153,1,105,10|0,3:2|0:0,0:0:0:0:
351,130,65168,2,0,P|396:151|418:183,1,70,2|0,0:0|0:0,0:0:0:0:
345,280,65555,2,0,P|312:268|287:244,1,70,2|0,0:0|0:0,0:0:0:0:
0,384,65942,6,0,B|10:353|31:328|31:328|35:290|19:235,1,140,6|0,0:0|0:0,0:0:0:0:
3,146,66523,1,2,0:0:0:0:
3,146,66910,1,0,0:0:0:0:
4,7,67103,2,0,P|44:63|102:103,1,140,2|0,0:0|0:0,0:0:0:0:
205,86,67684,1,8,0:0:0:0:
266,171,67878,2,0,P|247:222|213:251,1,70,0|0,0:0|0:0,0:0:0:0:
116,279,68265,6,0,P|184:265|264:376,1,210,2|0,0:0|3:0,0:0:0:0:
170,361,69039,2,0,P|186:308|218:278,1,70,2|0,0:0|0:0,0:0:0:0:
400,339,69426,2,0,L|502:328,1,70,2|0,0:0|0:0,0:0:0:0:
484,196,69813,2,0,P|456:218|415:229,1,70,2|0,3:2|0:0,0:0:0:0:
339,306,70200,2,0,P|367:328|408:339,1,70,2|0,3:2|0:0,0:0:0:0:
409,124,70587,6,0,P|344:55|234:63,1,210,2|0,3:2|3:0,0:0:0:0:
203,159,71361,2,0,P|204:193|213:227,1,70
103,303,71748,2,0,P|110:268|110:234,1,70
30,184,72136,1,0,3:0:0:0:
30,184,72329,1,8,0:0:0:0:
123,88,72523,2,0,P|76:82|36:99,1,70
179,0,72910,6,0,P|227:30|386:31,1,210,0|0,0:0|3:0,0:0:0:0:
510,67,73684,2,0,P|463:101|455:114,1,70
468,295,74071,1,8,3:2:0:0:
468,295,74458,2,2,L|478:341,2,35,2|2|2,3:2|3:2|3:2,3:2:0:0:
377,346,74845,1,8,0:0:0:0:
286,291,75039,1,0,3:0:0:0:
467,183,75232,5,4,3:2:0:0:
487,28,75426,1,2,3:2:0:0:
321,29,75813,5,0,3:2:0:0:
476,49,76007,1,2,3:2:0:0:
177,30,76393,5,0,3:2:0:0:
332,50,76587,1,2,3:2:0:0:
244,119,76781,1,8,0:0:0:0:
238,238,76974,1,0,1:0:0:0:
238,238,77071,1,0,1:0:0:0:
238,238,77168,1,8,1:2:0:0:
225,350,77361,1,0,1:0:0:0:
24,384,77555,5,0,3:2:0:0:
4,229,77749,1,2,3:2:0:0:
35,95,78136,5,0,3:2:0:0:
15,250,78330,1,2,3:2:0:0:
201,94,78716,5,0,3:2:0:0:
46,74,78910,1,2,3:2:0:0:
113,161,79103,1,8,0:0:0:0:
134,7,79297,1,0,1:0:0:0:
201,94,79491,1,8,0:0:0:0:
121,168,79684,1,0,1:0:0:0:
121,168,79781,1,0,1:0:0:0:
121,168,79878,5,8,1:2:0:0:
241,297,80071,1,2,3:2:0:0:
402,351,80458,5,0,3:2:0:0:
230,318,80651,1,2,3:2:0:0:
380,158,81039,5,0,3:2:0:0:
413,330,81232,1,2,3:2:0:0:
456,224,81426,5,8,0:0:0:0:
347,255,81619,1,0,1:0:0:0:
347,255,81716,1,0,1:0:0:0:
347,255,81813,1,0,1:0:0:0:
380,158,82007,1,0,1:0:0:0:
277,33,82200,5,2,3:2:0:0:
408,168,82394,2,0,P|444:164|475:149,1,70,0|0,3:0|0:0,0:0:0:0:
387,1,82781,1,2,3:2:0:0:
256,136,82974,2,0,P|222:122|195:100,1,70,0|0,3:0|0:0,0:0:0:0:
0,152,83361,5,4,0:0:0:0:
137,126,94268,5,2,0:3:0:0:
137,126,94655,2,0,P|137:159|137:177,1,41.9999987182618,2|0,0:0|0:0,0:0:0:0:
183,250,95042,2,0,P|174:281|169:299,1,41.9999987182618,0|0,0:0|0:0,0:0:0:0:
104,366,95429,5,2,0:3:0:0:
104,366,95816,2,0,P|130:364|159:365,1,41.9999987182618,2|0,0:0|0:0,0:0:0:0:
236,365,96203,1,2,0:0:0:0:
371,181,96590,5,2,0:3:0:0:
371,181,96977,2,0,P|357:157|347:134,1,41.9999987182618,2|0,0:0|0:0,0:0:0:0:
351,144,97558,1,2,0:0:0:0:
250,166,97751,2,0,L|243:118,1,41.9999987182618,2|0,0:3|0:0,0:0:0:0:
248,38,98138,2,0,B|265:39|288:46|288:46|309:37|335:35,1,83.9999974365235,0|0,3:0|3:0,0:0:0:0:
473,247,98913,6,0,P|442:257|426:264,1,48.9999985046387,2|0,0:0|0:0,0:0:0:0:
387,335,99300,2,0,P|345:329|280:328,1,97.9999970092774,0|0,0:0|0:0,0:0:0:0:
7,190,100074,6,0,P|30:182|53:173,1,48.9999985046387,2|0,0:0|0:0,0:0:0:0:
101,100,100461,2,0,P|101:148|108:197,1,97.9999970092774,0|0,0:0|0:0,0:0:0:0:
354,86,101235,6,0,P|330:93|307:102,1,48.9999985046387,2|0,0:0|0:0,0:0:0:0:
265,177,101622,2,0,P|264:128|257:79,1,97.9999970092774,0|0,0:0|0:0,0:0:0:0:
170,10,102203,1,0,0:0:0:0:
177,125,102397,6,0,L|179:145,3,16.3333328348796
91,68,102784,2,0,L|27:62,1,48.9999985046387
4,164,103171,1,8,3:2:0:0:
16,275,103364,1,0,3:0:0:0:
212,262,103558,6,0,P|144:286|105:347,1,146.999995513916,4|0,0:0|0:0,0:0:0:0:
214,373,104332,2,0,P|247:379|280:368,1,48.9999985046387,0|0,0:0|0:0,0:0:0:0:
366,333,104719,1,2,0:0:0:0:
366,333,105106,2,0,L|362:267,1,48.9999985046387,0|0,0:0|3:0,0:0:0:0:
449,250,105493,2,0,L|453:184,1,48.9999985046387,0|0,3:0|0:0,0:0:0:0:
379,93,105880,6,0,P|439:131|453:201,1,146.999995513916,2|0,0:0|0:0,0:0:0:0:
383,277,106655,2,0,P|342:280|319:281,1,48.9999985046387
223,247,107042,1,2,0:0:0:0:
271,45,107429,2,0,P|248:77|234:91,1,48.9999985046387,2|0,0:0|3:0,0:0:0:0:
153,54,107816,2,0,P|149:93|143:112,1,48.9999985046387,0|0,3:0|0:0,0:0:0:0:
34,32,108203,6,0,P|83:33|148:121,1,146.999995513916
166,208,108977,2,0,P|167:243|162:272,1,48.9999985046387,0|0,0:0|0:0,0:0:0:0:
139,361,109364,2,0,P|191:372|292:345,1,146.999995513916,2|0,0:0|0:0,0:0:0:0:
409,242,110138,2,0,P|427:276|435:285,1,48.9999985046387
396,369,110526,6,0,P|355:327|313:234,1,146.999995513916,2|0,0:0|0:0,0:0:0:0:
360,152,111300,2,0,L|413:125,1,48.9999985046387
453,22,111687,2,0,P|418:24|389:20,1,48.9999985046387,0|0,3:0|0:0,0:0:0:0:
288,40,112074,1,2,0:0:0:0:
288,73,112267,1,0,3:0:0:0:
208,160,112461,1,2,0:0:0:0:
216,192,112655,1,0,3:0:0:0:
73,318,112848,6,0,P|30:251|20:181,1,146.999995513916,2|0,0:0|0:0,0:0:0:0:
118,156,113622,2,0,P|107:121|97:101,1,48.9999985046387
20,27,114009,1,2,2:2:0:0:
20,27,114397,2,0,L|84:40,1,48.9999985046387,2|0,0:0|3:0,0:0:0:0:
154,49,114784,2,0,L|202:39,1,48.9999985046387,0|0,3:0|0:0,0:0:0:0:
297,132,115171,6,0,P|231:104|202:39,1,146.999995513916,2|0,0:0|0:0,0:0:0:0:
298,35,115945,2,0,P|336:42|358:53,1,48.9999985046387,0|0,0:0|0:0,0:0:0:0:
398,154,116332,1,2,0:0:0:0:
398,154,116719,2,0,L|393:102,1,48.9999985046387,2|0,0:0|3:0,0:0:0:0:
492,81,117106,2,0,L|496:132,1,48.9999985046387,0|0,3:0|0:0,0:0:0:0:
370,278,117493,6,0,P|307:329|245:297,1,146.999995513916,2|0,0:0|0:0,0:0:0:0:
173,187,118267,2,0,P|173:216|167:246,1,48.9999985046387
44,286,118655,2,0,B|20:216|18:141,1,146.999995513916,2|0,0:0|0:0,0:0:0:0:
71,25,119429,1,0,0:0:0:0:
256,192,119816,6,0,P|343:212|416:204,1,146.999995513916
476,16,120784,1,0,0:0:0:0:
408,80,120977,2,0,P|379:82|340:78,1,48.9999985046387,2|0,0:0|0:0,0:0:0:0:
247,17,121364,2,0,L|237:80,1,48.9999985046387,8|0,0:0|0:0,0:0:0:0:
219,184,121751,2,0,L|229:247,1,48.9999985046387,0|0,3:0|0:0,0:0:0:0:
119,355,122138,5,4,0:0:0:0:
119,355,122526,1,0,0:0:0:0:
152,334,122719,1,2,0:0:0:0:
190,326,122913,2,0,P|224:323|253:325,1,48.9999985046387,0|0,0:0|0:0,0:0:0:0:
342,367,123300,2,0,L|396:368,1,48.9999985046387,2|0,0:0|0:0,0:0:0:0:
500,301,123686,1,2,0:0:0:0:
500,301,123880,1,0,3:0:0:0:
409,280,124074,1,2,0:0:0:0:
367,196,124267,1,0,3:0:0:0:
242,224,124461,5,2,0:0:0:0:
242,224,124848,1,0,0:0:0:0:
256,188,125042,1,2,0:0:0:0:
260,148,125235,2,0,P|248:100|240:88,1,48.9999985046387,0|0,0:0|0:0,0:0:0:0:
150,150,125622,2,0,L|82:146,1,48.9999985046387,2|0,0:0|0:0,0:0:0:0:
17,215,126009,1,2,0:0:0:0:
17,215,126202,1,0,3:0:0:0:
111,267,126397,1,2,0:0:0:0:
160,362,126590,1,0,3:0:0:0:
303,298,126784,6,0,P|255:302|216:269,1,97.9999970092774,2|0,0:0|0:0,0:0:0:0:
179,171,127364,2,0,L|185:122,1,48.9999985046387,2|0,0:0|0:0,0:0:0:0:
198,15,127751,1,0,0:0:0:0:
198,15,127945,2,0,P|238:38|258:41,1,48.9999985046387,2|0,0:0|0:0,0:0:0:0:
362,24,128332,2,0,P|438:26|494:89,1,146.999995513916
433,252,129106,6,0,P|402:268|379:276,1,48.9999985046387,2|0,0:0|0:0,0:0:0:0:
266,241,129493,1,0,0:0:0:0:
359,101,129687,2,0,P|336:110|315:122,1,48.9999985046387,2|0,0:0|0:0,0:0:0:0:
266,241,130074,1,0,0:0:0:0:
147,67,130268,2,0,P|153:94|156:116,1,48.9999985046387,2|0,3:2|0:0,0:0:0:0:
79,192,130655,2,0,P|83:243|87:253,1,48.9999985046387
97,333,131042,2,0,P|67:345|45:353,1,48.9999985046387
155,115,131429,6,0,P|202:122|243:149,1,97.9999970092774,2|0,0:0|0:0,0:0:0:0:
288,24,132009,2,0,P|332:43|381:42,1,97.9999970092774
496,24,132591,1,0,0:0:0:0:
496,24,132977,1,0,0:0:0:0:
503,52,133171,1,0,3:0:0:0:
472,168,133365,1,2,0:0:0:0:
465,196,133558,1,0,3:0:0:0:
288,256,133751,6,0,P|214:235|174:244,1,97.9999970092774,2|0,0:0|0:0,0:0:0:0:
168,360,134332,1,2,0:0:0:0:
168,360,134719,1,2,0:0:0:0:
57,333,134913,1,2,0:0:0:0:
124,151,135300,2,0,P|135:129|139:105,1,48.9999985046387,2|0,0:0|0:0,0:0:0:0:
42,98,135687,2,0,P|32:77|28:53,1,48.9999985046387,0|0,0:0|3:0,0:0:0:0:
275,79,136074,6,0,P|217:111|133:102,1,146.999995513916,2|0,0:0|0:0,0:0:0:0:
183,295,137042,1,0,0:0:0:0:
183,295,137235,2,0,P|214:293|243:296,1,48.9999985046387,2|0,0:0|0:0,0:0:0:0:
321,261,137622,2,0,P|319:292|322:321,1,48.9999985046387
409,253,138009,2,0,P|411:222|408:193,1,48.9999985046387,2|0,0:0|0:0,0:0:0:0:
471,114,138397,6,0,P|440:116|411:113,1,48.9999985046387,2|0,0:0|0:0,0:0:0:0:
327,88,138784,1,2,0:0:0:0:
327,88,138977,1,0,3:0:0:0:
238,141,139171,1,2,0:0:0:0:
148,101,139364,1,0,1:0:0:0:
58,141,139558,2,0,L|64:168,3,16.3333328348796
130,204,141687,5,0,0:0:0:0:
397,321,141880,6,0,P|450:271|454:166,1,175,4|0,0:0|0:0,0:0:0:0:
461,177,142461,2,0,P|420:173|335:92,1,140,2|0,3:2|0:0,0:0:0:0:
256,192,143042,2,0,P|227:171|194:159,2,70,2|0|0,0:0|0:0|0:0,0:0:0:0:
179,272,143622,1,8,0:0:0:0:
66,256,143816,1,0,0:0:0:0:
82,143,144009,1,0,3:0:0:0:
352,48,144203,6,0,P|293:133|194:159,1,210,2|8,3:2|2:0,0:0:0:0:
50,369,145171,1,0,0:0:0:0:
50,369,145364,2,0,P|102:369|122:373,1,70,2|0,0:0|0:0,0:0:0:0:
247,314,145751,2,0,P|242:349|244:384,1,70,2|0,0:0|0:0,0:0:0:0:
360,356,146138,1,2,0:0:0:0:
8,32,146526,6,0,P|52:112|158:128,1,175,2|0,3:2|0:0,0:0:0:0:
128,134,147106,2,0,P|184:104|266:104,1,140,2|0,3:2|0:0,0:0:0:0:
480,104,147687,2,0,P|424:148|340:152,1,140,2|0,0:0|0:0,0:0:0:0:
280,24,148267,1,8,0:0:0:0:
280,24,148461,1,2,0:0:0:0:
192,104,148655,1,0,3:0:0:0:
200,224,148848,5,2,0:0:0:0:
200,224,149235,1,2,0:0:0:0:
96,184,149429,2,0,P|76:148|72:100,1,70,0|0,3:0|0:0,0:0:0:0:
124,24,149816,1,2,0:0:0:0:
280,144,150009,2,0,P|316:155|360:160,1,70,10|0,0:0|0:0,0:0:0:0:
481,210,150397,2,0,P|428:226|401:242,1,70,2|0,0:0|0:0,0:0:0:0:
253,276,150784,2,0,P|297:289|330:305,1,70,2|0,0:0|0:0,0:0:0:0:
0,384,151171,6,4,P|-4:280|32:208,1,175,6|0,3:2|0:0,0:0:0:0:
22,218,151751,2,0,P|65:199|85:173,1,70,10|0,0:2|0:0,0:0:0:0:
234,287,152138,1,0,0:0:0:0:
184,192,152332,2,0,P|181:143|218:59,1,140,2|0,0:0|3:0,0:0:0:0:
320,72,152913,2,0,L|411:68,1,70,8|0,0:0|0:0,0:0:0:0:
444,196,153300,1,8,0:0:0:0:
240,328,153493,6,0,P|288:358|452:316,1,210,2|0,0:0|0:0,0:0:0:0:
358,220,154267,2,0,P|356:185|360:150,1,70
220,28,154655,2,0,P|280:56|304:56,1,70,2|0,0:0|0:0,0:0:0:0:
239,169,155042,2,0,P|173:174|152:186,1,70,2|0,0:0|0:0,0:0:0:0:
192,296,155429,2,0,P|257:290|278:278,1,70,2|0,3:2|0:0,0:0:0:0:
480,364,155816,6,0,P|456:280|484:152,1,210,2|0,0:0|3:0,0:0:0:0:
374,50,156590,2,0,P|382:90|374:122,1,70
323,193,156977,2,0,P|277:194|243:213,1,70,2|0,0:0|0:0,0:0:0:0:
236,299,157364,2,0,P|187:348|119:359,1,140
9,134,158138,6,0,P|53:98|161:94,1,140,2|0,0:0|0:0,0:0:0:0:
186,180,158719,2,0,P|226:188|274:188,1,70,8|0,2:2|0:0,0:0:0:0:
356,176,159106,1,0,0:0:0:0:
448,216,159300,2,0,L|460:136,1,70,2|0,0:0|0:0,0:0:0:0:
480,40,159687,1,2,3:2:0:0:
480,40,159880,1,8,3:2:0:0:
376,60,160074,1,2,3:2:0:0:
280,16,160267,1,0,3:2:0:0:
336,160,160461,6,0,P|333:212|321:252,1,70,6|0,0:0|0:0,0:0:0:0:
239,244,160848,1,0,0:0:0:0:
216,328,161041,1,8,0:0:0:0:
128,352,161235,2,0,L|113:258,1,70,2|0,0:0|0:0,0:0:0:0:
203,121,161622,2,0,P|163:165|138:183,1,70,2|0,0:0|0:0,0:0:0:0:
64,141,162009,1,0,0:0:0:0:
64,141,162203,1,0,3:0:0:0:
180,25,162397,2,0,P|180:86|186:114,1,70,2|0,0:0|0:0,0:0:0:0:
285,75,162784,6,0,L|277:147,1,70,2|0,0:0|0:0,0:0:0:0:
256,233,163171,1,0,0:0:0:0:
312,304,163364,1,8,0:0:0:0:
391,173,163558,2,0,P|434:172|483:180,1,70,2|0,0:0|0:0,0:0:0:0:
498,279,163945,1,2,0:0:0:0:
498,279,164138,1,0,0:0:0:0:
433,362,164332,1,2,0:0:0:0:
350,378,164525,1,0,3:0:0:0:
230,309,164719,1,2,0:0:0:0:
314,302,164912,1,0,3:0:0:0:
166,256,165106,6,0,P|175:206|191:169,1,70,2|0,0:0|0:0,0:0:0:0:
256,136,165493,1,0,0:0:0:0:
203,61,165687,1,8,0:0:0:0:
132,118,165880,1,2,0:0:0:0:
132,118,166074,1,0,0:0:0:0:
222,41,166267,2,0,P|268:35|318:40,1,70,2|0,0:0|0:0,0:0:0:0:
361,102,166655,1,0,0:0:0:0:
361,102,166848,1,0,3:0:0:0:
438,36,167042,1,2,0:0:0:0:
438,36,167235,1,0,0:0:0:0:
481,150,167429,5,2,0:0:0:0:
481,150,167526,1,0,0:0:0:0:
481,150,167622,1,8,0:0:0:0:
389,235,167816,2,0,P|406:235|423:233,2,35,0|0|0,0:2|0:2|3:2,0:2:0:0:
315,302,168203,2,0,L|295:274,2,35,2|0|0,3:2|0:2|0:2,0:2:0:0:
195,250,168590,2,0,P|196:267|197:284,2,35,2|0|0,3:2|0:2|0:2,0:2:0:0:
141,172,168977,1,2,3:2:0:0:
136,162,169074,1,0,3:0:0:0:
134,151,169171,1,0,3:0:0:0:
112,44,169364,2,0,P|60:61|33:61,1,70,2|0,0:0|2:0,0:0:0:0:
229,0,169751,6,0,L|316:7,1,70,6|0,0:0|0:0,0:0:0:0:
368,84,170138,2,0,P|357:134|343:168,1,70,0|8,0:0|0:0,0:0:0:0:
249,131,170526,2,0,P|246:182|251:218,1,70,2|0,0:0|0:0,0:0:0:0:
301,285,170913,1,2,0:0:0:0:
301,285,171106,1,0,0:0:0:0:
209,353,171300,2,0,L|118:366,1,70,0|8,0:0|0:0,0:0:0:0:
105,247,171687,2,0,L|196:260,1,70,2|0,0:0|0:0,0:0:0:0:
232,168,172074,5,2,0:0:0:0:
232,168,172267,1,0,3:0:0:0:
250,67,172461,1,0,0:0:0:0:
332,126,172654,1,8,3:2:0:0:
431,156,172848,2,0,P|432:121|424:86,1,70,2|0,0:0|0:0,0:0:0:0:
333,164,173235,2,0,L|331:257,1,70,2|0,0:0|0:0,0:0:0:0:
257,308,173622,1,0,0:0:0:0:
264,323,173816,1,0,3:0:0:0:
155,329,174009,1,2,3:2:0:0:
168,338,174203,1,0,3:0:0:0:
186,245,174397,5,2,3:2:0:0:
98,261,174590,1,0,2:2:0:0:
5,115,174784,1,2,2:2:0:0:
21,203,174977,1,0,3:2:0:0:
119,152,175171,1,2,3:2:0:0:
135,64,175364,1,0,2:2:0:0:
207,116,175558,2,0,P|250:117|283:122,1,70,2|0,0:0|0:0,0:0:0:0:
355,175,175945,1,0,0:0:0:0:
366,78,176138,1,8,0:0:0:0:
366,78,176332,2,0,P|400:73|435:66,1,70,2|2,3:2|0:0,0:0:0:0:
484,181,176719,6,0,L|488:250,1,70,2|0,0:0|0:0,0:0:0:0:
433,319,177106,1,0,0:0:0:0:
352,279,177300,1,0,3:2:0:0:
352,279,177493,2,0,P|371:306|389:337,1,70,2|0,3:2|0:0,0:0:0:0:
278,365,177880,2,0,L|183:338,1,70,2|0,0:0|0:0,0:0:0:0:
150,278,178267,1,0,0:0:0:0:
252,243,178461,1,8,0:0:0:0:
206,176,178655,1,10,0:0:0:0:
125,171,178848,1,10,0:0:0:0:
55,285,179042,6,0,P|67:332|104:364,2,97.9999970092774,4|0|0,0:0|0:0|0:0,0:0:0:0:
87,39,180203,2,0,P|189:91|79:125,1,293.999991027832,2|2,0:0|0:0,0:0:0:0:
290,149,190655,5,2,0:0:0:0:
290,149,191042,2,0,P|259:160|235:164,1,48.9999985046387,2|2,0:0|0:0,0:0:0:0:
39,39,191816,6,0,P|60:59|74:89,1,48.9999985046387,2|0,0:0|0:0,0:0:0:0:
160,103,192203,2,0,P|138:128|132:200,1,97.9999970092774,2|2,0:0|0:0,0:0:0:0:
411,133,192977,5,0,0:0:0:0:
456,202,193171,1,2,0:0:0:0:
456,202,193509,2,0,L|392:216,1,48.9999985046387,2|2,0:0|0:0,0:0:0:0:
253,357,194138,5,2,0:0:0:0:
253,357,194526,2,0,B|221:370|221:370|193:359|158:373,1,97.9999970092774,0|0,3:0|3:0,0:0:0:0:
159,373,195300,6,0,L|154:311,1,48.9999985046387,2|0,0:0|0:0,0:0:0:0:
249,123,195880,2,0,L|256:159,1,36.749998878479,0|2,0:0|0:0,0:0:0:0:
443,81,196461,6,0,P|460:74|478:68,1,36.749998878479,0|2,0:0|0:0,0:0:0:0:
291,11,197042,2,0,L|283:47,1,36.749998878479,0|2,0:0|0:0,0:0:0:0:
2,61,197622,6,0,L|74:61,1,48.9999985046387,0|2,0:0|0:0,0:0:0:0:
51,61,197913,1,2,0:0:0:0:
51,61,198009,1,2,0:0:0:0:
79,159,198203,1,2,0:0:0:0:
150,219,198397,1,2,0:0:0:0:
242,217,198590,1,2,0:0:0:0:
321,281,198784,5,2,0:0:0:0:
320,280,199171,2,0,L|336:274,3,16.3333328348796,8|0|0|0,0:2|0:2|0:2|0:2,0:2:0:0:
432,232,199558,1,10,3:2:0:0:
512,384,199751,1,0,1:0:0:0:
168,361,199945,6,0,P|179:276|241:216,1,175,4|0,3:2|0:0,0:0:0:0:
240,216,200526,2,0,P|313:193|348:132,1,140,2|0,3:2|0:0,0:0:0:0:
465,17,201106,2,0,P|407:39|314:19,1,140,2|0,0:0|0:0,0:0:0:0:
206,6,201687,1,8,0:0:0:0:
113,106,201880,1,2,0:0:0:0:
147,237,202074,1,0,3:0:0:0:
407,321,202267,6,0,P|445:227|390:143,1,210,2|8,3:2|0:0,0:0:0:0:
69,350,203235,1,0,0:0:0:0:
69,350,203429,2,0,P|63:303|64:265,1,70,2|0,0:0|0:0,0:0:0:0:
6,185,203816,2,0,P|0:138|1:100,1,70,2|0,0:0|0:0,0:0:0:0:
95,4,204203,2,0,P|101:51|100:89,1,70,2|0,0:0|0:0,0:0:0:0:
340,206,204590,6,0,P|255:190|182:235,1,175,2|0,3:2|0:0,0:0:0:0:
182,234,205171,2,0,B|211:290|211:290|181:332|201:377,1,140,2|0,3:2|0:0,0:0:0:0:
426,352,205751,2,0,P|410:267|450:210,1,140,2|0,0:0|0:0,0:0:0:0:
511,151,206332,1,8,0:0:0:0:
437,75,206526,1,2,0:0:0:0:
339,113,206719,1,0,3:0:0:0:
208,22,206913,5,2,0:0:0:0:
208,22,207300,1,0,0:0:0:0:
98,70,207493,2,0,P|96:126|104:156,1,70,0|0,3:0|0:0,0:0:0:0:
200,248,207880,1,0,0:0:0:0:
314,70,208074,2,0,P|316:126|308:156,1,70,10|0,3:2|0:0,0:0:0:0:
389,206,208461,2,0,P|372:259|372:290,1,70,2|0,0:0|0:0,0:0:0:0:
281,279,208848,2,0,P|298:332|298:363,1,70,2|0,0:0|0:0,0:0:0:0:
45,348,209235,6,0,P|67:249|57:173,1,175,4|0,3:2|0:0,0:0:0:0:
58,176,209816,2,0,P|91:137|128:123,1,70,2|0,3:2|0:0,0:0:0:0:
261,181,210203,1,0,0:0:0:0:
263,85,210397,2,0,P|219:77|187:84,1,70,2|0,0:0|0:0,0:0:0:0:
110,29,210784,1,0,0:0:0:0:
18,166,210977,2,0,P|10:122|17:90,1,70,2|0,3:2|0:0,0:0:0:0:
107,128,211364,1,0,0:0:0:0:
71,353,211558,6,0,B|145:291|186:375|267:298,1,210,2|0,0:0|0:0,0:0:0:0:
415,354,212332,2,0,P|403:306|414:268,1,70
500,142,212719,2,0,P|450:176|433:181,1,70,2|0,0:0|0:0,0:0:0:0:
274,169,213106,2,0,P|324:203|341:208,1,70,2|0,0:0|0:0,0:0:0:0:
363,83,213493,2,0,P|313:49|296:44,1,70,2|0,0:0|0:0,0:0:0:0:
108,243,213880,6,0,P|163:257|275:161,1,210,2|0,0:0|3:0,0:0:0:0:
386,266,214655,2,0,P|337:277|306:302,1,70
263,374,215042,2,0,P|215:359|175:365,1,70,2|0,0:0|0:0,0:0:0:0:
108,243,215429,2,0,P|86:191|137:106,1,140,0|0,3:0|0:0,0:0:0:0:
377,21,216203,6,0,P|328:70|305:136,1,140,2|0,0:0|0:0,0:0:0:0:
323,240,216784,2,0,P|309:279|279:309,1,70,0|0,3:0|0:0,0:0:0:0:
193,339,217171,1,0,0:0:0:0:
63,240,217364,2,0,P|77:279|107:309,1,70,2|0,0:0|0:0,0:0:0:0:
171,219,217751,1,2,0:0:0:0:
171,219,217945,1,8,0:0:0:0:
153,115,218138,1,0,3:0:0:0:
55,76,218332,1,0,3:2:0:0:
218,32,218526,5,4,3:2:0:0:
262,195,218719,1,2,3:2:0:0:
422,175,219106,5,0,3:0:0:0:
259,219,219299,1,2,3:2:0:0:
375,362,219687,5,0,3:0:0:0:
419,199,219880,1,2,3:2:0:0:
397,281,220074,1,8,1:2:0:0:
326,266,220267,1,0,1:0:0:0:
326,266,220364,1,0,1:0:0:0:
326,266,220461,1,0,1:0:0:0:
375,362,220655,1,0,1:0:0:0:
178,350,220848,5,0,3:0:0:0:
134,187,221041,1,2,3:2:0:0:
197,40,221429,5,0,3:0:0:0:
153,203,221622,1,2,3:2:0:0:
53,12,222009,5,0,3:0:0:0:
216,56,222202,1,2,3:2:0:0:
112,115,222397,1,8,1:2:0:0:
275,160,222590,1,0,1:0:0:0:
171,219,222784,1,8,1:2:0:0:
201,144,222977,1,0,1:0:0:0:
201,144,223074,1,0,1:0:0:0:
201,144,223171,5,0,1:0:0:0:
359,183,223364,1,2,3:2:0:0:
331,362,223751,5,0,3:0:0:0:
369,203,223945,1,2,3:2:0:0:
200,185,224332,5,0,3:0:0:0:
358,224,224526,1,2,3:2:0:0:
260,284,224719,1,10,2:2:0:0:
170,351,224912,1,0,1:0:0:0:
170,351,225009,1,0,1:0:0:0:
170,351,225106,1,8,1:2:0:0:
103,245,225300,1,0,1:0:0:0:
200,185,225493,5,2,3:2:0:0:
329,3,225687,2,0,P|347:51|350:94,1,70,0|0,3:2|2:2,2:2:0:0:
358,224,226074,1,2,3:2:0:0:
153,310,226267,2,0,P|203:301|242:282,1,70,0|0,3:2|2:2,2:2:0:0:
410,362,226655,5,4,0:0:0:0:
