osu file format v14

[General]
AudioFilename: audio.mp3
AudioLeadIn: 0
PreviewTime: 181200
Countdown: 1
SampleSet: Soft
StackLeniency: 0.7
Mode: 0
LetterboxInBreaks: 0
WidescreenStoryboard: 1

[Editor]
DistanceSpacing: 1.2
BeatDivisor: 4
GridSize: 8
TimelineZoom: 1.450001

[Metadata]
Title:syncretism
TitleUnicode:syncretism
Artist:Annabel
ArtistUnicode:Annabel
Creator:Mirash
Version:Intermediate
Source:Hybrid Child
Tags:Delis shirohamymommy anime japanese pop
BeatmapID:2937386
BeatmapSetID:1424727

[Difficulty]
HPDrainRate:4
CircleSize:4
OverallDifficulty:5
ApproachRate:6
SliderMultiplier:1.2
SliderTickRate:1

[Events]
//Background and Video events
0,0,"BG.jpg",0,0
//Break Periods
2,85182,93247
2,181393,189634
//Storyboard Layer 0 (Background)
//Storyboard Layer 1 (Fail)
//Storyboard Layer 2 (Pass)
//Storyboard Layer 3 (Foreground)
//Storyboard Layer 4 (Overlay)
//Storyboard Sound Samples

[TimingPoints]
958,387.096774193548,3,2,0,30,1,0
15667,-100,3,2,0,20,0,0
15861,-100,3,2,0,15,0,0
16054,-100,3,2,0,30,0,0
16828,-100,3,2,0,20,0,0
17022,-100,3,2,0,15,0,0
17215,-100,3,2,0,30,0,0
17990,-100,3,2,0,20,0,0
18184,-100,3,2,0,15,0,0
18377,-100,3,2,0,30,0,0
36570,-100,3,2,0,40,0,0
38119,-100,3,2,0,50,0,0
50699,-100,3,2,0,30,0,0
50796,-100,3,2,0,50,0,0
54570,-100,3,2,0,30,0,0
55925,-100,3,2,0,20,0,0
56312,-100,3,2,0,30,0,0
56699,-100,3,2,0,60,0,0
83409,397.350993377483,3,2,0,50,1,0
84402,387.096774193548,3,2,0,20,1,0
85324,408.163265306122,3,2,0,50,1,0
86140,387.096774193548,3,2,0,50,1,0
87301,394.736842105263,3,2,0,50,1,0
88485,389.61038961039,3,2,0,50,1,0
90822,387.096774193548,3,2,0,50,1,0
93144,384.615384615385,3,2,0,50,1,0
94297,387.096774193548,3,2,0,40,1,0
99329,-100,3,2,0,20,0,0
99426,-100,3,2,0,40,0,0
100490,-100,3,2,0,20,0,0
100587,-100,3,2,0,40,0,0
101651,-100,3,2,0,20,0,0
101748,-100,3,2,0,40,0,0
103587,-100,3,2,0,50,0,0
141909,-100,3,2,0,65,0,0
160490,-100,3,3,0,60,0,0
179458,-100,3,2,0,30,0,0
190684,-100,3,2,0,40,0,0
195329,-100,3,2,0,50,0,0
195522,-100,3,2,0,30,0,0
195909,-100,3,2,0,50,0,0
196102,-100,3,2,0,30,0,0
196490,-100,3,2,0,50,0,0
196683,-100,3,2,0,30,0,0
197071,-100,3,2,0,50,0,0
197264,-100,3,2,0,30,0,0
197651,-100,3,2,0,50,0,0
198813,-100,3,2,0,30,0,0
199587,-100,3,2,0,40,0,0
199780,-100,3,2,0,45,0,0
199974,-100,3,2,0,70,0,0
226684,368.098159509202,3,2,0,50,1,0
227512,-100,3,2,0,30,0,0
227788,476.190476190476,3,2,0,15,1,0
228026,-100,3,2,0,20,0,0
230168,-100,3,2,0,6,0,0

[Colours]
Combo1 : 255,207,64
Combo2 : 254,105,199
Combo3 : 70,153,255
Combo4 : 155,209,116

[HitObjects]
416,136,764,5,0,0:0:0:0:
344,112,957,2,0,P|304:120|256:192,1,120,2|0,0:0|0:0,0:0:0:0:
232,248,1538,2,0,L|96:272,1,120,0|0,0:0|0:0,0:0:0:0:
56,224,2119,1,2,0:0:0:0:
88,160,2312,1,0,0:0:0:0:
24,32,2699,2,0,P|24:80|8:160,1,120,0|0,0:0|0:0,0:0:0:0:
0,224,3280,6,0,P|8:288|16:344,1,120,2|0,0:0|0:0,0:0:0:0:
88,360,3861,1,0,0:0:0:0:
224,320,4248,1,0,3:0:0:0:
272,264,4441,2,0,P|336:272|352:272,1,60,2|0,0:0|0:0,0:0:0:0:
400,304,4828,2,0,P|416:256|400:168,2,120,2|0|2,0:0|0:0|0:0,0:0:0:0:
264,360,5990,5,2,0:0:0:0:
208,312,6183,2,0,P|192:264|240:200,1,120,0|0,0:0|0:0,0:0:0:0:
296,208,6764,2,0,P|304:152|296:128,1,60,2|2,0:0|0:0,0:0:0:0:
200,48,7345,1,0,0:0:0:0:
128,24,7538,1,0,0:0:0:0:
72,72,7732,1,0,0:0:0:0:
88,144,7925,1,2,0:0:0:0:
224,192,8312,6,0,P|264:184|304:176,2,60,2|0|0,0:0|0:0|0:0,0:0:0:0:
152,192,8893,1,0,0:0:0:0:
152,264,9087,2,0,P|160:312|168:384,2,120,2|2|0,0:0|0:0|0:0,0:0:0:0:
296,280,10248,6,0,P|360:264|392:216,1,120,2|0,3:0|3:0,0:0:0:0:
352,160,10828,1,2,0:0:0:0:
400,104,11022,2,0,P|400:64|400:32,1,60,2|0,0:0|0:0,0:0:0:0:
336,16,11409,1,2,3:0:0:0:
240,120,11796,1,0,3:0:0:0:
184,72,11990,1,2,0:0:0:0:
136,128,12183,1,2,0:0:0:0:
0,72,12570,6,0,P|16:136|16:200,1,120,2|2,3:0|0:0,0:0:0:0:
80,216,13151,2,0,P|64:280|64:344,1,120,2|2,0:0|0:0,0:0:0:0:
128,368,13732,1,4,0:0:0:0:
264,328,14119,1,0,3:0:0:0:
224,192,14506,1,2,3:2:0:0:
312,80,14893,6,0,P|336:112|352:136,1,60,2|0,3:0|0:0,0:0:0:0:
416,152,15280,2,0,P|392:208|384:224,1,60,0|2,3:0|0:0,0:0:0:0:
416,280,15667,1,4,0:0:0:0:
312,376,16054,2,0,P|288:344|272:320,1,60,2|0,3:0|0:0,0:0:0:0:
208,304,16441,2,0,P|232:248|240:232,1,60,0|2,3:0|0:0,0:0:0:0:
208,176,16828,1,4,0:0:0:0:
96,88,17216,5,2,3:0:0:0:
224,16,17603,1,0,3:0:0:0:
288,144,17990,1,4,0:0:0:0:
168,224,18377,2,0,B|112:232|112:232|168:344|168:344|96:360,1,240,0|8,3:0|0:0,0:0:0:0:
48,320,19345,1,0,3:0:0:0:
16,256,19538,6,0,P|24:152|48:56,1,180,0|2,3:0|0:0,0:0:0:0:
248,24,20699,1,0,3:0:0:0:
368,104,21087,1,2,0:0:0:0:
256,192,21474,1,0,0:0:0:0:
312,56,21861,6,0,P|256:64|184:168,1,180,2|2,0:0|3:0,0:0:0:0:
280,352,23022,1,2,0:0:0:0:
360,232,23409,1,2,0:0:0:0:
216,232,23796,1,0,0:0:0:0:
344,304,24183,6,0,P|344:248|336:104,1,180,2|2,3:0|0:0,0:0:0:0:
144,32,25345,1,2,3:0:0:0:
32,128,25732,2,0,P|40:168|48:208,1,60,0|0,0:0|0:0,0:0:0:0:
104,224,26119,1,0,0:0:0:0:
248,224,26506,6,0,P|296:192|280:16,1,240,2|0,3:0|0:0,0:0:0:0:
432,40,27667,2,0,P|464:64|496:88,2,60,0|2|2,3:0|0:0|0:0,0:0:0:0:
368,8,28248,1,0,0:0:0:0:
360,80,28441,2,0,P|352:112|352:160,1,60,2|2,0:0|0:0,0:0:0:0:
376,208,28828,6,0,P|368:272|352:352,1,120,4|2,0:0|0:0,0:0:0:0:
216,368,29603,1,0,0:0:0:0:
120,264,29990,2,0,P|120:216|192:168,2,120,0|2|0,3:0|3:2|0:0,0:0:0:0:
184,296,30957,1,0,0:0:0:0:
224,232,31151,6,0,P|280:256|352:280,1,120,0|0,3:0|0:0,0:0:0:0:
408,248,31732,1,2,3:0:0:0:
296,64,32312,2,0,P|224:80|160:96,1,120,0|2,3:0|3:2,0:0:0:0:
112,56,32893,1,0,3:0:0:0:
88,128,33087,1,0,0:0:0:0:
152,256,33474,6,0,P|208:240|216:160,1,120,2|0,3:0|0:0,0:0:0:0:
264,128,34054,2,0,P|304:160|320:232,1,120,2|0,3:2|0:0,0:0:0:0:
336,296,34635,1,2,3:0:0:0:
480,296,35022,2,0,P|472:248|464:224,1,60,0|0,0:0|0:0,0:0:0:0:
448,168,35409,2,0,P|456:120|464:96,1,60,0|0,0:0|0:0,0:0:0:0:
416,48,35796,6,0,P|368:48|344:72,1,60,0|0,3:0|3:0,0:0:0:0:
328,120,36183,2,0,P|280:144|256:144,1,60,0|0,1:0|1:0,0:0:0:0:
216,104,36570,1,0,1:0:0:0:
152,136,36764,1,8,1:2:0:0:
80,160,36957,2,0,P|80:148|72:100,2,60,8|0|2,1:0|1:0|3:0,0:0:0:0:
128,216,37538,1,2,0:0:0:0:
144,288,37732,2,0,P|112:320|96:352,1,60,4|0,3:0|1:0,0:0:0:0:
40,360,38119,1,4,1:0:0:0:
184,352,38506,5,2,0:0:0:0:
184,280,38699,2,0,P|176:208|160:136,1,120,0|0,1:0|1:0,0:0:0:0:
232,136,39280,2,0,P|243:194|256:280,1,120,0|0,1:0|0:0,0:0:0:0:
248,328,39861,1,0,3:0:0:0:
328,320,40054,2,0,P|376:312|400:304,1,60,2|0,0:0|3:0,0:0:0:0:
448,272,40441,5,0,1:0:0:0:
352,168,40828,1,2,0:0:0:0:
400,112,41022,1,0,3:0:0:0:
376,40,41216,2,0,P|424:32|448:32,1,60,0|0,0:0|3:0,0:0:0:0:
496,72,41603,2,0,P|504:112|512:192,1,120,0|2,1:0|0:0,0:0:0:0:
392,264,42377,1,0,3:0:0:0:
328,296,42570,1,0,3:0:0:0:
280,240,42764,6,0,P|240:232|152:216,1,120,0|0,1:0|0:0,0:0:0:0:
88,224,43345,2,0,P|96:184|112:96,1,120,0|0,1:0|0:0,0:0:0:0:
112,32,43925,2,0,P|152:40|240:56,2,120,0|2|2,1:0|0:0|0:0,0:0:0:0:
48,64,44893,1,2,0:0:0:0:
0,8,45087,5,0,1:0:0:0:
8,152,45474,1,0,3:0:0:0:
56,208,45667,2,0,P|72:272|80:336,1,120,0|0,1:0|3:0,0:0:0:0:
136,368,46248,2,0,P|192:344|216:288,2,120,0|2|2,1:0|0:0|0:0,0:0:0:0:
0,328,47409,6,0,P|0:280|16:208,1,120,0|0,1:0|3:0,0:0:0:0:
16,136,47990,2,0,P|64:128|144:120,1,120,0|0,1:0|0:0,0:0:0:0:
200,80,48570,2,0,P|240:112|296:184,1,120,0|2,1:0|0:0,0:0:0:0:
360,160,49151,1,0,3:0:0:0:
344,232,49345,2,0,P|336:264|320:296,1,60,0|0,1:0|0:0,0:0:0:0:
328,360,49732,5,0,1:0:0:0:
400,352,49925,1,2,0:0:0:0:
440,216,50312,2,0,P|416:160|400:80,1,120,0|4,1:0|0:0,0:0:0:0:
392,32,50893,1,0,1:0:0:0:
280,120,51280,1,2,0:0:0:0:
168,24,51667,1,0,1:0:0:0:
136,88,51861,1,0,3:0:0:0:
64,72,52054,6,0,P|32:144|16:192,1,120,0|2,1:0|0:0,0:0:0:0:
8,256,52635,2,0,P|32:320|56:376,1,120,0|0,1:0|3:0,0:0:0:0:
128,360,53216,1,0,1:0:0:0:
208,240,53603,1,2,0:0:0:0:
312,344,53990,1,0,1:0:0:0:
336,280,54183,1,0,3:0:0:0:
400,304,54377,6,0,P|423:248|444:192,1,120,0|0,1:0|0:0,0:0:0:0:
208,32,55538,1,0,0:0:0:0:
88,112,55925,1,0,3:0:0:0:
200,200,56312,1,2,3:0:0:0:
256,152,56506,1,4,1:3:0:0:
320,176,56699,6,0,B|360:232|360:232|312:344,1,180,4|8,1:0|1:2,0:0:0:0:
168,328,57667,1,2,0:0:0:0:
96,304,57861,2,0,B|88:216,1,60,0|0,1:0|0:0,0:0:0:0:
40,192,58248,1,0,1:0:0:0:
96,144,58441,2,0,B|104:56,2,60,8|0|4,1:2|1:0|1:2,0:0:0:0:
152,200,59022,6,0,P|224:192|280:152,1,120,0|0,1:0|0:0,0:0:0:0:
336,168,59603,1,8,1:2:0:0:
432,64,59990,1,2,1:2:0:0:
480,120,60183,2,0,P|472:200|480:264,2,120,2|2|2,1:0|1:0|1:0,0:0:0:0:
352,40,61345,6,0,B|264:64|264:64|168:16,1,180,4|8,1:0|1:2,0:0:0:0:
56,96,62312,1,2,1:2:0:0:
120,128,62506,2,0,B|144:152|144:152|136:200,1,60,4|0,1:2|1:0,0:0:0:0:
48,288,63087,1,8,1:2:0:0:
88,352,63280,1,0,1:0:0:0:
160,360,63474,1,2,1:0:0:0:
216,312,63667,1,0,1:0:0:0:
296,192,64054,6,0,P|336:208|376:208,2,60,0|8|0,0:0|1:2|1:0,0:0:0:0:
248,136,64635,1,4,0:0:0:0:
208,200,64828,2,0,P|160:224|96:248,1,120,4|2,1:3|1:0,0:0:0:0:
32,224,65409,1,2,0:1:0:0:
72,160,65603,2,0,P|64:128|64:88,1,60,8|4,1:2|0:0,0:0:0:0:
128,72,65990,6,0,B|192:16|192:16|288:64,1,180,4|8,1:0|1:2,0:0:0:0:
344,192,66957,1,2,0:0:0:0:
400,144,67151,2,0,L|464:136,2,60,0|0|0,1:0|0:0|1:0,0:0:0:0:
328,120,67732,2,0,P|280:136|232:216,1,120,8|4,1:2|1:2,0:0:0:0:
176,224,68312,1,0,1:0:0:0:
256,344,68699,1,0,0:0:0:0:
328,344,68893,1,8,1:2:0:0:
360,280,69087,2,0,L|344:208,1,60,0|2,0:0|1:2,0:0:0:0:
272,232,69474,6,0,P|232:248|176:328,2,120,2|2|2,1:0|1:0|1:0,0:0:0:0:
296,160,70441,1,2,0:0:0:0:
368,176,70635,2,0,P|408:208|448:280,1,120,4|0,1:0|0:0,0:0:0:0:
384,304,71216,1,8,1:2:0:0:
400,376,71409,2,0,P|432:360|464:336,1,60,0|2,0:0|1:2,0:0:0:0:
512,304,71796,6,0,P|504:232|504:168,1,120,4|0,1:2|1:0,0:0:0:0:
440,144,72377,1,8,1:2:0:0:
456,72,72570,1,0,1:0:0:0:
312,88,72957,6,0,P|208:120|176:128,1,120,0|0,1:0|0:0,0:0:0:0:
208,192,73538,2,0,P|265:175|322:157,1,120,8|4,1:2|0:0,0:0:0:0:
384,200,74119,1,0,1:0:0:0:
320,328,74506,1,0,3:0:0:0:
184,280,74893,1,8,1:2:0:0:
120,248,75087,1,4,0:0:0:0:
80,304,75280,6,0,L|120:360,2,60,6|2|8,1:0|1:1|1:0,0:0:0:0:
8,312,75861,1,2,1:0:0:0:
32,248,76054,1,2,1:0:0:0:
40,104,76441,2,0,L|112:120,1,60,2|2,1:0|1:0,0:0:0:0:
144,64,76828,1,8,1:0:0:0:
200,104,77022,1,0,1:0:0:0:
256,56,77216,1,8,1:0:0:0:
312,96,77409,1,0,1:0:0:0:
376,56,77603,6,0,P|392:96|408:128,2,60,4|6|0,1:3|1:3|3:0,0:0:0:0:
432,8,78183,1,4,1:3:0:0:
496,48,78377,1,6,1:3:0:0:
448,184,78764,1,4,1:3:0:0:
376,184,78957,1,2,1:3:0:0:
344,248,79151,2,0,P|352:304|352:328,1,60,6|4,1:3|1:3,0:0:0:0:
304,360,79538,1,6,1:3:0:0:
240,328,79732,1,4,0:3:0:0:
256,256,79925,6,0,P|208:240|176:224,1,60,2|2,1:0|1:0,0:0:0:0:
128,216,80312,1,8,1:0:0:0:
120,144,80506,2,0,P|168:128|200:112,1,60,2|2,1:0|1:0,0:0:0:0:
264,8,81087,2,0,P|304:32|320:40,1,60,2|2,1:0|1:0,0:0:0:0:
392,40,81474,1,8,1:0:0:0:
376,112,81667,1,0,1:0:0:0:
448,136,81861,1,8,1:0:0:0:
424,208,82054,1,0,1:0:0:0:
464,264,82248,6,0,P|488:296|504:320,2,60,4|0|8,1:0|3:0|1:0,0:0:0:0:
400,304,82828,1,8,1:2:0:0:
352,360,83022,1,4,0:3:0:0:
280,352,83216,1,4,1:3:0:0:
248,288,83409,1,4,1:0:0:0:
256,192,83508,12,0,84982,0:0:0:0:
368,304,94297,6,0,P|360:256|344:168,1,120,0|0,3:0|3:0,0:0:0:0:
352,112,94877,1,2,0:0:0:0:
352,112,95071,1,2,0:0:0:0:
352,112,95264,1,2,0:0:0:0:
352,112,95458,1,0,3:0:0:0:
232,40,95845,1,0,3:0:0:0:
192,96,96038,1,2,0:0:0:0:
128,64,96232,1,2,0:0:0:0:
40,176,96619,5,0,3:0:0:0:
184,200,97006,1,2,3:2:0:0:
144,264,97200,2,0,P|168:288|272:304,1,120,2|2,0:0|3:2,0:0:0:0:
304,360,97780,2,0,P|336:328|408:288,2,120,2|0|2,3:0|3:0|0:0,0:0:0:0:
160,368,98942,5,4,0:0:0:0:
264,272,99329,1,4,0:0:0:0:
288,200,99522,1,2,0:0:0:0:
232,152,99716,2,0,P|176:168|152:176,1,60,2|0,0:0|0:0,0:0:0:0:
104,152,100103,1,4,0:0:0:0:
176,32,100490,1,4,0:0:0:0:
248,8,100684,1,2,0:0:0:0:
280,72,100877,2,0,P|336:88|360:96,1,60,2|0,0:0|0:0,0:0:0:0:
400,56,101264,5,4,0:0:0:0:
416,200,101651,2,0,P|408:256|408:272,2,60,4|2|2,0:0|0:0|0:0,0:0:0:0:
368,144,102232,1,2,0:0:0:0:
320,200,102426,2,0,L|184:232,1,120,0|0,3:0|3:0,0:0:0:0:
144,184,103006,1,0,3:0:0:0:
104,248,103200,1,4,0:3:0:0:
160,296,103393,1,4,3:0:0:0:
168,368,103587,6,0,P|248:352|312:344,1,120,4|0,1:0|0:0,0:0:0:0:
328,288,104167,2,0,P|384:296|400:296,1,60,8|0,1:3|0:0,0:0:0:0:
488,192,104748,1,4,1:3:0:0:
400,80,105135,1,0,0:0:0:0:
336,208,105522,1,0,3:0:0:0:
456,128,105909,6,0,P|408:112|320:96,1,120,0|0,1:0|0:0,0:0:0:0:
288,152,106490,2,0,P|248:168|224:176,1,60,8|0,1:3|0:0,0:0:0:0:
88,192,107071,1,4,1:3:0:0:
88,48,107458,1,2,1:2:0:0:
224,96,107845,1,0,3:0:0:0:
64,120,108232,6,0,P|32:152|0:240,1,120,4|0,1:3|0:0,0:0:0:0:
0,296,108813,1,8,1:3:0:0:
64,336,109006,2,0,P|104:328|144:320,1,60,0|0,3:0|0:0,0:0:0:0:
152,256,109393,1,0,1:0:0:0:
264,344,109780,1,2,0:0:0:0:
384,264,110167,1,0,3:0:0:0:
328,216,110361,1,0,0:0:0:0:
384,168,110555,6,0,P|448:192|512:216,2,120,4|0|2,1:3|0:0|0:0,0:0:0:0:
248,200,111716,2,0,B|208:240|208:240|136:192,1,120,2|2,3:2|0:0,0:0:0:0:
80,208,112296,1,2,0:0:0:0:
64,136,112490,2,0,L|80:64,1,60,2|0,3:2|0:0,0:0:0:0:
128,24,112877,6,0,P|184:16|240:64,1,120,0|0,1:0|0:0,0:0:0:0:
296,88,113458,2,0,P|296:136|304:168,1,60,8|0,1:3|0:0,0:0:0:0:
408,288,114038,1,4,0:3:0:0:
264,280,114426,1,8,0:3:0:0:
368,168,114813,2,0,P|368:216|360:248,1,60,2|0,0:0|3:0,0:0:0:0:
336,296,115200,6,0,P|280:296|232:232,1,120,4|0,1:3|0:0,0:0:0:0:
184,208,115780,2,0,P|192:168|192:128,1,60,8|0,1:3|0:0,0:0:0:0:
88,24,116361,1,4,0:3:0:0:
32,160,116748,1,2,3:2:0:0:
176,144,117135,2,0,P|144:128|120:120,1,60,2|0,0:0|3:0,0:0:0:0:
48,88,117522,6,0,P|32:144|24:224,1,120,4|0,1:3|0:0,0:0:0:0:
0,272,118103,1,8,3:0:0:0:
32,336,118296,2,0,P|80:328|112:328,1,60,0|0,0:0|0:0,0:0:0:0:
136,272,118684,1,4,0:3:0:0:
272,224,119071,1,2,0:0:0:0:
184,112,119458,1,0,3:0:0:0:
120,144,119651,1,0,3:0:0:0:
144,208,119845,6,0,P|208:200|256:136,1,120,4|0,0:3|0:0,0:0:0:0:
248,88,120426,2,8,P|248:48|240:16,1,60,8|8,1:3|1:3,1:3:0:0:
320,16,120813,1,4,0:0:0:0:
336,88,121006,1,4,0:0:0:0:
400,216,121393,1,8,1:2:0:0:
372,284,121587,1,0,1:0:0:0:
303,306,121780,1,4,0:3:0:0:
235,278,121974,1,4,1:3:0:0:
213,210,122167,1,4,1:0:0:0:
144,80,122555,5,2,0:0:0:0:
80,112,122748,2,0,P|32:160|48:272,1,180,0|0,1:0|1:0,0:0:0:0:
160,352,123716,1,0,0:0:0:0:
224,320,123909,1,0,3:0:0:0:
184,256,124103,2,0,P|200:200|200:176,1,60,2|0,0:0|3:0,0:0:0:0:
184,128,124490,6,0,P|216:104|344:136,1,180,0|0,1:0|3:0,0:0:0:0:
368,272,125458,1,0,3:0:0:0:
424,320,125651,2,0,P|488:296|504:232,1,120,0|2,1:0|3:2,0:0:0:0:
512,104,126426,1,0,3:0:0:0:
456,56,126619,1,0,3:0:0:0:
504,0,126813,6,0,P|440:8|360:24,1,120,0|0,1:0|0:0,0:0:0:0:
336,72,127393,2,0,P|272:80|192:96,1,120,0|0,1:0|0:0,0:0:0:0:
160,136,127974,2,0,P|96:144|16:160,2,120,0|2|2,1:0|0:0|0:0,0:0:0:0:
208,192,128942,1,2,0:0:0:0:
176,256,129135,6,0,P|128:272|56:232,1,120,0|0,1:0|3:0,0:0:0:0:
24,304,129716,1,0,1:0:0:0:
160,360,130103,1,0,3:0:0:0:
232,360,130296,2,0,P|288:320|288:248,1,120,0|2,1:0|0:0,0:0:0:0:
232,144,131071,1,2,0:0:0:0:
272,80,131264,1,0,0:0:0:0:
336,120,131458,6,0,P|376:160|392:248,1,120,0|0,1:0|3:0,0:0:0:0:
456,256,132038,2,0,P|432:288|344:320,1,120,0|0,1:0|0:0,0:0:0:0:
320,376,132619,1,0,1:0:0:0:
200,296,133006,1,2,0:0:0:0:
176,224,133200,1,0,3:0:0:0:
248,200,133393,2,0,L|328:224,1,60,0|0,1:0|0:0,0:0:0:0:
368,256,133780,6,0,L|464:232,2,90,0|0|0,1:0|0:0|1:0,0:0:0:0:
280,136,134748,1,4,0:0:0:0:
208,160,134942,2,0,P|152:168|72:176,1,120,0|2,1:0|0:0,0:0:0:0:
88,32,135716,1,0,0:0:0:0:
160,8,135909,1,0,3:0:0:0:
200,72,136103,1,0,1:0:0:0:
192,216,136490,5,2,0:0:0:0:
224,280,136684,2,0,P|304:280|344:232,1,120,0|0,1:0|3:0,0:0:0:0:
344,184,137264,2,0,P|416:200|464:208,2,120,0|2|0,1:0|0:0|1:0,0:0:0:0:
304,120,138232,1,0,3:0:0:0:
256,176,138426,1,0,1:0:0:0:
144,88,138813,5,0,0:0:0:0:
72,112,139006,1,2,0:0:0:0:
56,184,139200,1,0,3:0:0:0:
88,248,139393,1,0,3:0:0:0:
152,288,139587,1,0,1:0:0:0:
256,192,139780,12,0,141909,0:0:0:0:
408,272,142490,6,0,P|440:216|384:96,1,180,8|0,1:2|1:0,0:0:0:0:
336,136,143264,1,0,0:0:0:0:
216,56,143651,2,0,P|136:96|96:112,1,120,8|4,1:2|1:2,0:0:0:0:
40,80,144232,6,0,P|24:120|64:248,1,180,0|8,1:0|1:2,0:0:0:0:
200,296,145200,1,2,1:2:0:0:
240,240,145393,2,0,P|296:256|368:256,2,120,2|2|2,1:0|1:0|1:0,0:0:0:0:
184,200,146361,1,2,0:0:0:0:
240,152,146555,6,0,P|272:112|272:32,1,120,4|0,1:0|0:0,0:0:0:0:
208,32,147135,2,0,P|152:32|72:24,1,120,8|2,1:2|1:2,0:0:0:0:
24,56,147716,1,4,1:2:0:0:
32,128,147909,1,0,1:0:0:0:
176,152,148296,1,8,1:2:0:0:
200,224,148490,2,0,P|184:272|176:296,1,60,0|2,1:0|1:0,0:0:0:0:
200,352,148877,5,0,1:0:0:0:
344,368,149264,1,2,0:0:0:0:
400,328,149458,1,8,1:2:0:0:
400,256,149651,2,0,P|384:200|384:176,1,60,0|4,1:0|0:0,0:0:0:0:
320,168,150038,2,0,P|312:128|328:48,2,120,4|2|8,1:3|1:0|1:2,0:0:0:0:
280,232,151006,1,4,0:0:0:0:
216,200,151200,6,0,P|168:184|32:168,1,180,4|8,1:0|1:2,0:0:0:0:
32,312,152167,1,2,0:0:0:0:
88,352,152361,2,0,P|152:328|160:320,1,60,0|0,1:0|0:0,0:0:0:0:
200,200,152942,1,8,1:2:0:0:
264,224,153135,2,0,P|296:240|328:256,1,60,0|4,0:0|1:2,0:0:0:0:
352,312,153522,5,0,1:0:0:0:
424,320,153716,2,0,P|464:280|464:192,1,120,2|8,0:0|1:2,0:0:0:0:
432,160,154296,1,0,0:0:0:0:
464,96,154490,1,2,1:2:0:0:
440,24,154684,2,0,P|368:40|312:48,2,120,2|2|2,1:0|1:0|1:0,0:0:0:0:
344,136,155845,6,0,P|360:200|368:272,1,120,4|0,1:0|0:0,0:0:0:0:
360,328,156426,1,8,1:2:0:0:
288,312,156619,2,0,P|264:304|224:272,1,60,0|2,0:0|1:2,0:0:0:0:
232,216,157006,2,0,P|168:224|112:240,1,120,4|0,1:2|1:0,0:0:0:0:
48,208,157587,1,8,1:2:0:0:
24,280,157780,1,0,1:0:0:0:
152,352,158167,6,0,P|176:312|168:184,1,180,0|8,1:0|1:2,0:0:0:0:
104,144,158942,2,0,P|112:80|112:56,1,60,0|4,1:0|0:0,0:0:0:0:
160,32,159329,1,0,1:0:0:0:
304,40,159716,1,0,3:0:0:0:
360,88,159909,1,0,3:0:0:0:
352,160,160103,2,0,P|328:208|320:224,1,60,8|4,1:2|0:0,0:0:0:0:
336,288,160490,6,0,L|256:304,2,60,6|0|8,1:0|0:0|3:0,0:0:0:0:
400,248,161071,1,2,3:0:0:0:
448,304,161264,1,2,3:3:0:0:
496,168,161651,2,0,P|472:128|464:96,1,60,4|0,0:2|0:0,0:0:0:0:
440,48,162038,2,0,P|400:72|368:80,1,60,4|0,0:2|0:2,0:0:0:0:
360,144,162426,1,4,0:2:0:0:
296,112,162619,1,0,0:0:0:0:
240,160,162813,6,0,L|184:192,2,60,4|0|8,0:0|0:0|0:0,0:0:0:0:
176,32,163587,2,0,P|136:24|104:16,1,60,0|0,0:0|0:0,0:0:0:0:
64,72,163974,2,0,P|56:112|48:144,1,60,2|0,0:0|0:0,0:0:0:0:
72,200,164361,2,0,P|112:208|144:216,1,60,2|2,0:1|0:1,0:0:0:0:
192,168,164748,1,2,0:1:0:0:
248,216,164942,1,2,0:1:0:0:
312,184,165135,6,0,P|336:240|344:264,2,60,2|4|0,0:1|0:2|0:0,0:0:0:0:
288,120,165716,1,4,0:2:0:0:
336,72,165909,2,0,P|376:88|400:96,1,60,2|2,0:0|0:0,0:0:0:0:
464,104,166296,2,0,P|448:144|440:168,1,60,0|0,0:1|0:0,0:0:0:0:
408,224,166684,2,0,P|424:264|432:288,1,60,4|8,0:3|0:0,0:0:0:0:
392,344,167071,1,4,0:0:0:0:
248,376,167458,6,0,P|240:336|232:304,1,60,4|2,0:0|0:1,0:0:0:0:
184,272,167845,1,4,0:2:0:0:
208,200,168038,1,4,0:2:0:0:
176,136,168232,2,0,P|176:88|184:56,1,60,0|0,0:1|0:0,0:0:0:0:
208,8,168619,2,0,P|240:16|288:104,1,120,4|2,0:0|0:1,0:0:0:0:
360,96,169200,1,4,0:0:0:0:
320,160,169393,2,0,P|312:216|312:232,1,60,10|4,0:1|0:0,0:0:0:0:
352,280,169780,5,4,1:1:0:0:
480,216,170167,2,0,P|472:168|464:152,1,60,2|8,0:0|0:2,0:0:0:0:
408,120,170555,2,0,P|400:80|400:48,1,60,2|2,0:0|0:2,0:0:0:0:
336,24,170942,2,0,P|296:40|192:56,1,120,2|0,0:0|0:0,0:0:0:0:
152,32,171522,1,10,0:2:0:0:
104,88,171716,1,2,0:0:0:0:
32,88,171909,1,4,0:2:0:0:
16,160,172103,6,0,P|24:216|24:240,1,60,2|2,0:0|0:2,0:0:0:0:
88,248,172490,2,0,P|80:296|80:320,2,60,2|12|0,0:0|0:2|0:0,0:0:0:0:
128,192,173071,1,12,0:2:0:0:
184,240,173264,1,0,0:0:0:0:
288,344,173651,2,0,P|328:336|368:328,1,60,4|4,0:2|0:0,0:0:0:0:
416,352,174038,2,0,P|448:328|472:312,1,60,4|4,1:3|1:0,0:0:0:0:
464,248,174426,5,4,1:0:0:0:
392,224,174619,1,4,0:1:0:0:
376,152,174813,1,4,1:2:0:0:
304,152,175006,1,4,0:2:0:0:
288,80,175200,1,2,0:2:0:0:
216,88,175393,1,2,0:2:0:0:
184,24,175587,2,0,P|136:32|112:40,2,60,8|10|2,0:2|0:2|0:2,0:0:0:0:
256,8,176167,1,0,0:0:0:0:
328,16,176361,1,4,0:0:0:0:
440,104,176748,6,0,P|424:152|416:168,1,60,4|8,0:0|0:0,0:0:0:0:
368,208,177135,2,0,P|376:240|384:280,1,60,4|4,0:0|0:0,0:0:0:0:
432,320,177522,1,8,0:0:0:0:
376,368,177716,1,4,0:0:0:0:
320,320,177909,2,0,P|264:328|240:336,2,60,4|8|4,0:0|0:0|0:0,0:0:0:0:
376,272,178490,1,4,0:2:0:0:
448,296,178684,2,0,P|464:256|464:224,1,60,8|8,0:1|1:2,0:0:0:0:
512,184,179071,5,4,1:0:0:0:
432,64,179458,2,0,P|360:72|304:80,2,120,0|0|0,3:0|3:0|3:0,0:0:0:0:
408,96,190684,5,4,3:2:0:0:
272,56,191071,1,2,0:0:0:0:
200,64,191264,2,0,P|152:96|128:216,1,180,2|4,0:0|3:2,0:0:0:0:
240,296,192232,1,2,3:2:0:0:
320,176,192619,1,2,0:0:0:0:
192,240,193006,5,4,3:2:0:0:
160,304,193200,2,0,P|112:304|40:248,1,120,2|2,0:0|0:0,0:0:0:0:
8,208,193780,2,0,P|16:168|56:96,1,120,2|2,0:0|3:2,0:0:0:0:
192,136,194555,1,2,0:0:0:0:
264,8,194942,1,2,0:0:0:0:
360,112,195329,6,0,P|344:160|336:192,1,60,4|4,1:2|0:0,0:0:0:0:
280,208,195716,1,0,0:0:0:0:
384,304,196103,1,4,0:0:0:0:
480,200,196490,2,0,P|464:152|456:120,1,60,4|4,0:0|0:0,0:0:0:0:
400,104,196877,1,0,0:0:0:0:
504,0,197264,1,4,0:0:0:0:
360,8,197651,5,4,0:0:0:0:
312,56,197845,2,0,P|248:48|232:48,2,60,0|2|2,0:0|0:0|3:2,0:0:0:0:
320,128,198426,1,2,0:0:0:0:
280,184,198619,1,2,0:0:0:0:
296,256,198813,1,2,0:0:0:0:
216,376,199200,2,0,B|240:328|240:328|184:256,1,120,2|0,3:2|3:0,0:0:0:0:
128,288,199780,1,4,1:3:0:0:
56,272,199974,6,0,P|24:208|80:120,1,180,4|8,1:0|1:2,0:0:0:0:
200,200,200942,1,2,0:0:0:0:
272,184,201135,2,0,P|272:128|240:72,1,120,0|0,1:0|1:0,0:0:0:0:
176,40,201716,2,0,P|136:48|96:56,2,60,8|0|4,1:2|0:0|1:2,0:0:0:0:
240,0,202296,5,0,1:0:0:0:
344,96,202684,1,0,0:0:0:0:
416,104,202877,2,0,P|432:160|432:240,1,120,8|2,1:2|1:2,0:0:0:0:
464,288,203458,2,0,P|408:304|328:320,2,120,2|2|2,1:0|1:0|1:0,0:0:0:0:
504,232,204426,1,2,0:0:0:0:
488,160,204619,6,0,P|456:128|312:128,1,180,4|8,1:0|1:2,0:0:0:0:
224,224,205587,1,2,1:2:0:0:
160,184,205780,2,0,P|112:192|88:200,1,60,4|0,1:2|1:0,0:0:0:0:
56,336,206361,1,8,1:2:0:0:
128,344,206555,2,0,P|144:312|136:272,1,60,0|2,1:0|1:0,0:0:0:0:
88,240,206942,6,0,P|80:200|56:112,1,120,0|2,1:0|0:0,0:0:0:0:
96,64,207522,1,8,1:2:0:0:
152,112,207716,1,0,1:0:0:0:
200,56,207909,1,4,0:0:0:0:
264,24,208103,2,0,P|328:40|392:56,1,120,4|2,1:3|1:0,0:0:0:0:
448,32,208684,1,2,0:1:0:0:
472,96,208877,2,0,P|464:144|464:168,1,60,8|4,1:2|0:0,0:0:0:0:
408,200,209264,6,0,P|328:216|256:288,1,180,4|8,1:0|1:2,0:0:0:0:
120,328,210232,1,2,0:0:0:0:
72,272,210426,2,0,P|80:224|80:192,2,60,0|0|0,1:0|0:0|1:0,0:0:0:0:
40,336,211006,2,0,P|0:296|8:216,1,120,8|4,1:2|1:2,0:0:0:0:
40,176,211587,5,0,1:0:0:0:
24,104,211780,1,2,0:0:0:0:
160,56,212167,1,8,1:2:0:0:
176,128,212361,2,0,P|208:136|256:144,1,60,0|2,0:0|1:2,0:0:0:0:
296,104,212748,2,0,P|360:96|416:80,2,120,2|2|2,1:0|1:0|1:0,0:0:0:0:
256,48,213716,1,2,0:0:0:0:
200,8,213909,6,0,P|152:48|128:112,1,120,4|0,1:0|0:0,0:0:0:0:
192,144,214490,1,8,1:2:0:0:
208,216,214684,2,0,P|200:256|184:288,1,60,0|2,0:0|1:2,0:0:0:0:
216,344,215071,2,0,P|256:352|280:360,1,60,4|0,1:2|0:0,0:0:0:0:
344,368,215458,1,0,1:0:0:0:
352,296,215651,1,8,1:2:0:0:
472,120,216232,6,0,P|424:88|304:112,1,180,0|8,1:0|1:2,0:0:0:0:
272,168,217006,2,0,P|216:176|192:176,1,60,0|4,1:0|0:0,0:0:0:0:
152,144,217393,1,0,1:0:0:0:
32,8,217974,1,0,1:0:0:0:
104,8,218167,1,8,1:2:0:0:
136,72,218361,1,4,0:0:0:0:
80,128,218555,6,0,P|72:168|64:200,1,60,6|2,1:0|1:1,0:0:0:0:
24,248,218942,1,8,1:0:0:0:
88,280,219135,2,0,P|96:320|104:352,1,60,2|2,1:0|1:0,0:0:0:0:
240,368,219716,1,2,1:0:0:0:
304,336,219909,2,0,B|312:304|312:304|296:280,1,60,2|8,1:0|1:0,0:0:0:0:
232,256,220296,2,0,L|248:176,2,60,0|8|0,1:0|1:0|1:0,0:0:0:0:
168,296,220877,5,4,1:3:0:0:
104,256,221071,2,0,P|96:200|128:144,1,120,6|4,1:3|1:3,0:0:0:0:
112,72,221651,1,6,1:3:0:0:
256,80,222038,1,4,1:3:0:0:
288,144,222232,1,2,1:3:0:0:
352,120,222426,2,0,P|400:128|432:128,1,60,6|4,1:3|1:3,0:0:0:0:
456,184,222813,1,6,1:3:0:0:
504,128,223006,1,4,0:3:0:0:
504,56,223200,6,0,P|456:48|424:48,1,60,2|2,1:0|1:0,0:0:0:0:
384,80,223587,1,8,1:0:0:0:
336,24,223780,2,0,P|296:40|256:48,1,60,2|2,1:0|1:0,0:0:0:0:
136,32,224361,1,2,1:0:0:0:
64,56,224555,2,0,P|56:112|48:200,1,120,2|0,1:0|1:0,0:0:0:0:
96,232,225135,1,8,1:0:0:0:
96,304,225329,1,0,1:0:0:0:
152,352,225522,6,0,P|216:336|232:336,1,60,4|0,1:0|3:0,0:0:0:0:
248,272,225909,1,8,1:0:0:0:
312,304,226103,2,0,P|360:320|384:328,1,60,8|4,1:2|0:3,0:0:0:0:
424,272,226490,1,4,1:3:0:0:
488,312,226684,2,0,P|504:264|312:72,1,360,4|2,1:0|0:0,0:0:0:0:
256,192,228026,12,2,230168,0:0:0:0:
