osu file format v14

[General]
AudioFilename: audio.mp3
AudioLeadIn: 0
PreviewTime: 181200
Countdown: 1
SampleSet: Soft
StackLeniency: 0.7
Mode: 0
LetterboxInBreaks: 0
WidescreenStoryboard: 1

[Editor]
DistanceSpacing: 0.6
BeatDivisor: 4
GridSize: 8
TimelineZoom: 1.450001

[Metadata]
Title:syncretism
TitleUnicode:syncretism
Artist:Annabel
ArtistUnicode:Annabel
Creator:Mirash
Version:Insane
Source:Hybrid Child
Tags:Delis shirohamymommy anime japanese pop
BeatmapID:2933980
BeatmapSetID:1424727

[Difficulty]
HPDrainRate:6
CircleSize:4
OverallDifficulty:9
ApproachRate:8
SliderMultiplier:1.4
SliderTickRate:1

[Events]
//Background and Video events
0,0,"BG.jpg",0,0
//Break Periods
2,84989,93547
2,181393,189934
//Storyboard Layer 0 (Background)
//Storyboard Layer 1 (Fail)
//Storyboard Layer 2 (Pass)
//Storyboard Layer 3 (Foreground)
//Storyboard Layer 4 (Overlay)
//Storyboard Sound Samples

[TimingPoints]
958,387.096774193548,3,2,0,20,1,0
958,-200,3,2,0,30,0,0
10248,-100,3,2,0,30,0,0
15667,-100,3,2,0,20,0,0
15861,-100,3,2,0,15,0,0
16054,-100,3,2,0,30,0,0
16828,-100,3,2,0,20,0,0
17022,-100,3,2,0,15,0,0
17215,-100,3,2,0,30,0,0
17990,-100,3,2,0,20,0,0
18184,-100,3,2,0,15,0,0
18377,-100,3,2,0,30,0,0
36570,-100,3,2,0,40,0,0
38119,-100,3,2,0,50,0,0
50699,-100,3,2,0,30,0,0
50796,-100,3,2,0,50,0,0
54570,-100,3,2,0,30,0,0
55925,-100,3,2,0,20,0,0
56312,-100,3,2,0,30,0,0
56699,-66.6666666666667,3,2,0,60,0,0
75280,-57.1428571428571,3,2,0,60,0,0
83409,397.350993377483,3,2,0,50,1,0
83409,-133.333333333333,3,2,0,50,0,0
84402,387.096774193548,3,2,0,20,1,0
85324,408.163265306122,3,2,0,50,1,0
86140,387.096774193548,3,2,0,50,1,0
87301,394.736842105263,3,2,0,50,1,0
88485,389.61038961039,3,2,0,50,1,0
90822,387.096774193548,3,2,0,50,1,0
93144,384.615384615385,3,2,0,50,1,0
94297,387.096774193548,3,2,0,50,1,0
94297,-133.333333333333,3,2,0,40,0,0
98942,-80,3,2,0,40,0,0
99329,-133.333333333333,3,2,0,20,0,0
99426,-133.333333333333,3,2,0,40,0,0
100103,-80,3,2,0,40,0,0
100490,-133.333333333333,3,2,0,20,0,0
100587,-133.333333333333,3,2,0,40,0,0
101264,-80,3,2,0,40,0,0
101651,-133.333333333333,3,2,0,20,0,0
101748,-133.333333333333,3,2,0,40,0,0
103587,-100,3,2,0,50,0,0
141909,-66.6666666666667,3,2,0,65,0,0
160490,-100,3,3,0,60,0,0
179458,-133.333333333333,3,2,0,30,0,0
190684,-100,3,2,0,40,0,0
195329,-66.6666666666667,3,2,0,50,0,0
195522,-133.333333333333,3,2,0,30,0,0
195909,-66.6666666666667,3,2,0,50,0,0
196102,-133.333333333333,3,2,0,30,0,0
196490,-66.6666666666667,3,2,0,50,0,0
196683,-133.333333333333,3,2,0,30,0,0
197071,-66.6666666666667,3,2,0,50,0,0
197264,-133.333333333333,3,2,0,30,0,0
197651,-133.333333333333,3,2,0,50,0,0
198813,-133.333333333333,3,2,0,30,0,0
199587,-133.333333333333,3,2,0,40,0,0
199780,-133.333333333333,3,2,0,45,0,0
199974,-66.6666666666667,3,2,0,70,0,0
218555,-57.1428571428571,3,2,0,70,0,0
226684,368.098159509202,3,2,0,50,1,0
226684,-333.333333333333,3,2,0,50,0,0
227512,-333.333333333333,3,2,0,30,0,0
227604,-333.333333333333,3,2,0,5,0,0
227788,476.190476190476,3,2,0,15,1,0
228264,-100,3,2,0,5,0,0
228502,-100,3,2,0,20,0,0
230168,-100,3,2,0,6,0,0

[Colours]
Combo1 : 255,207,64
Combo2 : 254,105,199
Combo3 : 70,153,255
Combo4 : 155,209,116

[HitObjects]
80,96,764,5,0,0:0:0:0:
160,144,958,2,0,P|216:128|272:104,1,105,2|0,0:0|0:0,0:0:0:0:
259,110,2119,2,0,P|256:80|248:64,1,35,2|0,0:0|0:0,0:0:0:0:
254,75,2699,2,0,P|264:136|278:184,1,105,0|2,0:0|0:0,0:0:0:0:
325,253,3667,1,0,0:0:0:0:
312,328,3861,1,0,0:0:0:0:
312,328,4248,1,0,3:0:0:0:
325,253,4441,2,0,P|358:267|371:273,1,35,2|0,0:0|0:0,0:0:0:0:
256,232,4828,2,0,P|224:256|184:272,1,70,2|0,0:0|0:0,0:0:0:0:
72,216,5603,5,2,0:0:0:0:
144,200,5990,1,2,0:0:0:0:
72,216,6183,2,0,P|72:176|64:144,1,70,0|0,0:0|0:0,0:0:0:0:
40,80,6764,1,2,0:0:0:0:
40,80,6957,2,0,P|80:72|120:56,1,70,2|0,0:0|0:0,0:0:0:0:
152,8,7538,1,0,0:0:0:0:
208,56,7732,1,0,0:0:0:0:
152,8,7925,1,2,0:0:0:0:
296,40,8312,5,2,0:0:0:0:
280,48,8506,1,0,0:0:0:0:
328,128,8699,1,0,0:0:0:0:
360,96,8893,1,0,0:0:0:0:
432,64,9087,2,0,P|440:96|456:120,1,61.25,2|0,0:0|0:0,0:0:0:0:
448,144,9474,2,0,L|456:152,4,8.75,2|0|0|0|0,0:0|0:0|0:0|0:0|0:0,0:0:0:0:
384,184,9861,1,0,0:0:0:0:
472,320,10248,6,0,P|464:280|464:264,1,35,2|0,3:0|0:0,0:0:0:0:
464,288,10635,1,0,3:0:0:0:
400,248,10828,1,2,0:0:0:0:
328,280,11022,1,2,0:0:0:0:
320,352,11216,1,0,0:0:0:0:
320,352,11409,6,0,P|312:312|312:296,1,35,2|0,3:0|0:0,0:0:0:0:
312,320,11796,1,0,3:0:0:0:
248,280,11990,1,2,0:0:0:0:
176,312,12183,1,2,0:0:0:0:
176,312,12570,6,0,P|168:272|168:256,1,35,2|0,3:0|0:0,0:0:0:0:
168,280,12957,1,2,0:0:0:0:
104,256,13151,1,2,0:0:0:0:
104,256,13538,1,2,0:0:0:0:
174,287,13732,2,0,P|182:239|182:135,2,140,4|0|2,0:0|3:0|3:2,0:0:0:0:
304,264,14893,6,0,P|320:272|344:288,1,35,2|0,3:0|0:0,0:0:0:0:
334,281,15280,2,0,P|348:271|364:263,1,35,0|0,3:0|0:0,0:0:0:0:
400,200,15474,1,2,0:0:0:0:
464,240,15667,1,4,0:0:0:0:
512,176,15861,1,4,0:0:0:0:
512,176,16054,6,0,P|496:184|472:200,1,35,2|0,3:0|0:0,0:0:0:0:
481,193,16441,2,0,P|466:183|450:175,1,35,0|0,3:0|0:0,0:0:0:0:
424,104,16635,1,2,0:0:0:0:
360,144,16828,1,4,0:0:0:0:
312,88,17022,1,4,0:0:0:0:
312,88,17216,6,0,P|272:96|264:96,1,35,2|0,3:0|0:0,0:0:0:0:
277,95,17603,2,0,P|259:92|242:87,1,35,0|0,3:0|0:0,0:0:0:0:
200,24,17796,1,2,0:0:0:0:
136,64,17990,1,4,0:0:0:0:
72,24,18183,1,4,0:0:0:0:
16,72,18377,2,0,L|24:96,6,17.5,0|0|0|0|0|0|0,3:0|3:0|3:0|3:0|3:0|3:0|3:0,3:3:0:0:
72,144,18764,2,0,L|64:168,6,17.5,0|0|0|0|0|0|0,3:0|3:0|3:0|3:0|3:0|3:0|3:0,3:3:0:0:
8,208,19151,1,8,0:0:0:0:
56,272,19345,1,0,3:0:0:0:
152,248,19538,6,0,P|176:256|200:272,5,35,0|0|0|0|0|0,3:0|0:0|0:0|0:0|0:0|0:0,0:0:0:0:
248,224,20119,1,2,0:0:0:0:
184,352,20699,2,0,P|224:336|328:296,2,140,0|2|0,3:0|0:0|0:0,0:0:0:0:
360,208,21861,6,0,P|384:224|400:240,5,35,2|0|0|0|0|0,0:0|0:0|0:0|0:0|0:0|0:0,0:0:0:0:
288,216,22441,1,2,3:0:0:0:
432,72,23022,2,0,P|448:120|456:160,1,70,2|0,0:0|0:0,0:0:0:0:
360,8,23409,2,0,P|344:48|320:160,1,140,2|0,0:0|0:0,0:0:0:0:
321,142,24183,6,0,P|289:198|208:200,1,140,2|0,3:0|0:0,0:0:0:0:
168,120,24764,1,2,0:0:0:0:
168,120,25151,1,0,0:0:0:0:
64,160,25345,2,0,P|80:216|112:320,2,140,2|0|0,3:0|0:0|0:0,0:0:0:0:
232,32,26506,2,0,P|280:40|376:176,1,210,2|0,3:0|0:0,0:0:0:0:
376,240,27280,1,0,0:0:0:0:
120,336,27667,5,0,3:0:0:0:
96,264,27861,1,2,0:0:0:0:
104,192,28054,1,2,0:0:0:0:
144,128,28247,1,0,0:0:0:0:
216,112,28441,1,2,0:0:0:0:
288,144,28635,1,2,0:0:0:0:
408,208,28828,6,0,P|464:192|488:184,1,70,4|0,0:0|0:0,0:0:0:0:
416,288,29216,1,2,0:0:0:0:
224,256,29409,2,0,P|280:288|368:336,1,140,2|0,3:0|0:0,0:0:0:0:
346,324,29893,1,0,0:0:0:0:
346,324,29990,1,0,3:0:0:0:
346,324,30377,2,0,P|288:336|256:344,1,70,2|0,3:2|0:0,0:0:0:0:
392,264,30764,2,0,P|357:256|323:249,1,70,0|0,0:0|0:0,0:0:0:0:
184,80,31151,6,0,P|112:104|24:136,1,140,0|0,3:0|0:0,0:0:0:0:
208,160,31732,1,2,3:0:0:0:
264,104,31925,2,0,P|280:136|304:184,1,70,2|0,0:0|0:0,0:0:0:0:
280,192,32216,1,0,0:0:0:0:
264,216,32312,1,0,3:0:0:0:
264,216,32699,2,0,L|272:240,4,17.5,2|0|0|0|0,3:2|0:0|3:0|0:0|3:0,3:3:0:0:
192,232,33087,2,0,P|176:272|160:304,1,70,0|0,0:0|0:0,0:0:0:0:
24,192,33474,6,0,P|24:136|112:72,1,140,2|0,3:0|0:0,0:0:0:0:
128,16,34054,1,2,3:2:0:0:
208,112,34248,1,0,0:0:0:0:
208,112,34441,1,0,0:0:0:0:
344,32,34635,2,0,P|416:48|488:56,1,140,2|0,3:0|0:0,0:0:0:0:
481,55,35216,1,0,0:0:0:0:
481,55,35409,1,0,0:0:0:0:
481,55,35603,1,0,0:0:0:0:
440,120,35796,5,0,3:0:0:0:
384,64,35990,1,0,3:0:0:0:
304,72,36183,1,0,1:0:0:0:
256,144,36377,1,0,1:0:0:0:
336,280,36570,5,0,1:0:0:0:
424,176,36764,1,8,1:2:0:0:
312,88,36957,1,8,1:0:0:0:
336,160,37151,1,0,1:0:0:0:
288,0,37345,5,2,3:0:0:0:
176,64,37538,1,2,0:0:0:0:
168,144,37732,1,4,3:0:0:0:
232,192,37925,1,0,1:0:0:0:
456,152,38119,6,0,P|456:96|448:8,1,140,4|2,1:0|0:0,0:0:0:0:
368,144,38699,1,0,1:0:0:0:
424,224,38893,2,0,P|480:224|512:208,1,70,0|0,0:0|1:0,0:0:0:0:
184,200,39280,2,0,P|136:232|112:328,1,140,0|0,1:0|0:0,0:0:0:0:
176,336,39861,1,0,3:0:0:0:
232,288,40054,1,2,0:0:0:0:
264,352,40248,1,0,3:0:0:0:
280,192,40441,6,0,P|264:120|256:40,1,140,0|2,1:0|0:0,0:0:0:0:
192,112,41022,1,0,3:0:0:0:
168,40,41216,1,0,0:0:0:0:
120,96,41409,1,0,3:0:0:0:
336,24,41603,1,0,1:0:0:0:
336,24,41990,2,0,L|352:32,4,17.5,2|0|0|0|0,0:0|0:0|0:0|0:0|0:0,0:0:0:0:
264,112,42377,1,0,3:0:0:0:
384,144,42570,1,0,3:0:0:0:
480,48,42764,6,0,P|448:72|344:112,1,140,0|0,1:0|0:0,0:0:0:0:
248,40,43345,2,0,P|182:62|124:101,1,140,0|0,1:0|0:0,0:0:0:0:
88,216,43925,2,0,P|16:192|16:112,1,140,0|2,1:0|0:0,0:0:0:0:
8,56,44506,1,0,3:0:0:0:
88,64,44699,2,0,P|80:112|80:144,1,70,2|2,0:0|0:0,0:0:0:0:
144,328,45087,5,0,1:0:0:0:
144,328,45474,1,0,3:0:0:0:
320,280,45667,1,0,1:0:0:0:
320,280,46054,1,0,3:0:0:0:
152,208,46248,2,0,L|144:176,4,17.5,0|2|0|0|0,1:0|0:0|0:0|0:0|0:0,0:0:0:0:
224,168,46635,2,0,P|232:208|240:256,1,70,2|0,0:0|0:0,0:0:0:0:
304,176,47022,1,2,0:0:0:0:
160,112,47216,1,0,0:0:0:0:
296,32,47409,6,0,P|336:48|384:64,1,70,0|0,1:0|0:0,0:0:0:0:
384,128,47796,1,0,3:0:0:0:
192,16,47990,2,0,P|144:40|48:80,1,140,0|0,1:0|0:0,0:0:0:0:
208,248,48570,1,0,1:0:0:0:
208,248,48957,5,2,0:0:0:0:
288,216,49151,1,0,3:0:0:0:
208,168,49345,1,0,1:0:0:0:
280,296,49538,1,0,0:0:0:0:
480,184,49732,6,0,P|464:144|456:112,1,70,0|2,1:0|0:0,0:0:0:0:
456,40,50119,1,0,3:0:0:0:
480,184,50312,2,0,P|472:240|464:344,1,140,0|4,1:0|0:0,0:0:0:0:
256,192,50893,1,0,1:0:0:0:
256,192,51280,2,0,P|232:200|224:200,4,17.5,2|0|0|0|0,0:0|0:0|0:0|0:0|3:0,0:0:0:0:
272,120,51667,1,0,1:0:0:0:
336,160,51861,1,0,3:0:0:0:
264,280,52054,6,0,P|216:280|112:264,1,140,0|2,1:0|0:0,0:0:0:0:
32,184,52635,1,0,1:0:0:0:
104,192,52828,1,0,0:0:0:0:
176,192,53022,1,0,3:0:0:0:
336,96,53216,6,0,P|384:112|432:128,1,70,0|0,1:0|0:0,0:0:0:0:
256,152,53603,1,2,0:0:0:0:
240,80,53796,1,0,3:0:0:0:
232,8,53990,1,0,1:0:0:0:
240,80,54183,1,0,3:0:0:0:
272,232,54377,2,0,P|280:288|288:328,1,70,0|0,1:0|0:0,0:0:0:0:
282,301,54957,6,0,P|276:266|272:232,2,70,2|0|0,0:0|3:0|3:0,0:0:0:0:
336,352,55538,2,2,L|352:360,4,17.5,0|0|0|0|0,0:0|0:0|0:0|0:0|0:0,0:0:0:0:
424,352,55925,2,0,L|424:368,6,11.6666666666667,0|0|0|0|0|0|0,3:0|3:0|3:0|3:0|3:0|3:0|3:0,3:3:0:0:
472,296,56312,1,2,3:0:0:0:
512,360,56506,1,4,1:3:0:0:
336,256,56699,6,0,P|304:192|360:56,1,210.000008010865,4|0,1:0|0:0,0:0:0:0:
480,192,57280,1,8,1:2:0:0:
480,192,57667,1,2,0:0:0:0:
336,336,57861,2,0,P|272:312|208:296,1,105.000004005432,0|0,1:0|0:0,0:0:0:0:
184,208,58248,1,0,1:0:0:0:
120,288,58441,1,8,1:2:0:0:
32,224,58635,1,0,1:0:0:0:
96,136,58828,1,4,1:2:0:0:
312,248,59022,6,0,P|304:176|288:24,1,210.000008010865,0|0,1:0|0:0,0:0:0:0:
289,39,59603,1,8,1:2:0:0:
289,39,59990,1,2,1:2:0:0:
424,224,60183,2,0,P|448:240|456:320,1,105.000004005432,2|0,1:0|0:0,0:0:0:0:
192,280,60570,2,0,P|160:216|184:168,1,105.000004005432,2|0,1:0|0:0,0:0:0:0:
360,136,60957,2,0,P|320:224|312:280,1,105.000004005432,2|2,1:0|0:0,0:0:0:0:
184,96,61345,6,0,P|120:120|24:232,1,210.000008010865,4|0,1:0|0:0,0:0:0:0:
80,320,61925,1,8,1:2:0:0:
176,264,62119,1,0,0:0:0:0:
80,320,62312,1,2,1:2:0:0:
240,360,62506,5,4,1:2:0:0:
296,264,62699,2,0,P|304:184|240:48,1,210.000008010865,0|8,1:0|1:2,0:0:0:0:
192,144,63280,1,0,1:0:0:0:
432,208,63474,5,2,1:0:0:0:
432,208,63570,1,2,1:2:0:0:
432,208,63667,2,0,P|424:136|296:152,1,210.000008010865,0|0,1:0|0:0,0:0:0:0:
352,232,64248,1,8,1:2:0:0:
488,272,64441,1,0,1:0:0:0:
504,152,64635,1,4,0:0:0:0:
240,232,64828,6,0,P|272:248|304:176,1,105.000004005432,4|0,1:3|0:0,0:0:0:0:
104,208,65216,2,0,P|120:168|184:192,1,105.000004005432,2|2,1:0|0:1,0:0:0:0:
56,272,65603,1,8,1:2:0:0:
232,224,65796,1,4,0:0:0:0:
32,72,65990,6,0,P|104:96|248:120,1,210.000008010865,4|0,1:0|0:0,0:0:0:0:
432,312,66570,2,0,P|328:295|228:264,1,210.000008010865,8|2,1:2|0:0,0:0:0:0:
336,184,67151,2,0,P|368:144|416:160,1,105.000004005432,0|0,1:0|0:0,0:0:0:0:
248,192,67538,1,0,1:0:0:0:
312,64,67732,6,0,P|248:56|160:168,1,210.000008010865,8|4,1:2|1:2,0:0:0:0:
128,136,68216,1,0,3:0:0:0:
120,176,68312,2,0,P|136:248|160:384,1,210.000008010865,0|0,1:0|0:0,0:0:0:0:
232,344,68893,1,8,1:2:0:0:
232,344,69087,1,0,0:0:0:0:
240,264,69280,1,2,1:2:0:0:
432,264,69474,6,0,P|408:320|392:376,1,105.000004005432,2|0,1:0|0:0,0:0:0:0:
232,344,69861,2,0,P|195:295|155:253,1,105.000004005432,2|0,1:0|0:0,0:0:0:0:
248,128,70248,2,0,P|308:120|364:106,1,105.000004005432,2|2,1:0|0:0,0:0:0:0:
192,64,70635,6,0,P|120:112|-16:176,1,210.000008010865,4|0,1:0|0:0,0:0:0:0:
136,232,71216,1,8,1:2:0:0:
232,144,71409,2,0,P|240:192|240:264,1,105.000004005432,0|2,0:0|1:2,0:0:0:0:
360,104,71796,1,4,1:2:0:0:
360,104,72183,1,0,1:0:0:0:
464,216,72377,1,8,1:2:0:0:
344,304,72570,2,0,P|335:252|334:199,1,105.000004005432,0|2,1:0|1:0,0:0:0:0:
416,352,72957,5,0,1:0:0:0:
352,384,73151,1,2,0:0:0:0:
280,376,73345,1,0,0:0:0:0:
216,336,73538,1,8,1:2:0:0:
104,256,73732,2,0,P|40:248|-16:248,1,105.000004005432,0|4,1:0|0:0,0:0:0:0:
80,368,74119,2,0,L|128:360,4,26.2500010013581,0|0|2|0|2,1:0|0:0|0:0|0:0|0:0,0:0:0:0:
168,312,74506,2,0,L|184:320,6,17.500000667572,0|0|0|0|0|0|0,3:0|2:0|3:0|2:0|3:0|2:0|3:0,3:3:0:0:
240,376,74893,1,8,1:2:0:0:
304,336,75087,1,4,0:0:0:0:
432,360,75280,6,0,P|496:344|512:336,1,61.2500005841255,6|0,1:0|0:0,0:0:0:0:
491,345,75474,2,0,P|460:340|431:330,1,61.2500005841255,2|0,1:1|0:0,0:0:0:0:
368,368,75667,1,8,1:0:0:0:
296,288,75861,6,0,P|232:272|216:264,1,61.2500005841255,2|0,1:0|0:0,0:0:0:0:
237,273,76054,2,0,P|267:268|296:258,1,61.2500005841255,2|0,1:0|0:0,0:0:0:0:
360,296,76248,1,2,0:0:0:0:
432,208,76441,6,0,P|496:192|512:184,1,61.2500005841255,2|0,1:0|0:0,0:0:0:0:
491,193,76635,2,0,P|460:188|431:178,1,61.2500005841255,2|0,1:0|0:0,0:0:0:0:
368,216,76828,1,8,1:0:0:0:
296,136,77022,1,0,1:0:0:0:
248,144,77119,1,8,1:2:0:0:
200,152,77216,1,8,1:0:0:0:
120,96,77409,1,0,1:0:0:0:
264,8,77603,6,0,L|248:88,1,61.2500005841255,4|0,1:3|0:0,0:0:0:0:
248,144,77796,2,0,L|264:224,1,61.2500005841255,6|0,1:3|0:0,0:0:0:0:
248,280,77990,1,0,3:0:0:0:
320,320,78183,6,0,B|336:296|336:296|328:264,1,61.2500005841255,4|0,1:3|0:0,0:0:0:0:
176,256,78377,2,0,B|168:288|168:288|184:312,1,61.2500005841255,6|0,1:3|0:0,0:0:0:0:
256,368,78570,1,0,3:0:0:0:
328,200,78764,5,4,1:3:0:0:
248,128,78957,1,2,1:3:0:0:
256,80,79054,1,4,1:3:0:0:
264,32,79151,1,6,1:3:0:0:
160,88,79345,1,4,1:3:0:0:
352,80,79538,1,6,1:3:0:0:
248,264,79732,5,4,0:3:0:0:
248,264,79828,1,4,0:3:0:0:
248,264,79925,2,0,L|176:256,1,61.2500005841255,2|0,1:0|0:0,0:0:0:0:
128,216,80119,2,0,L|67:222,1,61.2500005841255,2|0,1:0|0:0,0:0:0:0:
24,288,80312,1,8,1:0:0:0:
23,287,80506,6,0,L|84:294,1,61.2500005841255,2|0,1:0|0:0,0:0:0:0:
131,350,80700,2,0,L|192:344,1,61.2500005841255,2|0,1:0|0:0,0:0:0:0:
264,376,80893,1,2,0:0:0:0:
264,376,81087,6,0,L|324:382,1,61.2500005841255,2|0,1:0|0:0,0:0:0:0:
372,326,81280,2,0,L|432:319,1,61.2500005841255,2|0,1:0|0:0,0:0:0:0:
288,288,81474,1,8,1:0:0:0:
200,240,81667,1,0,1:0:0:0:
208,192,81764,1,8,1:2:0:0:
216,144,81861,1,8,1:0:0:0:
104,224,82054,1,0,1:0:0:0:
344,192,82248,5,4,1:0:0:0:
416,256,82441,1,0,3:0:0:0:
432,168,82635,1,8,1:0:0:0:
200,240,82828,5,8,1:2:0:0:
184,64,83022,1,4,0:3:0:0:
40,160,83216,1,4,1:3:0:0:
312,112,83409,6,0,P|320:200|352:376,1,262.500010013581,4|2,1:0|0:0,0:0:0:0:
350,371,84595,1,0,0:0:0:0:
350,371,84789,1,0,0:0:0:0:
432,256,94297,6,0,P|424:208|416:128,1,105.000004005432,0|0,3:0|3:0,0:0:0:0:
400,80,94877,1,2,0:0:0:0:
328,88,95071,1,2,0:0:0:0:
256,104,95264,1,2,0:0:0:0:
184,120,95458,2,0,P|189:172|198:223,1,105.000004005432,0|0,3:0|3:0,0:0:0:0:
208,296,96038,1,2,0:0:0:0:
136,312,96232,2,0,P|128:264|120:184,1,105.000004005432,2|0,0:0|3:0,0:0:0:0:
121,208,97006,5,2,3:2:0:0:
272,240,97200,2,0,P|320:232|400:224,1,105.000004005432,2|2,0:0|3:2,0:0:0:0:
440,272,97780,1,2,3:0:0:0:
440,272,98167,2,0,L|456:280,4,17.500000667572,0|0|0|0|0,3:0|3:0|3:0|3:0|3:0,3:3:0:0:
472,208,98555,2,0,P|480:168|480:144,1,52.5000020027161,2|0,0:0|0:0,0:0:0:0:
368,168,98942,6,0,P|320:152|272:152,1,87.5,4|0,0:0|0:0,0:0:0:0:
272,72,99329,2,0,P|280:32|272:0,2,52.5000020027161,4|2|2,0:0|0:0|0:0,0:0:0:0:
216,120,99909,1,0,0:0:0:0:
160,248,100103,6,0,P|144:208|144:152,1,87.5,4|0,0:0|0:0,0:0:0:0:
104,96,100490,2,0,P|80:104|48:112,2,52.5000020027161,4|2|2,0:0|0:0|0:0,0:0:0:0:
136,24,101071,1,0,0:0:0:0:
264,192,101264,6,0,P|304:208|368:224,1,87.5,4|0,0:0|0:0,0:0:0:0:
408,176,101651,2,0,P|448:168|472:168,1,52.5000020027161,4|2,0:0|0:0,0:0:0:0:
400,304,102038,2,0,P|360:296|336:296,1,52.5000020027161,2|2,0:0|0:0,0:0:0:0:
272,312,102426,2,0,L|264:336,3,17.500000667572,0|0|0|0,3:0|0:0|0:0|0:0,0:0:0:0:
192,336,102813,2,0,L|192:352,6,8.75000033378602,0|0|0|0|0|0|0,3:0|0:0|0:0|3:0|0:0|0:0|3:0,0:0:0:0:
112,272,103200,1,4,0:3:0:0:
184,192,103393,1,4,3:0:0:0:
288,248,103587,6,0,P|360:264|440:272,1,140,4|2,1:0|0:0,0:0:0:0:
504,176,104167,1,8,1:3:0:0:
408,128,104361,2,0,P|416:176|440:208,1,70,0|0,0:0|3:0,0:0:0:0:
320,144,104748,2,0,P|250:136|182:120,1,140,4|0,1:3|0:0,0:0:0:0:
104,144,105329,1,2,0:0:0:0:
128,64,105522,1,0,3:0:0:0:
48,80,105716,1,0,3:0:0:0:
88,0,105909,6,0,P|156:15|225:23,1,140,0|2,1:0|0:0,0:0:0:0:
344,96,106490,1,8,1:3:0:0:
416,64,106684,2,0,P|456:72|496:88,1,70,0|0,0:0|0:0,0:0:0:0:
256,192,107071,1,4,1:3:0:0:
256,192,107458,2,0,L|264:224,3,23.3333333333333,2|0|0|0,1:2|0:0|0:0|0:0,0:0:0:0:
192,144,107845,1,0,3:0:0:0:
160,216,108038,1,0,3:0:0:0:
328,360,108232,6,0,P|328:304|336:200,1,140,4|2,1:3|0:0,0:0:0:0:
320,144,108813,1,8,1:3:0:0:
432,256,109006,2,0,P|480:216|480:184,1,70,0|0,3:0|0:0,0:0:0:0:
280,64,109393,2,0,P|232:64|168:128,2,140,0|2|0,1:0|0:0|3:0,0:0:0:0:
344,16,110361,1,0,0:0:0:0:
240,232,110555,6,0,P|184:248|96:136,1,210,4|0,1:3|3:0,0:0:0:0:
16,152,111329,2,0,P|16:200|8:240,1,70,2|0,0:0|0:0,0:0:0:0:
56,288,111716,2,0,L|48:320,3,23.3333333333333,2|0|0|0,3:2|0:0|0:0|0:0,0:0:0:0:
128,320,112103,1,2,0:0:0:0:
200,288,112296,1,2,0:0:0:0:
232,216,112490,1,2,3:2:0:0:
216,144,112684,1,0,0:0:0:0:
312,40,112877,6,0,P|320:80|336:200,1,140,0|0,1:0|0:0,0:0:0:0:
328,304,113458,1,8,1:3:0:0:
408,312,113651,2,0,P|456:304|496:296,1,70,0|0,0:0|0:0,0:0:0:0:
256,240,114038,2,0,P|200:256|104:288,1,140,4|8,0:3|0:3,0:0:0:0:
48,248,114619,1,0,3:0:0:0:
56,328,114813,1,2,0:0:0:0:
112,208,115006,1,0,3:0:0:0:
264,112,115200,6,0,P|312:128|408:144,1,140,4|0,1:3|0:0,0:0:0:0:
504,88,115780,1,8,1:3:0:0:
448,32,115974,2,0,P|400:32|368:24,1,70,2|0,0:0|0:0,0:0:0:0:
200,64,116361,1,4,0:3:0:0:
200,64,116748,2,0,P|184:48|168:32,3,23.3333333333333,2|0|0|0,3:2|0:0|0:0|0:0,0:0:0:0:
136,112,117135,1,0,3:0:0:0:
80,56,117329,1,0,3:0:0:0:
304,24,117522,6,0,P|288:64|264:184,1,140,4|2,1:3|0:0,0:0:0:0:
176,192,118103,1,8,3:0:0:0:
288,248,118296,2,0,P|296:288|304:320,1,70,0|0,0:0|0:0,0:0:0:0:
80,320,118684,2,0,P|168:296|216:272,2,140,4|2|0,0:3|0:0|3:0,0:0:0:0:
24,256,119651,1,0,3:0:0:0:
88,192,119845,6,0,P|128:200|160:208,1,70,4|0,0:3|0:0,0:0:0:0:
232,160,120232,1,2,0:0:0:0:
296,320,120426,1,8,1:3:0:0:
296,320,120813,1,4,0:0:0:0:
360,280,121006,2,0,L|392:288,3,23.3333333333333,2|0|0|0,3:2|0:0|0:0|0:0,0:0:0:0:
336,208,121393,5,8,1:2:0:0:
200,248,121587,1,0,1:0:0:0:
304,352,121780,1,4,0:3:0:0:
448,312,121974,1,4,1:3:0:0:
400,120,122167,6,0,P|352:128|248:152,1,140,4|2,1:0|0:0,0:0:0:0:
168,120,122748,1,0,1:0:0:0:
144,208,122942,1,0,0:0:0:0:
144,208,123135,1,0,1:0:0:0:
232,352,123329,6,0,P|256:304|208:216,1,140,0|0,1:0|0:0,0:0:0:0:
144,208,123909,1,0,3:0:0:0:
88,264,124103,1,2,0:0:0:0:
112,336,124296,1,0,3:0:0:0:
8,256,124490,6,0,P|8:200|0:96,1,140,0|2,1:0|0:0,0:0:0:0:
40,40,125071,1,0,3:0:0:0:
80,112,125264,1,0,0:0:0:0:
40,40,125458,1,0,3:0:0:0:
176,80,125651,2,0,P|232:96|264:104,1,70,0|0,1:0|0:0,0:0:0:0:
320,72,126038,2,0,L|344:72,3,23.3333333333333,2|0|0|0,3:2|0:0|0:0|0:0,0:0:0:0:
304,152,126426,1,0,3:0:0:0:
352,216,126619,1,0,3:0:0:0:
480,176,126813,6,0,P|440:152|424:64,1,140,0|0,1:0|0:0,0:0:0:0:
496,16,127393,2,0,P|512:64|512:96,2,70,0|0|0,1:0|0:0|0:0,0:0:0:0:
336,48,127974,2,0,P|280:48|200:96,1,140,0|2,1:0|0:0,0:0:0:0:
120,80,128555,1,0,3:0:0:0:
96,160,128748,1,2,0:0:0:0:
160,216,128942,1,2,0:0:0:0:
344,280,129135,6,0,P|360:224|304:160,1,140,0|0,1:0|3:0,0:0:0:0:
240,288,129716,2,0,P|248:344|256:376,2,70,0|0|0,1:0|0:0|3:0,0:0:0:0:
80,240,130296,2,0,L|72:200,3,23.3333333333333,0|0|0|0,1:0|0:0|0:0|0:0,0:0:0:0:
144,272,130684,1,2,0:0:0:0:
152,200,130877,1,0,0:0:0:0:
160,128,131071,1,2,0:0:0:0:
168,56,131264,1,0,0:0:0:0:
384,152,131458,6,0,P|432:184|456:272,1,140,0|0,1:0|3:0,0:0:0:0:
320,320,132038,2,0,P|280:312|240:280,1,70,0|0,1:0|0:0,0:0:0:0:
208,208,132426,1,0,0:0:0:0:
80,368,132619,2,0,P|104:304|192:288,1,140,0|2,1:0|0:0,0:0:0:0:
208,208,133200,1,0,3:0:0:0:
304,224,133393,2,0,P|312:176|288:136,1,70,0|0,1:0|0:0,0:0:0:0:
136,48,133780,5,0,1:0:0:0:
96,144,133974,1,2,0:0:0:0:
96,144,134361,2,0,P|176:128|256:120,1,140,0|4,1:0|0:0,0:0:0:0:
320,80,134942,1,0,1:0:0:0:
320,80,135329,2,0,L|352:88,3,23.3333333333333,2|0|0|0,0:0|0:0|0:0|0:0,0:0:0:0:
288,8,135716,1,0,0:0:0:0:
240,64,135909,1,0,3:0:0:0:
368,176,136103,6,0,P|376:224|384:320,1,140,0|2,1:0|0:0,0:0:0:0:
256,360,136684,2,0,P|261:290|271:221,1,140,0|0,1:0|3:0,0:0:0:0:
136,168,137264,2,0,P|144:216|152:312,1,140,0|2,1:0|0:0,0:0:0:0:
56,344,137845,1,0,3:0:0:0:
0,288,138038,1,0,1:0:0:0:
48,232,138232,1,0,3:0:0:0:
200,368,138426,5,0,1:0:0:0:
328,232,138813,1,0,0:0:0:0:
376,288,139007,1,2,0:0:0:0:
320,344,139200,1,0,3:0:0:0:
272,288,139393,1,0,3:0:0:0:
424,208,139587,2,2,L|448:216,3,23.3333333333333,0|0|0|0,1:0|0:0|0:0|0:0,0:0:0:0:
512,192,139974,1,0,0:0:0:0:
256,192,140748,12,4,141909,1:0:0:0:
392,320,142490,6,0,P|440:264|376:144,1,210.000008010865,8|2,1:2|0:0,0:0:0:0:
216,208,143071,2,0,P|240:272|296:280,1,105.000004005432,0|0,1:0|0:0,0:0:0:0:
336,232,143458,1,0,1:0:0:0:
288,128,143651,2,0,P|216:120|136:232,1,210.000008010865,8|4,1:2|1:2,0:0:0:0:
24,232,144232,6,0,P|56:304|72:352,2,105.000004005432,0|0|0,1:0|0:0|0:0,0:0:0:0:
112,112,144813,1,8,1:2:0:0:
112,112,145200,1,2,1:2:0:0:
112,112,145296,1,0,0:0:0:0:
112,112,145393,2,0,P|88:80|16:56,1,105.000004005432,2|0,1:0|0:0,0:0:0:0:
176,200,145780,2,0,P|216:144|216:72,1,105.000004005432,2|0,1:0|0:0,0:0:0:0:
80,192,146167,1,2,1:0:0:0:
136,272,146361,1,2,0:0:0:0:
288,184,146555,6,0,P|360:200|416:320,1,210.000008010865,4|0,1:0|0:0,0:0:0:0:
192,352,147135,2,0,P|192:288|224:256,1,105.000004005432,8|0,1:2|0:0,0:0:0:0:
320,320,147522,1,2,1:2:0:0:
458,167,147716,2,0,P|450:103|434:47,1,105.000004005432,4|0,1:2|1:0,0:0:0:0:
336,24,148103,1,0,0:0:0:0:
352,136,148296,1,8,1:2:0:0:
440,64,148490,1,0,1:0:0:0:
248,96,148684,1,2,1:0:0:0:
392,288,148877,5,0,1:0:0:0:
392,288,149264,1,2,0:0:0:0:
272,216,149459,1,8,1:2:0:0:
272,216,149555,1,0,0:0:0:0:
272,216,149652,1,0,1:0:0:0:
400,136,149845,1,4,0:0:0:0:
464,272,150038,6,0,P|448:344|440:384,1,105.000004005432,4|0,1:3|0:0,0:0:0:0:
272,280,150426,2,0,P|261:228|249:177,1,105.000004005432,2|2,1:0|0:1,0:0:0:0:
432,104,150813,1,8,1:2:0:0:
392,208,151006,1,4,0:0:0:0:
232,88,151200,6,0,P|160:88|72:200,1,210.000008010865,4|0,1:0|0:0,0:0:0:0:
192,328,151780,2,0,P|232:256|224:208,1,105.000004005432,8|0,1:2|0:0,0:0:0:0:
96,288,152167,1,2,0:0:0:0:
176,176,152361,2,0,P|224:152|288:144,1,105.000004005432,0|0,1:0|0:0,0:0:0:0:
352,80,152748,1,0,1:0:0:0:
432,192,152942,2,0,P|416:272|408:328,2,105.000004005432,8|0|4,1:2|0:0|1:2,0:0:0:0:
264,8,153522,5,0,1:0:0:0:
200,56,153716,1,2,0:0:0:0:
200,56,154103,1,8,1:2:0:0:
264,8,154296,1,0,0:0:0:0:
328,56,154490,1,2,1:2:0:0:
328,216,154684,6,0,P|280:280|144:288,2,210.000008010865,2|2|2,1:0|1:0|1:0,0:0:0:0:
104,160,155651,1,2,0:0:0:0:
88,232,155845,2,0,P|56:288|72:336,1,105.000004005432,4|0,1:0|0:0,0:0:0:0:
200,200,156232,2,0,P|232:144|216:96,1,105.000004005432,0|8,0:0|1:2,0:0:0:0:
24,88,156619,1,0,0:0:0:0:
88,40,156813,5,2,1:2:0:0:
88,40,156909,1,0,0:0:0:0:
88,40,157006,2,0,P|120:64|136:144,1,105.000004005432,4|0,1:2|0:0,0:0:0:0:
160,200,157393,1,0,1:0:0:0:
320,144,157587,1,8,1:2:0:0:
368,208,157780,2,0,P|440:192|488:168,1,105.000004005432,0|2,1:0|1:0,0:0:0:0:
224,88,158167,6,0,P|248:184|208:304,1,210.000008010865,0|0,1:0|0:0,0:0:0:0:
120,280,158748,1,8,1:2:0:0:
320,288,158942,2,0,P|384:264|440:256,1,105.000004005432,0|4,1:0|0:0,0:0:0:0:
248,376,159329,1,0,1:0:0:0:
248,376,159716,5,0,3:0:0:0:
224,304,159909,1,0,3:0:0:0:
312,184,160103,1,8,1:2:0:0:
288,112,160296,1,4,0:0:0:0:
24,144,160490,5,6,1:0:0:0:
64,208,160684,1,0,0:0:0:0:
136,224,160877,1,8,3:0:0:0:
200,184,161071,1,2,3:0:0:0:
208,112,161264,1,2,3:3:0:0:
168,48,161458,1,4,0:0:0:0:
80,288,161651,5,4,0:2:0:0:
144,240,161845,1,0,0:0:0:0:
152,168,162038,1,4,0:2:0:0:
120,104,162232,1,0,0:2:0:0:
176,352,162426,5,4,0:2:0:0:
152,280,162619,1,0,0:0:0:0:
152,280,162716,1,0,0:0:0:0:
152,280,162813,1,4,0:0:0:0:
80,240,163006,1,0,0:0:0:0:
8,256,163200,1,8,0:0:0:0:
304,208,163393,5,2,0:0:0:0:
232,192,163587,1,0,0:0:0:0:
168,232,163780,1,0,0:0:0:0:
160,304,163974,1,2,0:0:0:0:
192,368,164167,1,0,0:0:0:0:
376,224,164361,5,2,0:1:0:0:
312,184,164555,1,2,0:1:0:0:
240,176,164748,1,2,0:1:0:0:
176,216,164942,1,2,0:1:0:0:
360,344,165135,5,2,0:1:0:0:
320,280,165329,1,4,0:2:0:0:
304,208,165522,1,0,0:0:0:0:
296,136,165716,1,4,0:2:0:0:
312,64,165909,1,2,0:0:0:0:
352,0,166103,1,2,0:0:0:0:
216,280,166296,5,0,0:1:0:0:
264,224,166490,1,0,0:0:0:0:
272,152,166684,1,4,0:3:0:0:
272,80,166877,1,8,0:0:0:0:
224,24,167071,1,4,0:0:0:0:
160,0,167264,1,0,0:0:0:0:
160,0,167361,1,4,0:0:0:0:
160,0,167458,1,4,0:0:0:0:
240,168,167651,5,2,0:1:0:0:
256,96,167845,1,4,0:2:0:0:
312,40,168038,1,4,0:2:0:0:
328,248,168232,5,0,0:1:0:0:
304,176,168426,1,0,0:0:0:0:
304,176,168522,1,2,0:0:0:0:
304,176,168619,1,4,0:0:0:0:
256,112,168813,1,8,0:0:0:0:
192,88,169006,1,2,0:1:0:0:
192,88,169103,1,4,0:0:0:0:
192,88,169200,1,4,0:0:0:0:
112,88,169393,1,10,0:1:0:0:
56,136,169587,1,4,0:0:0:0:
280,384,169780,5,4,1:1:0:0:
280,384,170167,1,2,0:0:0:0:
320,320,170361,1,8,0:2:0:0:
280,384,170555,1,2,0:0:0:0:
192,312,170748,1,2,0:2:0:0:
280,384,170942,1,2,0:0:0:0:
352,248,171135,1,0,0:0:0:0:
280,384,171329,1,0,0:0:0:0:
176,240,171522,1,10,0:2:0:0:
280,384,171716,1,2,0:0:0:0:
304,208,171909,1,4,0:2:0:0:
280,384,172102,1,2,0:0:0:0:
224,184,172296,1,2,0:2:0:0:
280,384,172490,1,2,0:0:0:0:
280,128,172684,5,12,0:2:0:0:
144,168,172877,1,0,0:0:0:0:
96,32,173071,1,12,0:2:0:0:
272,8,173264,5,0,0:0:0:0:
344,24,173458,1,4,0:2:0:0:
400,72,173651,1,4,0:2:0:0:
432,144,173845,1,4,0:0:0:0:
432,224,174038,1,4,1:3:0:0:
400,296,174232,1,4,1:0:0:0:
8,192,174426,5,4,1:0:0:0:
192,296,174619,1,4,0:1:0:0:
8,192,174812,1,4,1:0:0:0:
184,168,175006,1,4,0:2:0:0:
8,192,175199,1,2,0:2:0:0:
120,264,175393,1,2,0:2:0:0:
8,192,175587,1,8,0:2:0:0:
112,176,175780,1,10,0:2:0:0:
8,192,175974,1,2,0:2:0:0:
48,256,176167,1,0,0:0:0:0:
8,192,176361,5,4,0:0:0:0:
64,144,176555,1,0,0:0:0:0:
64,144,176651,1,4,0:0:0:0:
64,144,176748,1,4,0:0:0:0:
16,80,176942,1,8,0:0:0:0:
216,40,177135,5,4,0:0:0:0:
160,120,177329,1,4,0:0:0:0:
248,168,177522,1,8,0:0:0:0:
296,88,177716,1,4,0:0:0:0:
496,264,177909,5,4,0:0:0:0:
496,264,178103,1,8,0:0:0:0:
368,352,178296,1,4,0:0:0:0:
368,352,178490,1,4,0:2:0:0:
488,360,178684,1,8,0:1:0:0:
376,240,178877,1,8,1:2:0:0:
480,40,179071,5,4,1:0:0:0:
480,40,179458,2,0,P|488:96|504:160,2,105.000004005432,0|0|0,3:0|3:0|3:0,0:0:0:0:
240,184,190684,6,0,P|280:144|288:112,1,70,4|0,3:2|0:0,0:0:0:0:
264,64,191071,1,2,0:0:0:0:
336,80,191264,1,2,0:0:0:0:
208,256,191845,6,0,P|168:216|160:184,1,70,4|0,3:2|0:0,0:0:0:0:
160,128,192232,1,2,3:2:0:0:
56,208,192619,1,2,0:0:0:0:
264,328,193006,6,0,P|304:288|312:256,1,70,4|2,3:2|0:0,0:0:0:0:
312,168,193587,1,2,0:0:0:0:
384,200,193780,1,2,0:0:0:0:
256,384,194167,5,2,3:2:0:0:
256,384,194555,2,0,L|240:352,3,23.3333333333333,2|0|0|0,0:0|0:0|0:0|0:0,0:0:0:0:
320,336,194942,1,2,0:0:0:0:
264,288,195135,1,0,0:0:0:0:
384,232,195329,6,0,L|376:160,1,52.5000020027161,4|0,1:2|0:0,0:0:0:0:
408,144,195522,2,0,P|400:184|400:208,1,52.5000020027161,4|0,0:0|0:0,0:0:0:0:
288,192,195909,2,0,L|280:120,1,52.5000020027161,4|0,0:0|0:0,0:0:0:0:
312,104,196103,2,0,P|304:144|304:168,1,52.5000020027161,4|0,0:0|0:0,0:0:0:0:
96,248,196490,6,0,L|104:176,1,52.5000020027161,4|0,0:0|0:0,0:0:0:0:
72,160,196684,2,0,P|80:200|80:224,1,52.5000020027161,4|0,0:0|0:0,0:0:0:0:
192,208,197071,2,0,L|200:136,1,52.5000020027161,4|0,0:0|0:0,0:0:0:0:
168,120,197264,2,0,P|176:160|176:184,1,52.5000020027161,4|0,0:0|0:0,0:0:0:0:
256,24,197651,5,4,0:0:0:0:
288,104,197845,1,0,0:0:0:0:
288,104,197942,1,2,0:0:0:0:
288,104,198038,1,2,0:0:0:0:
248,168,198232,1,2,3:2:0:0:
280,232,198426,1,2,0:0:0:0:
240,296,198619,1,2,0:0:0:0:
256,368,198813,1,2,0:0:0:0:
256,368,199200,6,0,L|264:384,4,13.125000500679,2|0|2|0|2,3:3|0:3|0:3|0:3|0:3,0:3:0:0:
152,312,199587,1,0,3:0:0:0:
296,256,199780,1,4,1:3:0:0:
400,352,199974,6,0,P|456:312|456:168,1,210.000008010865,4|0,1:0|0:0,0:0:0:0:
256,152,200555,2,0,P|192:184|176:328,1,210.000008010865,8|2,1:2|0:0,0:0:0:0:
328,296,201135,2,0,P|344:224|336:176,1,105.000004005432,0|0,1:0|0:0,0:0:0:0:
368,112,201522,1,0,1:0:0:0:
432,208,201716,1,8,1:2:0:0:
456,128,201909,2,0,P|448:72|448:16,1,105.000004005432,0|4,0:0|1:2,0:0:0:0:
280,80,202296,6,0,P|216:72|64:48,1,210.000008010865,0|0,1:0|0:0,0:0:0:0:
8,8,202877,1,8,1:2:0:0:
8,8,203264,1,2,1:2:0:0:
8,8,203361,1,0,0:0:0:0:
8,8,203458,2,0,P|111:24|215:38,2,210.000008010865,2|2|2,1:0|1:0|1:0,0:0:0:0:
96,128,204426,1,2,0:0:0:0:
200,120,204619,6,0,P|256:152|280:296,1,210.000008010865,4|0,1:0|0:0,0:0:0:0:
72,352,205200,2,0,P|88:256|120:112,1,210.000008010865,8|2,1:2|1:2,0:0:0:0:
160,344,205780,2,0,P|224:360|264:368,2,105.000004005432,4|0|0,1:2|1:0|0:0,0:0:0:0:
176,248,206361,1,8,1:2:0:0:
16,272,206555,1,0,1:0:0:0:
104,128,206748,5,2,1:0:0:0:
104,128,206845,1,0,0:0:0:0:
104,128,206942,2,0,P|192:136|328:160,1,210.000008010865,0|2,1:0|0:0,0:0:0:0:
376,88,207522,1,8,1:2:0:0:
424,224,207716,2,0,P|408:288|392:344,1,105.000004005432,0|4,1:0|0:0,0:0:0:0:
112,272,208103,6,0,P|72:224|176:120,1,210.000008010865,4|2,1:3|1:0,0:0:0:0:
232,176,208684,1,2,0:1:0:0:
224,368,208877,2,0,P|210:317|197:266,1,105.000004005432,8|4,1:2|0:0,0:0:0:0:
280,80,209264,6,0,P|352:104|488:136,1,210.000008010865,4|0,1:0|0:0,0:0:0:0:
256,200,209845,1,8,1:2:0:0:
256,200,210232,1,2,0:0:0:0:
192,120,210426,2,0,P|120:136|56:144,1,105.000004005432,0|0,1:0|0:0,0:0:0:0:
192,32,210813,1,0,1:0:0:0:
288,72,211006,2,0,P|304:152|304:296,1,210.000008010865,8|4,1:2|1:2,0:0:0:0:
184,376,211587,5,0,1:0:0:0:
112,344,211780,1,2,0:0:0:0:
112,344,212167,1,8,1:2:0:0:
88,272,212361,1,0,0:0:0:0:
104,200,212555,1,2,1:2:0:0:
288,144,212748,6,0,P|376:128|496:72,2,210.000008010865,2|2|2,1:0|1:0|1:0,0:0:0:0:
184,80,213716,1,2,0:0:0:0:
24,192,213909,6,0,P|0:248|-24:304,1,105.000004005432,4|0,1:0|0:0,0:0:0:0:
136,248,214296,2,0,P|176:296|208:328,1,105.000004005432,0|8,0:0|1:2,0:0:0:0:
224,296,214587,1,0,0:0:0:0:
248,264,214684,2,0,P|240:208|184:192,1,105.000004005432,0|2,0:0|1:2,0:0:0:0:
8,368,215071,6,0,P|88:360|136:352,1,105.000004005432,4|0,1:2|0:0,0:0:0:0:
296,328,215458,1,0,1:0:0:0:
368,384,215651,1,8,1:2:0:0:
448,328,215845,2,0,P|432:264|424:216,1,105.000004005432,0|2,1:0|1:0,0:0:0:0:
488,64,216232,5,0,1:0:0:0:
504,40,216426,1,0,0:0:0:0:
480,48,216619,1,0,0:0:0:0:
408,152,216813,1,8,1:2:0:0:
328,64,217006,1,0,1:0:0:0:
312,40,217200,1,4,0:0:0:0:
416,256,217393,6,0,P|328:304|208:272,1,210.000008010865,0|0,1:0|3:0,0:0:0:0:
176,184,217974,1,0,3:0:0:0:
88,264,218167,1,8,1:2:0:0:
312,192,218361,1,4,0:0:0:0:
88,56,218555,6,0,L|96:128,1,61.2500005841255,6|0,1:0|0:0,0:0:0:0:
160,160,218748,2,0,L|168:232,1,61.2500005841255,2|0,1:1|0:0,0:0:0:0:
216,280,218942,1,8,1:0:0:0:
216,280,219135,6,0,L|274:237,1,61.2500005841255,2|0,1:0|0:0,0:0:0:0:
270,165,219329,2,0,L|328:122,1,61.2500005841255,2|0,1:0|0:0,0:0:0:0:
345,57,219522,1,2,0:0:0:0:
345,57,219716,6,0,L|352:128,1,61.2500005841255,2|0,1:0|0:0,0:0:0:0:
417,161,219909,2,0,L|425:232,1,61.2500005841255,2|0,1:0|0:0,0:0:0:0:
473,280,220103,1,8,1:0:0:0:
368,344,220296,1,0,1:0:0:0:
328,336,220393,1,8,1:2:0:0:
288,328,220490,1,8,1:0:0:0:
184,368,220684,1,0,1:0:0:0:
176,176,220877,6,0,P|128:176|120:216,1,61.2500005841255,4|0,1:3|0:0,0:0:0:0:
96,320,221071,2,0,P|120:278|89:251,1,61.2500005841255,6|0,1:3|0:0,0:0:0:0:
16,184,221264,1,0,3:0:0:0:
200,256,221458,6,0,L|280:264,1,61.2500005841255,4|0,1:3|0:0,0:0:0:0:
352,136,221651,2,0,L|318:62,1,61.2500005841255,6|0,1:3|0:0,0:0:0:0:
160,88,221845,1,0,3:0:0:0:
344,288,222038,6,0,P|360:336|360:376,1,61.2500005841255,4|0,1:3|0:0,0:0:0:0:
448,184,222232,2,0,P|480:144|496:96,1,61.2500005841255,2|0,1:3|0:0,0:0:0:0:
272,176,222426,1,6,1:3:0:0:
248,104,222619,1,4,1:3:0:0:
440,24,222813,1,6,1:3:0:0:
400,88,223006,5,4,0:3:0:0:
400,88,223103,1,4,0:3:0:0:
400,88,223200,2,0,B|368:96|368:96|336:80,1,61.2500005841255,2|0,1:0|0:0,0:0:0:0:
264,0,223393,2,0,B|296:-8|296:-8|328:8,1,61.2500005841255,2|0,1:0|0:0,0:0:0:0:
208,56,223587,1,8,1:0:0:0:
296,160,223780,6,0,B|264:152|264:152|232:168,1,61.2500005841255,2|0,1:0|0:0,0:0:0:0:
160,248,223974,2,0,B|192:256|192:256|224:240,1,61.2500005841255,2|0,1:0|0:0,0:0:0:0:
104,192,224167,1,2,0:0:0:0:
232,336,224361,6,0,B|264:328|264:328|296:344,1,61.2500005841255,2|0,1:0|0:0,0:0:0:0:
400,248,224554,2,0,B|368:256|368:256|336:240,1,61.2500005841255,2|0,1:0|0:0,0:0:0:0:
456,320,224748,1,8,1:0:0:0:
512,240,224942,1,0,1:0:0:0:
496,200,225038,1,8,1:2:0:0:
480,160,225135,1,8,1:0:0:0:
504,72,225329,1,0,1:0:0:0:
232,88,225522,5,4,1:0:0:0:
352,192,225716,1,0,3:0:0:0:
384,40,225909,1,8,1:0:0:0:
320,112,226103,5,8,1:2:0:0:
192,16,226296,1,4,0:3:0:0:
160,184,226490,1,4,1:3:0:0:
224,248,226684,6,0,P|224:304|232:360,1,105,4|0,1:0|0:0,0:0:0:0:
240,360,227788,1,2,0:0:0:0:
240,360,228026,2,0,P|282:352|330:328,1,70,2|0,0:0|0:0,0:0:0:0:
256,192,228502,12,0,230168,0:0:0:0:
