osu file format v14

[General]
AudioFilename: audio.mp3
AudioLeadIn: 0
PreviewTime: 66314
Countdown: 0
SampleSet: Soft
StackLeniency: 0.7
Mode: 0
LetterboxInBreaks: 0
WidescreenStoryboard: 1

[Editor]
DistanceSpacing: 2
BeatDivisor: 4
GridSize: 4
TimelineZoom: 1.9

[Metadata]
Title:pedalnote
TitleUnicode:pedalnote
Artist:Annabel
ArtistUnicode:Annabel
Creator:Agatsu
Version:hard
Source:
Tags:japanese pop gibune caracol norakuro
BeatmapID:3409172
BeatmapSetID:1669381

[Difficulty]
HPDrainRate:5
CircleSize:4
OverallDifficulty:6
ApproachRate:8
SliderMultiplier:1.4
SliderTickRate:1

[Events]
//Background and Video events
0,0,"70458152_p0.jpg",0,0
//Break Periods
2,165074,171950
//Storyboard Layer 0 (Background)
//Storyboard Layer 1 (Fail)
//Storyboard Layer 2 (Pass)
//Storyboard Layer 3 (Foreground)
//Storyboard Layer 4 (Overlay)
//Storyboard Sound Samples

[TimingPoints]
186,326.086956521739,4,2,1,50,1,0
5744,326.086956521739,4,2,1,50,1,0
5744,-125,4,2,1,50,0,0
21722,-125,4,2,1,60,0,0
22048,-125,4,2,1,70,0,0
22374,-125,4,2,1,80,0,0
23352,-125,4,2,1,70,0,0
23678,-100,4,2,1,70,0,0
24004,-100,4,2,1,80,0,0
34276,-100,4,2,1,60,0,0
34439,-125,4,2,2,60,0,0
44874,-125,4,2,2,60,0,0
55309,-111.111111111111,4,2,1,70,0,0
55635,-111.111111111111,4,2,1,80,0,0
55961,-111.111111111111,4,2,2,70,0,0
60852,-111.111111111111,4,2,1,80,0,0
61178,-111.111111111111,4,2,2,70,0,0
67048,-100,4,2,1,80,0,0
90363,-100,4,2,1,60,0,0
90526,-125,4,2,2,60,0,0
111396,-111.111111111111,4,2,2,70,0,0
111722,-111.111111111111,4,2,1,80,0,0
112048,-111.111111111111,4,2,2,70,0,0
116613,-111.111111111111,4,2,1,70,0,0
116939,-111.111111111111,4,2,1,80,0,0
117265,-111.111111111111,4,2,2,70,0,0
123135,-100,4,2,1,80,0,0
162184,-100,4,2,1,50,0,0
172700,-100,4,2,1,70,0,0
176613,-100,4,2,1,80,0,0
205309,-111.111111111111,4,2,1,60,0,0

[Colours]
Combo1 : 252,194,233
Combo2 : 255,255,255
Combo3 : 252,219,165
Combo4 : 165,234,153

[HitObjects]
27,11,5744,6,0,P|30:29|32:141,1,112,2|0,0:0|0:0,0:0:0:0:
102,134,6233,2,0,P|88:182|53:258,1,112,2|0,0:0|0:0,0:0:0:0:
111,294,6722,2,0,P|86:323|62:343,1,56,2|0,0:0|0:0,0:0:0:0:
4,366,7048,5,2,0:0:0:0:
4,366,7211,2,0,P|26:327|-2:266,1,112
45,209,7700,2,0,P|66:200|148:159,2,112,2|2|2,0:0|0:0|0:0,0:0:0:0:
48,215,8678,5,0,0:0:0:0:
105,262,8841,2,0,P|133:277|220:306,1,112,2|0,0:0|0:0,0:0:0:0:
264,355,9330,2,0,P|302:341|335:320,1,56,2|0,0:0|0:0,0:0:0:0:
373,291,9657,5,2,0:0:0:0:
271,203,9983,1,0,3:0:0:0:
337,77,10309,1,0,3:0:0:0:
438,174,10635,1,0,0:0:0:0:
364,290,10961,6,0,B|304:276|323:261|246:240,1,112,2|0,0:0|0:0,0:0:0:0:
192,226,11450,2,0,B|252:212|233:197|310:176,1,112,2|0,0:0|0:0,0:0:0:0:
321,114,11939,2,0,P|348:126|382:147,1,56,2|0,0:0|0:0,0:0:0:0:
401,211,12265,5,2,0:0:0:0:
401,211,12428,2,0,P|398:169|458:130,1,112
507,174,12917,2,0,P|510:216|450:255,1,112,0|0,3:0|0:0,0:0:0:0:
406,304,13407,1,0,0:0:0:0:
445,363,13570,2,0,B|356:345|402:317|275:285,2,168,2|2|2,0:0|0:0|0:0,0:0:0:0:
216,325,14874,6,0,P|190:341|158:356,2,56,0|2|0,0:0|0:0|3:0,0:0:0:0:
288,295,15363,1,0,0:0:0:0:
288,295,15526,2,0,P|294:270|313:226,1,56,0|0,3:0|0:0,0:0:0:0:
331,355,15852,2,0,P|358:373|386:392,1,56
370,291,16178,6,0,P|414:297|462:241,1,112,2|0,0:0|0:0,0:0:0:0:
469,183,16667,2,0,P|420:170|348:139,1,112,2|0,0:0|0:0,0:0:0:0:
397,86,17157,2,0,P|377:64|353:29,1,56,2|0,0:0|0:0,0:0:0:0:
294,15,17483,5,2,0:0:0:0:
294,15,17646,2,0,B|285:78|251:51|238:134,1,112
184,158,18135,2,0,P|133:174|53:191,2,112,2|2|2,0:0|0:0|0:0,0:0:0:0:
186,165,19113,1,0,0:0:0:0:
245,209,19276,2,0,P|248:228|255:331,1,112,2|0,0:0|0:0,0:0:0:0:
183,313,19765,2,0,P|167:350|154:383,1,56,2|0,0:0|0:0,0:0:0:0:
86,370,20091,5,2,0:0:0:0:
20,212,20417,1,0,3:0:0:0:
117,348,20743,1,0,3:0:0:0:
0,249,21070,1,0,0:0:0:0:
157,291,21396,6,0,P|188:285|279:255,1,112,8|8,0:1|0:1,0:0:0:0:
316,213,21885,1,8,0:1:0:0:
223,198,22048,1,8,0:1:0:0:
250,130,22211,1,8,0:1:0:0:
145,167,22374,1,8,0:1:0:0:
133,99,22537,1,8,0:1:0:0:
415,42,23352,5,8,0:1:0:0:
415,42,23434,1,8,0:1:0:0:
415,42,23515,1,0,1:0:0:0:
345,0,23678,2,0,B|357:70|388:42|403:145,1,140,8|4,0:1|1:0,0:0:0:0:
397,133,24330,6,0,P|433:146|494:158,1,70,8|0,0:1|0:0,0:0:0:0:
374,207,24657,2,0,P|330:222|214:245,1,140,2|8,1:0|0:1,0:0:0:0:
205,312,25146,6,0,B|225:341|225:341|221:384,1,70,2|0,1:0|0:0,0:0:0:0:
294,380,25472,1,0,1:0:0:0:
350,328,25635,1,8,0:1:0:0:
418,362,25798,2,0,P|394:316|451:241,1,140,2|0,0:1|3:0,0:0:0:0:
397,184,26287,2,0,P|365:175|313:151,1,70,8|0,0:1|0:0,0:0:0:0:
259,103,26613,6,0,B|264:174|305:148|309:250,2,140,2|10|2,1:0|0:1|1:0,0:0:0:0:
297,38,27428,2,0,P|338:20|378:-2,1,70,0|8,0:0|0:1,0:0:0:0:
464,0,27754,6,0,P|468:28|466:154,1,140,2|0,1:0|1:0,0:0:0:0:
417,195,28243,1,12,0:1:0:0:
389,106,28407,2,0,P|345:94|292:73,1,70,2|8,0:1|0:3,0:0:0:0:
251,133,28733,1,2,3:1:0:0:
251,133,28814,1,0,3:0:0:0:
251,133,28896,1,2,3:0:0:0:
307,179,29059,1,4,0:3:0:0:
225,230,29222,6,0,P|253:275|317:268,1,105,4|0,1:0|0:0,0:0:0:0:
301,277,29548,2,0,P|266:300|234:329,1,70,8|0,0:1|0:0,0:0:0:0:
155,370,29874,2,0,P|105:378|50:299,1,140,2|8,1:0|0:1,0:0:0:0:
72,246,30363,6,0,P|122:238|177:317,1,140,2|0,1:0|1:0,0:0:0:0:
249,283,30852,1,8,0:1:0:0:
217,191,31015,2,0,P|251:179|299:155,1,70,2|0,0:1|1:0,0:0:0:0:
325,103,31341,2,0,P|365:125|405:142,2,70,0|8|0,0:0|0:1|0:0,0:0:0:0:
239,32,31830,6,0,B|228:93|202:66|188:143,1,105,2|0,1:0|0:0,0:0:0:0:
192,124,32157,2,0,P|164:108|118:76,1,70,10|0,0:1|0:0,0:0:0:0:
53,126,32483,1,2,1:0:0:0:
104,180,32646,1,0,1:0:0:0:
55,235,32809,1,8,0:1:0:0:
0,179,32972,6,0,B|73:163|43:135|150:114,1,140,6|8,1:0|0:1,0:0:0:0:
363,194,33624,1,14,0:1:0:0:
363,194,33950,1,14,0:1:0:0:
195,294,34439,6,0,P|223:304|314:346,2,112,6|8|2,1:0|0:1|1:0,0:0:0:0:
191,287,35417,1,8,0:1:0:0:
127,325,35580,2,0,P|86:301|90:226,1,112,2|0,0:1|0:0,0:0:0:0:
126,180,36070,1,8,0:1:0:0:
126,180,36233,2,0,P|101:168|59:140,1,56,2|0,1:0|0:0,0:0:0:0:
37,93,36559,1,0,1:0:0:0:
116,91,36722,2,0,B|178:80|158:64|237:50,1,112,10|2,0:1|1:0,0:0:0:0:
226,48,37374,5,8,0:1:0:0:
264,110,37537,2,0,P|267:137|267:242,1,112,2|0,0:1|1:0,0:0:0:0:
317,278,38026,1,8,0:1:0:0:
345,200,38189,2,0,P|374:188|411:165,1,56,2|0,0:1|1:0,0:0:0:0:
481,140,38515,2,0,P|438:182|452:242,1,112,2|0,0:1|1:0,0:0:0:0:
397,287,39004,2,0,P|363:299|272:320,1,112,0|10,0:0|0:1,0:0:0:0:
244,375,39493,1,2,0:1:0:0:
167,346,39657,6,0,B|176:292|203:313|209:232,1,112,0|8,1:0|0:1,0:0:0:0:
165,184,40146,2,0,L|96:158,1,56,0|0,0:0|1:0,0:0:0:0:
52,209,40472,1,0,1:0:0:0:
52,209,40635,1,10,0:1:0:0:
122,259,40798,2,0,P|153:294|140:357,1,112,2|0,0:1|0:0,0:0:0:0:
73,378,41287,1,8,0:1:0:0:
73,378,41450,2,0,P|42:343|55:280,1,112,0|0,1:0|1:0,0:0:0:0:
101,226,41939,2,0,P|125:217|172:197,1,56,10|2,0:1|0:1,0:0:0:0:
204,136,42265,6,0,B|213:196|242:176|249:261,1,112,0|8,1:0|0:1,0:0:0:0:
252,244,42917,2,0,P|225:262|188:284,1,56,0|2,1:0|1:0,0:0:0:0:
217,346,43243,1,8,0:1:0:0:
301,379,43407,2,0,B|305:351|305:351|292:315,1,56,2|0,0:1|1:0,0:0:0:0:
356,286,43733,2,0,B|421:298|401:315|480:316,1,112,2|0,0:1|1:0,0:0:0:0:
279,191,44385,5,0,3:0:0:0:
279,191,44466,1,2,3:0:0:0:
279,191,44548,1,8,0:3:0:0:
213,230,44711,1,4,0:3:0:0:
220,134,44874,6,0,P|275:142|319:93,2,112,6|8|2,1:0|0:1|1:0,0:0:0:0:
172,76,45689,2,0,L|114:53,1,56,0|8,1:0|0:1,0:0:0:0:
18,23,46015,2,0,B|25:60|25:60|49:81|49:81|58:140,1,112,2|0,0:1|0:0,0:0:0:0:
99,181,46504,1,8,0:1:0:0:
23,227,46667,2,0,B|8:251|8:251|8:278,1,56,2|0,1:0|0:0,0:0:0:0:
44,349,46993,1,0,1:0:0:0:
44,349,47157,2,0,L|172:384,1,112,10|2,0:1|1:0,0:0:0:0:
158,373,47809,5,8,0:1:0:0:
225,344,47972,2,0,P|255:333|297:309,2,56,2|0|0,0:1|1:0|1:0,0:0:0:0:
168,278,48461,1,8,0:1:0:0:
205,216,48624,2,0,P|176:202|134:178,1,56,2|0,0:1|1:0,0:0:0:0:
104,138,48950,1,2,0:1:0:0:
104,138,49113,1,8,0:1:0:0:
12,125,49276,2,0,P|53:115|66:37,1,112,0|0,1:0|1:0,0:0:0:0:
138,22,49765,2,0,P|165:11|210:-10,1,56,10|2,0:1|0:1,0:0:0:0:
279,34,50091,6,0,B|265:94|237:64|222:146,1,112,0|8,1:0|0:1,0:0:0:0:
257,195,50580,2,0,P|288:210|379:240,1,112,0|2,0:0|1:0,0:0:0:0:
391,302,51070,2,0,B|366:308|366:308|326:334,1,56,8|2,0:1|0:1,0:0:0:0:
293,379,51396,6,0,P|310:343|250:280,1,112,0|8,1:0|0:1,0:0:0:0:
205,301,51885,2,0,B|147:289|174:271|89:246,1,112,0|0,1:0|1:0,0:0:0:0:
52,299,52374,2,0,P|67:314|105:353,1,56,10|2,0:1|0:1,0:0:0:0:
173,373,52700,6,0,P|175:356|173:235,1,112,0|8,1:0|0:1,0:0:0:0:
173,256,53352,1,0,1:0:0:0:
216,194,53515,2,0,L|276:166,1,56,2|8,1:0|0:1,0:0:0:0:
363,207,53841,2,0,P|365:188|367:104,1,84,2|0,3:1|0:0,0:0:0:0:
368,123,54167,2,0,P|335:111|296:92,1,56,2|8,3:1|0:1,0:0:0:0:
238,34,54493,2,0,P|236:51|238:163,1,112,0|8,1:0|0:1,0:0:0:0:
259,223,54983,1,8,0:3:0:0:
231,291,55146,1,4,0:3:0:0:
254,369,55309,5,4,1:0:0:0:
254,369,55635,2,2,B|261:316|293:337|299:258,1,94.499997116089,14|0,0:1|0:0,0:1:0:0:
295,285,55961,2,0,P|259:268|219:243,1,62.9999980773926,2|0,1:0|1:0,0:0:0:0:
176,291,56287,1,8,0:1:0:0:
102,235,56450,2,0,B|128:217|128:217|167:210,1,62.9999980773926,2|0,0:1|1:0,0:0:0:0:
167,139,56776,2,0,B|138:125|138:125|112:95,1,62.9999980773926,2|8,0:1|0:1,0:0:0:0:
49,129,57102,2,0,P|43:149|26:266,1,125.999996154785,2|0,1:0|3:0,0:0:0:0:
26,252,57510,1,0,3:0:0:0:
26,252,57591,1,10,0:1:0:0:
262,160,57917,6,0,B|300:151|300:151|326:121|326:121|385:107,1,125.999996154785,2|8,1:0|0:1,0:0:0:0:
429,157,58407,1,0,0:0:0:0:
354,215,58570,2,0,B|368:244|368:244|360:293,1,62.9999980773926,2|0,1:0|1:0,0:0:0:0:
397,340,58896,1,8,0:1:0:0:
450,263,59059,2,0,P|481:278|526:293,1,62.9999980773926,2|0,0:1|1:0,0:0:0:0:
455,189,59385,2,0,P|488:173|529:151,1,62.9999980773926,2|8,0:1|0:1,0:0:0:0:
383,136,59711,2,0,P|402:101|346:34,1,125.999996154785,2|0,1:0|1:0,0:0:0:0:
359,36,60118,1,0,3:0:0:0:
359,36,60200,2,0,L|279:59,1,62.9999980773926,10|0,0:1|0:0,0:0:0:0:
216,108,60526,5,4,1:0:0:0:
216,108,60852,2,2,B|153:99|167:130|76:100,1,125.999996154785,14|2,0:1|1:0,0:1:0:0:
41,158,61341,2,0,P|70:182|106:206,1,62.9999980773926,0|8,1:0|0:1,0:0:0:0:
170,278,61667,2,0,P|173:253|175:178,1,94.499997116089,2|0,0:1|0:0,0:0:0:0:
175,183,61993,2,0,P|203:172|245:149,1,62.9999980773926,2|8,0:1|0:1,0:0:0:0:
305,100,62320,2,0,P|353:111|363:192,1,125.999996154785,2|0,1:0|3:0,0:0:0:0:
370,178,62727,1,0,3:0:0:0:
370,178,62809,1,10,0:1:0:0:
486,355,63135,6,0,P|439:344|353:314,1,125.999996154785,6|8,1:0|0:1,0:0:0:0:
309,271,63624,1,0,0:0:0:0:
196,315,63787,2,0,B|204:346|204:346|237:380,1,62.9999980773926,6|0,1:0|1:0,0:0:0:0:
294,341,64113,2,0,B|286:310|286:310|253:276,1,62.9999980773926,8|0,0:1|3:0,0:0:0:0:
157,246,64439,6,0,B|90:237|106:266|13:237,1,125.999996154785,6|8,1:0|0:1,0:0:0:0:
13,171,64928,1,0,1:0:0:0:
93,115,65091,1,2,1:0:0:0:
56,51,65254,1,0,3:0:0:0:
56,51,65336,1,2,3:0:0:0:
56,51,65417,2,0,P|94:38|139:18,1,62.9999980773926,8|0,0:3|0:0,0:0:0:0:
218,68,65743,1,4,1:0:0:0:
256,192,65825,12,8,66722,0:1:0:0:
125,359,67048,6,0,P|182:351|273:325,1,140,6|8,1:0|0:1,0:0:0:0:
330,303,67537,2,0,P|368:319|419:335,1,70,2|0,0:1|1:0,0:0:0:0:
454,286,67863,1,0,0:0:0:0:
406,218,68026,2,0,B|406:187|406:187|432:156,1,70,10|0,0:1|1:0,0:0:0:0:
390,96,68352,5,2,0:1:0:0:
321,122,68515,1,0,1:0:0:0:
257,59,68678,2,0,P|230:50|157:14,1,105,8|0,0:1|0:0,0:0:0:0:
161,16,69004,2,0,P|175:48|188:95,1,70,2|0,1:0|1:0,0:0:0:0:
107,84,69330,2,0,P|111:132|106:178,1,70,10|0,0:1|0:0,0:0:0:0:
63,225,69657,6,0,P|83:174|19:115,1,140,2|8,1:0|0:1,0:0:0:0:
21,46,70146,2,0,B|92:37|69:13|167:-1,1,140,2|0,0:1|1:0,0:0:0:0:
211,45,70635,1,10,0:1:0:0:
174,108,70798,1,0,1:0:0:0:
251,164,70961,6,0,P|280:150|319:122,1,70,2|0,0:1|0:0,0:0:0:0:
368,87,71287,2,0,P|380:51|406:1,1,70,10|0,0:1|0:0,0:0:0:0:
501,101,71613,2,0,P|472:115|433:143,1,70,2|0,1:0|3:0,0:0:0:0:
384,178,71939,2,0,P|372:214|346:264,1,70,10|0,0:1|3:0,0:0:0:0:
267,266,72265,6,0,P|328:259|372:340,1,140,6|8,1:0|0:1,0:0:0:0:
335,376,72754,2,0,P|274:383|230:302,1,140,2|0,3:1|0:0,0:0:0:0:
169,284,73243,2,0,P|132:300|80:317,1,70,10|0,0:1|0:0,0:0:0:0:
64,384,73570,6,0,B|43:304|88:325|50:222,1,140,2|8,1:0|0:1,0:0:0:0:
183,81,74222,2,0,P|150:64|110:40,1,70,2|0,1:0|3:0,0:0:0:0:
77,102,74548,1,8,0:1:0:0:
132,149,74711,1,2,3:1:0:0:
221,110,74874,6,0,P|226:139|232:265,1,140,2|8,1:2|0:1,0:0:0:0:
305,246,75363,2,0,P|290:297|278:332,1,70,2|0,0:0|1:0,0:0:0:0:
360,322,75689,2,0,P|340:364|325:390,1,70,2|8,3:2|0:1,0:0:0:0:
438,323,76015,5,6,1:0:0:0:
438,323,76341,2,0,P|465:312|511:286,1,70,10|0,0:1|3:0,0:0:0:0:
394,260,76667,1,6,1:0:0:0:
394,260,76993,2,0,P|407:215|416:160,1,70,2|8,1:0|0:1,0:0:0:0:
488,177,77320,5,0,3:0:0:0:
488,177,77401,1,0,3:0:0:0:
488,177,77483,2,0,B|443:165|443:165|421:131|421:131|345:111,1,140,6|8,1:0|0:1,0:0:0:0:
283,58,77972,2,0,B|288:26|288:26|268:-10,1,70,2|0,0:1|1:0,0:0:0:0:
212,77,78298,1,0,0:0:0:0:
253,139,78461,2,0,P|217:160|185:187,1,70,10|0,0:1|1:0,0:0:0:0:
148,272,78787,6,0,P|170:218|97:161,1,140,2|8,0:1|0:1,0:0:0:0:
59,195,79276,1,0,0:0:0:0:
72,276,79439,2,0,P|46:294|14:323,1,70,2|0,1:0|0:0,0:0:0:0:
118,384,79765,2,0,P|123:357|145:290,1,70,10|0,0:1|0:0,0:0:0:0:
201,285,80091,6,0,B|283:303|253:328|352:329,1,140,2|8,1:0|0:1,0:0:0:0:
406,331,80580,2,0,B|324:349|354:374|255:375,1,140,2|0,3:1|3:0,0:0:0:0:
366,267,81070,1,10,0:1:0:0:
412,209,81233,1,0,1:0:0:0:
352,150,81396,6,0,P|312:134|273:110,1,70,2|0,0:1|0:0,0:0:0:0:
239,170,81722,2,0,P|270:204|306:234,1,70,10|0,0:1|0:0,0:0:0:0:
372,273,82048,2,0,P|412:257|451:233,1,70,2|0,1:0|0:0,0:0:0:0:
485,293,82374,2,0,P|454:327|418:357,1,70,10|0,0:1|0:0,0:0:0:0:
328,377,82700,6,0,P|290:355|303:263,1,140,6|8,1:0|0:1,0:0:0:0:
364,200,83189,2,0,P|394:186|432:164,1,70,2|8,1:0|0:1,0:0:0:0:
453,102,83515,1,8,0:1:0:0:
356,126,83678,1,8,0:1:0:0:
413,40,83841,1,10,0:1:0:0:
130,180,84657,5,8,0:1:0:0:
130,180,84738,1,0,1:0:0:0:
130,180,84820,1,0,1:0:0:0:
77,121,84983,2,0,P|150:135|231:171,1,140,12|4,0:1|1:0,0:0:0:0:
210,166,85635,6,0,B|195:135|195:135|205:93,1,70,8|0,0:1|0:0,0:0:0:0:
245,40,85961,2,0,P|207:24|160:-1,1,70,2|0,1:0|3:0,0:0:0:0:
285,104,86287,1,8,0:1:0:0:
346,61,86450,6,0,P|385:85|371:175,1,140,2|0,3:1|0:0,0:0:0:0:
325,220,86939,1,8,0:1:0:0:
417,254,87102,2,0,P|399:189|448:145,1,140,2|0,0:1|3:0,0:0:0:0:
499,198,87591,1,8,0:1:0:0:
347,352,87917,6,0,P|378:370|418:389,1,70,2|0,1:0|0:0,0:0:0:0:
445,323,88243,2,0,P|439:298|425:202,1,105,10|8,0:1|3:0,0:0:0:0:
426,219,88570,2,0,P|454:204|496:173,1,70,4|8,3:0|0:1,0:0:0:0:
434,129,88896,1,8,0:1:0:0:
356,178,89059,6,0,P|389:131|345:61,1,140,6|8,1:0|0:1,0:0:0:0:
257,260,89711,1,6,1:0:0:0:
257,260,90037,1,6,1:0:0:0:
120,182,90526,6,0,B|59:173|74:198|-12:174,2,112,6|8|2,1:0|0:1|0:1,0:0:0:0:
123,188,91504,1,8,0:1:0:0:
185,150,91667,2,0,P|188:128|192:33,1,112,2|0,0:1|0:0,0:0:0:0:
258,8,92157,1,8,0:1:0:0:
258,8,92320,2,0,P|270:40|279:75,1,56,2|0,0:1|0:0,0:0:0:0:
317,118,92646,1,0,0:0:0:0:
374,73,92809,2,0,P|414:109|396:175,1,112,10|2,0:1|1:0,0:0:0:0:
401,167,93461,5,8,0:1:0:0:
449,223,93624,2,0,P|481:238|523:254,2,56,2|0|0,0:1|0:0|0:0,0:0:0:0:
384,258,94113,1,8,0:1:0:0:
451,303,94276,2,0,P|459:337|463:379,1,56,2|0,0:1|0:0,0:0:0:0:
391,372,94602,2,0,B|337:362|349:386|262:357,1,112,2|0,0:1|0:0,0:0:0:0:
230,315,95091,2,0,P|232:288|230:186,1,112,0|10,3:0|0:1,0:0:0:0:
288,133,95580,2,0,P|315:124|356:107,1,56,2|4,1:0|1:0,0:0:0:0:
346,122,96070,5,8,0:1:0:0:
410,87,96233,2,0,B|346:73|377:58|293:36,1,112,0|2,0:0|0:1,0:0:0:0:
227,81,96722,1,8,0:1:0:0:
184,23,96885,2,0,P|149:9|117:-8,2,56,2|0|0,0:1|0:0|0:0,0:0:0:0:
219,88,97374,2,0,B|205:117|205:117|210:160,1,56,8|0,0:1|0:0,0:0:0:0:
157,191,97700,2,0,P|134:199|37:248,1,112,0|10,3:0|0:1,0:0:0:0:
28,308,98189,1,2,1:0:0:0:
133,284,98352,6,0,P|111:323|86:400,1,112,0|8,1:0|0:1,0:0:0:0:
83,381,99004,2,0,P|83:353|91:306,2,56,2|0|8,0:1|0:0|0:1,0:0:0:0:
178,352,99493,1,2,1:0:0:0:
178,352,99820,1,8,2:3:0:0:
178,352,100146,2,0,P|205:306|172:251,1,112,4|4,0:3|3:0,0:0:0:0:
150,195,100635,2,0,P|123:180|92:157,1,56,2|0,3:0|0:0,0:0:0:0:
72,81,100961,5,8,0:1:0:0:
72,81,101042,1,8,0:3:0:0:
72,81,101124,1,4,0:3:0:0:
4,40,101287,2,0,B|43:31|43:31|64:11|64:11|123:1,1,112,6|0,1:0|1:0,0:0:0:0:
168,41,101776,2,0,L|228:58,1,56,0|8,0:0|0:1,0:0:0:0:
308,98,102102,6,0,P|274:87|211:143,1,112,2|0,0:1|0:0,0:0:0:0:
206,198,102591,1,8,0:1:0:0:
206,198,102754,2,0,P|177:215|137:237,1,56,2|0,1:0|0:0,0:0:0:0:
119,287,103080,1,0,1:0:0:0:
193,362,103243,2,0,B|198:333|198:333|186:295,1,56,10|0,0:1|0:0,0:0:0:0:
246,261,103570,6,0,B|305:255|285:234|371:216,1,112,2|8,1:0|0:1,0:0:0:0:
416,197,104059,2,0,B|357:191|377:170|291:152,1,112,2|0,0:1|1:0,0:0:0:0:
259,109,104548,1,8,0:1:0:0:
304,50,104711,2,0,P|335:38|377:17,1,56,2|0,0:1|1:0,0:0:0:0:
386,93,105037,2,0,P|417:106|452:118,1,56,2|8,0:1|0:1,0:0:0:0:
394,175,105363,2,0,P|402:210|434:301,1,112,0|0,1:0|1:0,0:0:0:0:
381,338,105852,1,10,0:1:0:0:
381,338,106015,1,2,0:1:0:0:
468,366,106178,6,0,P|456:316|514:271,1,112,0|8,1:0|0:1,0:0:0:0:
459,210,106667,1,0,0:0:0:0:
261,270,106993,2,0,P|287:282|327:295,1,56,2|8,1:0|0:1,0:0:0:0:
374,332,107320,2,0,P|379:307|386:201,1,112,2|0,0:1|0:0,0:0:0:0:
363,153,107809,1,8,0:1:0:0:
287,177,107972,2,0,P|252:191|190:139,1,112,0|0,1:0|1:0,0:0:0:0:
150,98,108461,2,0,P|115:86|77:69,1,56,10|2,0:1|0:1,0:0:0:0:
18,119,108787,6,0,B|25:178|54:158|60:226,2,112,0|8|0,1:0|0:1|1:0,0:0:0:0:
66,62,109602,2,0,P|94:53|138:37,1,56,2|8,1:0|0:1,0:0:0:0:
201,90,109928,2,0,B|200:118|200:118|216:162,1,56,2|0,3:1|1:0,0:0:0:0:
283,155,110254,2,0,B|284:127|284:127|268:83,1,56,2|8,3:1|0:1,0:0:0:0:
183,211,110580,2,0,B|130:220|150:238|62:242,1,112,6|8,1:0|0:1,0:0:0:0:
154,297,111070,2,0,P|188:308|225:324,1,56,8|4,0:3|0:3,0:0:0:0:
301,371,111396,5,4,1:0:0:0:
301,371,111722,2,2,P|304:349|302:241,1,125.999996154785,14|2,0:1|1:0,0:1:0:0:
257,191,112211,2,0,P|225:178|187:159,1,62.9999980773926,0|8,1:0|0:1,0:0:0:0:
110,142,112537,6,0,B|182:133|157:111|249:98,1,125.999996154785,2|2,0:1|0:1,0:0:0:0:
296,123,113026,1,8,0:1:0:0:
255,30,113189,2,0,P|224:21|195:10,1,62.9999980773926,2|0,1:0|3:0,0:0:0:0:
195,10,113434,1,0,3:0:0:0:
195,10,113515,1,0,3:0:0:0:
184,91,113678,2,0,P|149:111|115:125,1,62.9999980773926,10|0,0:1|0:0,0:0:0:0:
93,207,114004,6,0,P|106:166|43:110,2,125.999996154785,2|8|2,1:0|0:1|1:0,0:0:0:0:
90,215,114983,1,8,0:1:0:0:
151,251,115146,2,0,B|167:278|167:278|161:318,1,62.9999980773926,2|0,0:1|1:0,0:0:0:0:
107,355,115472,2,0,P|85:366|51:384,1,62.9999980773926,2|8,0:1|0:1,0:0:0:0:
171,311,115798,2,0,B|232:324|215:346|297:350,1,125.999996154785,2|0,1:0|1:0,0:0:0:0:
289,349,116205,1,0,3:0:0:0:
289,349,116287,2,0,P|322:337|366:317,1,62.9999980773926,10|0,0:1|0:0,0:0:0:0:
434,267,116613,5,4,1:0:0:0:
434,267,116939,2,0,P|426:309|488:360,2,125.999996154785,14|2|8,0:1|1:0|0:1,0:0:0:0:
474,205,117754,2,0,P|467:178|442:128,1,62.9999980773926,2|0,0:1|0:0,0:0:0:0:
390,106,118080,2,0,P|375:146|354:184,1,62.9999980773926,2|8,0:1|0:1,0:0:0:0:
287,207,118407,2,0,P|285:173|267:60,1,125.999996154785,2|0,1:0|3:0,0:0:0:0:
271,82,118814,1,0,3:0:0:0:
271,82,118896,1,10,0:1:0:0:
70,198,119222,6,0,B|148:206|125:228|217:228,1,125.999996154785,6|8,1:0|0:1,0:0:0:0:
441,269,119874,2,0,B|363:277|386:299|294:299,1,125.999996154785,6|8,1:0|0:1,0:0:0:0:
350,365,120363,1,0,3:0:0:0:
261,381,120526,6,0,P|277:329|221:276,1,125.999996154785,6|8,1:0|0:1,0:0:0:0:
281,201,121015,2,0,P|310:184|345:163,1,62.9999980773926,0|2,1:0|1:0,0:0:0:0:
270,121,121341,1,0,3:0:0:0:
270,121,121423,1,2,3:0:0:0:
270,121,121504,2,0,P|284:89|299:48,1,62.9999980773926,8|0,0:3|0:0,0:0:0:0:
177,102,121830,1,4,1:0:0:0:
256,192,121912,12,8,122809,0:3:0:0:
457,20,123135,6,0,L|307:46,1,140,6|8,1:0|0:1,0:0:0:0:
396,107,123624,2,0,B|413:138|413:138|405:180,1,70,2|0,0:1|1:0,0:0:0:0:
451,228,123950,1,0,0:0:0:0:
390,289,124113,2,0,P|435:313|469:324,1,70,10|0,0:1|1:0,0:0:0:0:
325,232,124439,6,0,B|261:218|278:248|168:220,1,140,2|8,0:1|0:1,0:0:0:0:
125,264,124928,1,0,0:0:0:0:
146,167,125091,2,0,P|107:153|66:131,1,70,2|0,1:0|1:0,0:0:0:0:
188,105,125417,2,0,P|165:69|146:24,1,70,10|0,0:1|0:0,0:0:0:0:
286,55,125743,6,0,P|233:96|241:162,1,140,2|8,1:0|0:1,0:0:0:0:
306,198,126233,2,0,P|358:156|350:90,1,140,2|0,0:1|0:0,0:0:0:0:
245,157,126722,1,10,0:1:0:0:
182,196,126885,1,0,1:0:0:0:
139,133,127048,6,0,P|105:118|66:95,1,70,2|0,0:1|0:0,0:0:0:0:
22,153,127374,2,0,B|39:185|39:185|32:226,1,70,10|0,0:1|0:0,0:0:0:0:
96,295,127700,2,0,P|130:280|169:257,1,70,2|0,1:0|3:0,0:0:0:0:
213,315,128026,2,0,B|196:347|196:347|203:388,1,70,10|0,0:1|3:0,0:0:0:0:
319,324,128352,6,0,B|399:315|370:293|468:278,1,140,6|8,1:0|0:1,0:0:0:0:
339,244,128841,2,0,B|259:235|288:213|190:198,1,140,2|0,3:1|0:0,0:0:0:0:
170,142,129330,2,0,P|127:124|93:109,1,70,10|0,0:1|0:0,0:0:0:0:
32,177,129657,6,0,P|30:150|41:34,1,140,2|8,1:0|0:1,0:0:0:0:
101,1,130146,1,0,3:0:0:0:
117,88,130309,2,0,P|151:100|195:113,1,70,2|0,1:0|3:0,0:0:0:0:
233,159,130635,1,8,0:1:0:0:
154,197,130798,1,2,3:1:0:0:
240,232,130961,6,0,B|223:297|195:268|177:360,1,140,2|8,1:2|0:1,0:0:0:0:
270,330,131450,2,0,P|298:363|336:392,1,70,2|0,0:0|1:0,0:0:0:0:
379,329,131776,2,0,P|359:280|346:237,1,70,2|8,3:2|0:1,0:0:0:0:
331,155,132102,5,6,1:0:0:0:
331,155,132428,2,0,B|366:156|366:156|414:187,1,70,10|0,0:1|3:0,0:0:0:0:
289,222,132754,1,6,1:0:0:0:
289,222,133080,2,0,B|254:223|254:223|206:254,1,70,2|8,1:0|0:1,0:0:0:0:
222,319,133407,5,0,3:0:0:0:
222,319,133488,1,0,3:0:0:0:
222,319,133570,2,0,P|166:324|125:253,1,140,6|8,1:0|0:1,0:0:0:0:
89,200,134059,2,0,P|54:182|17:153,1,70,2|0,0:1|1:0,0:0:0:0:
25,92,134385,1,0,0:0:0:0:
112,124,134548,2,0,B|112:93|112:93|147:51,1,70,10|0,0:1|1:0,0:0:0:0:
230,12,134874,6,0,B|317:28|293:50|379:49,1,140,2|8,0:1|0:1,0:0:0:0:
394,114,135363,1,0,0:0:0:0:
327,165,135526,2,0,B|344:197|344:197|337:245,1,70,2|0,1:0|0:0,0:0:0:0:
379,289,135852,2,0,P|413:308|462:329,1,70,10|0,0:1|0:0,0:0:0:0:
512,373,136178,6,0,P|529:336|469:262,1,140,2|8,1:0|0:1,0:0:0:0:
382,309,136667,2,0,P|328:326|279:256,1,140,2|0,3:1|3:0,0:0:0:0:
310,206,137157,2,0,P|336:193|386:161,1,70,10|0,0:1|1:0,0:0:0:0:
440,74,137483,6,0,P|446:99|450:187,1,105,2|0,0:1|0:0,0:0:0:0:
450,177,137809,2,0,P|482:195|524:215,1,70,10|0,0:1|0:0,0:0:0:0:
501,281,138135,2,0,P|469:299|430:326,1,70,2|0,1:0|0:0,0:0:0:0:
382,278,138461,2,0,P|381:241|377:194,1,70,10|0,0:1|0:0,0:0:0:0:
299,134,138787,6,0,B|257:124|257:124|232:92|232:92|158:72,1,140,6|8,1:0|0:1,0:0:0:0:
112,113,139276,1,2,1:0:0:0:
164,186,139439,1,8,0:1:0:0:
119,248,139602,1,8,0:1:0:0:
154,329,139765,1,8,0:1:0:0:
109,383,139928,1,10,0:1:0:0:
344,177,140743,5,8,0:1:0:0:
344,177,140825,1,8,0:1:0:0:
344,177,140907,1,0,1:0:0:0:
273,142,141070,2,0,L|442:106,1,140,12|6,0:1|1:0,0:0:0:0:
419,120,141722,6,0,P|415:140|403:246,1,105,8|0,0:1|0:0,0:0:0:0:
404,223,142048,2,0,P|441:244|496:262,1,70,2|0,1:0|1:0,0:0:0:0:
421,315,142374,1,8,0:1:0:0:
366,384,142537,6,0,P|383:339|315:272,1,140,2|0,0:1|0:0,0:0:0:0:
290,214,143026,2,0,P|315:200|354:173,1,70,8|0,0:1|1:0,0:0:0:0:
417,222,143352,1,2,3:1:0:0:
417,222,143434,1,0,3:0:0:0:
417,222,143515,1,0,1:0:0:0:
416,134,143678,2,0,B|352:119|368:151|275:124,1,140,10|2,0:1|1:0,0:0:0:0:
272,120,144330,6,0,B|276:86|276:86|253:48,1,70,8|0,0:1|0:0,0:0:0:0:
196,96,144657,2,0,B|192:130|192:130|215:168,1,70,2|0,1:0|1:0,0:0:0:0:
259,213,144983,1,8,0:1:0:0:
156,212,145146,6,0,B|86:197|103:234|-8:201,1,140,2|0,0:1|0:0,0:0:0:0:
71,286,145635,2,0,P|101:302|148:332,1,70,8|0,0:1|1:0,0:0:0:0:
131,320,145879,1,0,3:0:0:0:
131,320,145961,1,2,3:1:0:0:
191,275,146124,2,0,P|205:268|227:257,2,35,0|0|10,3:0|3:0|0:1,0:0:0:0:
196,282,146613,6,0,P|215:229|160:170,1,140,6|8,1:0|0:1,0:0:0:0:
183,104,147102,1,0,0:0:0:0:
127,36,147265,2,0,P|117:60|106:122,2,70,2|0|8,1:0|1:0|0:1,0:0:0:0:
210,3,147754,6,0,B|283:19|257:38|351:47,1,140,2|0,0:1|0:0,0:0:0:0:
397,95,148243,2,0,P|441:83|494:62,1,70,8|0,0:1|1:0,0:0:0:0:
496,139,148570,1,2,0:1:0:0:
410,176,148733,1,0,1:0:0:0:
410,176,148814,1,0,3:0:0:0:
410,176,148896,2,0,P|417:207|424:330,1,140,10|2,0:1|1:0,0:0:0:0:
423,320,149548,5,8,0:1:0:0:
419,326,149874,2,0,P|464:347|507:361,1,70,2|0,1:0|1:0,0:0:0:0:
501,286,150200,1,8,0:1:0:0:
413,246,150363,6,0,P|433:192|372:136,1,140,2|2,3:1|0:1,0:0:0:0:
323,198,150852,2,0,P|292:212|250:227,1,70,8|0,0:1|1:0,0:0:0:0:
258,224,151097,1,0,3:0:0:0:
258,224,151178,1,10,0:1:0:0:
308,292,151341,1,10,0:1:0:0:
215,328,151504,2,0,L|168:314,3,35,8|0|0|0,0:3|3:0|3:0|3:0,0:0:0:0:
178,346,151830,6,0,P|133:361|37:381,1,140,6|8,1:0|0:1,0:0:0:0:
35,375,152483,2,0,B|37:342|37:342|1:291,1,70,2|0,1:0|1:0,0:0:0:0:
60,257,152809,1,8,0:1:0:0:
125,324,152972,6,0,B|192:311|168:293|265:275,1,140,2|0,0:1|0:0,0:0:0:0:
237,209,153461,2,0,P|268:190|312:166,1,70,8|0,0:1|1:0,0:0:0:0:
359,137,153787,2,0,P|376:96|397:58,1,70,2|0,0:1|1:0,0:0:0:0:
394,204,154113,2,0,P|416:227|449:263,1,70,10|0,0:1|0:0,0:0:0:0:
492,142,154439,5,2,1:0:0:0:
492,142,154765,1,8,0:1:0:0:
492,142,155091,2,0,P|456:159|405:175,1,70,2|0,1:0|1:0,0:0:0:0:
461,233,155417,1,8,0:1:0:0:
381,268,155580,6,0,B|306:255|325:290|226:255,1,140,2|0,0:1|0:0,0:0:0:0:
333,193,156070,2,0,B|338:159|338:159|315:120,1,70,8|0,0:1|1:0,0:0:0:0:
319,128,156314,1,0,3:0:0:0:
319,128,156396,2,0,P|353:105|388:73,1,70,2|0,3:1|3:0,0:0:0:0:
268,70,156722,2,0,P|285:35|303:-10,1,70,10|0,0:1|0:0,0:0:0:0:
191,63,157048,6,0,P|146:75|92:1,1,140,6|8,1:0|0:1,0:0:0:0:
85,16,157700,2,0,P|101:61|112:111,1,70,2|0,1:0|1:0,0:0:0:0:
78,149,158026,1,8,0:1:0:0:
170,171,158189,6,0,P|174:150|184:27,1,140,2|0,0:1|0:0,0:0:0:0:
252,62,158678,2,0,P|265:101|277:153,1,70,8|0,0:1|1:0,0:0:0:0:
328,190,159004,1,2,3:1:0:0:
328,190,159086,1,0,3:0:0:0:
328,190,159167,1,0,1:0:0:0:
346,89,159330,2,0,B|417:101|389:126|501:126,1,140,10|2,0:1|1:0,0:0:0:0:
486,135,159983,6,0,P|452:153|395:174,1,70,8|0,0:1|0:0,0:0:0:0:
381,224,160309,1,2,1:0:0:0:
446,269,160472,1,0,3:0:0:0:
446,269,160635,1,8,0:1:0:0:
332,308,160798,6,0,P|354:269|294:194,1,140,6|0,1:0|0:0,0:0:0:0:
278,132,161287,1,2,3:0:0:0:
232,221,161450,2,0,P|210:260|270:335,1,140,6|0,1:0|0:0,0:0:0:0:
256,192,162102,12,4,164874,1:0:0:0:
21,336,172700,6,0,P|56:325|119:297,1,105,4|0,1:0|0:0,0:0:0:0:
118,297,173026,2,0,P|97:326|75:365,1,70,0|0,1:0|1:0,0:0:0:0:
154,374,173352,1,8,0:1:0:0:
212,329,173515,1,8,0:1:0:0:
174,244,173678,2,0,B|181:213|181:213|161:170,1,70,4|8,1:0|0:1,0:0:0:0:
101,104,174004,6,0,L|64:91,3,35,8|8|8|8,0:1|0:3|0:3|0:3,0:0:0:0:
39,61,174330,2,0,L|83:44,3,35,0|4|4|4,1:0|0:3|0:3|0:3,0:0:0:0:
94,16,174657,1,8,0:1:0:0:
157,58,174820,1,4,0:3:0:0:
238,16,174983,2,0,P|242:42|246:155,1,140,4|0,1:0|0:0,0:0:0:0:
236,146,176613,6,0,B|308:158|279:185|399:186,1,140,6|8,1:0|0:1,0:0:0:0:
252,226,177102,2,0,B|180:238|209:265|89:266,1,140,2|0,0:1|0:0,0:0:0:0:
217,317,177591,2,0,P|257:331|302:351,1,70,10|0,0:1|1:0,0:0:0:0:
366,381,177917,5,2,0:1:0:0:
346,307,178080,1,0,1:0:0:0:
441,337,178243,2,0,B|453:290|479:313|498:240,1,105,8|0,0:1|0:0,0:0:0:0:
495,249,178570,2,0,P|462:233|415:200,1,70,2|0,1:0|1:0,0:0:0:0:
389,155,178896,2,0,P|353:177|309:198,1,70,10|0,0:1|0:0,0:0:0:0:
361,279,179222,6,0,P|326:231|243:246,1,140,2|8,1:0|0:1,0:0:0:0:
141,270,179711,2,0,P|176:318|259:303,1,140,2|0,0:1|0:0,0:0:0:0:
243,240,180200,1,10,0:1:0:0:
276,173,180363,1,0,1:0:0:0:
235,93,180526,6,0,P|202:80|155:53,1,70,2|0,0:1|0:0,0:0:0:0:
119,114,180852,2,0,P|148:146|183:178,1,70,10|0,0:1|0:0,0:0:0:0:
134,280,181178,2,0,P|167:267|214:240,1,70,2|0,1:0|3:0,0:0:0:0:
250,301,181504,2,0,P|221:333|186:365,1,70,10|0,0:1|3:0,0:0:0:0:
87,372,181830,6,0,P|102:322|34:266,1,140,6|8,1:0|0:1,0:0:0:0:
88,189,182320,2,0,P|39:168|6:148,2,70,2|0|0,3:1|1:0|0:0,0:0:0:0:
150,148,182809,2,0,B|147:113|147:113|179:69,1,70,10|0,0:1|0:0,0:0:0:0:
114,14,183135,6,0,B|196:32|163:54|255:58,1,140,2|8,1:0|0:1,0:0:0:0:
299,107,183624,1,0,3:0:0:0:
380,60,183787,2,0,B|381:28|381:28|410:-7,1,70,2|0,1:0|3:0,0:0:0:0:
452,73,184113,1,8,0:1:0:0:
410,135,184276,1,2,3:1:0:0:
473,195,184439,6,0,P|439:215|386:238,1,70,2|0,1:2|0:0,0:0:0:0:
361,280,184765,1,8,0:1:0:0:
361,280,184928,2,0,B|379:311|379:311|379:360,1,70,2|0,0:0|1:0,0:0:0:0:
312,382,185254,2,0,B|294:351|294:351|294:302,1,70,2|8,3:2|0:1,0:0:0:0:
366,204,185580,5,6,1:0:0:0:
366,204,185907,2,0,P|406:182|444:151,1,70,10|0,0:1|3:0,0:0:0:0:
274,259,186233,1,6,1:0:0:0:
274,259,186559,2,0,P|251:253|229:240,5,35,2|0|8|0|0|0,1:0|3:0|0:1|3:0|3:0|3:0,0:0:0:0:
201,269,187048,6,0,P|224:195|172:149,1,140,6|8,1:0|0:1,0:0:0:0:
183,82,187537,2,0,B|110:66|134:98|26:65,1,140,2|0,0:1|0:0,0:0:0:0:
12,134,188026,2,0,P|41:163|73:200,1,70,10|0,0:1|1:0,0:0:0:0:
106,277,188352,5,2,0:1:0:0:
140,210,188515,1,0,1:0:0:0:
203,276,188678,2,0,P|239:288|326:306,1,105,8|0,0:1|0:0,0:0:0:0:
304,302,189004,2,0,P|270:317|217:345,1,70,2|0,1:0|0:0,0:0:0:0:
178,296,189330,2,0,P|136:344|118:374,1,70,10|0,0:1|0:0,0:0:0:0:
40,369,189657,6,0,P|57:312|-7:259,1,140,2|8,1:0|0:1,0:0:0:0:
36,193,190146,2,0,P|88:179|175:138,1,140,2|0,3:1|3:0,0:0:0:0:
234,89,190635,1,10,0:1:0:0:
287,144,190798,1,0,1:0:0:0:
356,76,190961,6,0,P|323:60|288:37,1,70,2|0,0:1|0:0,0:0:0:0:
363,151,191287,2,0,P|382:184|412:226,1,70,10|0,0:1|0:0,0:0:0:0:
327,234,191613,2,0,P|294:218|259:195,1,70,2|0,1:0|0:0,0:0:0:0:
334,309,191939,2,0,P|353:342|383:384,1,70,10|0,0:1|0:0,0:0:0:0:
248,345,192265,5,6,1:0:0:0:
248,345,192428,1,0,1:0:0:0:
185,299,192591,1,8,0:1:0:0:
185,299,192754,1,2,1:0:0:0:
164,205,192917,5,8,0:1:0:0:
200,141,193080,1,8,0:1:0:0:
145,75,193243,1,8,0:1:0:0:
109,135,193407,1,10,0:1:0:0:
418,41,194874,5,4,1:0:0:0:
418,41,195200,2,0,P|383:53|309:71,1,105,8|0,0:1|0:0,0:0:0:0:
317,69,195526,2,0,P|354:84|403:97,1,70,2|0,1:0|3:0,0:0:0:0:
421,154,195852,1,8,0:1:0:0:
504,112,196015,6,0,P|508:142|506:254,1,140,2|0,3:1|0:0,0:0:0:0:
494,325,196504,1,8,0:1:0:0:
425,383,196667,2,0,P|421:353|423:241,1,140,2|0,0:1|3:0,0:0:0:0:
375,190,197157,2,0,P|334:173|297:152,1,70,8|0,0:1|3:0,0:0:0:0:
238,225,197483,6,0,B|255:258|255:258|250:305,1,70,2|0,1:0|0:0,0:0:0:0:
199,342,197809,2,0,P|166:361|125:380,1,70,10|0,0:1|0:0,0:0:0:0:
70,346,198135,1,2,1:0:0:0:
118,271,198298,2,0,P|86:258|37:230,1,70,0|8,1:0|0:1,0:0:0:0:
0,183,198624,6,0,P|71:194|118:122,1,140,2|0,1:0|0:0,0:0:0:0:
97,80,199113,2,0,P|61:66|23:45,1,70,14|0,0:1|0:0,0:0:0:0:
128,15,199439,1,8,0:3:0:0:
192,51,199602,1,0,3:0:0:0:
272,29,199765,1,2,3:0:0:0:
337,65,199928,2,0,P|369:76|419:89,1,70,4|4,0:3|1:0,0:0:0:0:
403,98,200417,6,0,B|409:149|440:128|446:202,1,105,10|0,0:1|0:0,0:0:0:0:
444,191,200743,2,0,P|409:210|359:226,1,70,2|0,1:0|1:0,0:0:0:0:
434,280,201070,1,8,0:1:0:0:
338,295,201233,6,0,B|270:283|289:323|179:289,1,140,2|0,1:0|0:0,0:0:0:0:
143,253,201722,1,8,0:1:0:0:
203,179,201885,2,0,L|132:154,1,70,2|0,0:1|1:0,0:0:0:0:
179,97,202211,2,0,P|213:84|265:56,2,70,0|8|0,0:0|0:1|0:0,0:0:0:0:
89,49,202700,5,6,1:0:0:0:
89,49,203026,2,0,B|68:80|68:80|72:128,1,70,10|0,0:1|0:0,0:0:0:0:
94,179,203352,1,2,1:0:0:0:
172,103,203515,2,0,P|206:86|254:55,1,70,0|8,3:0|0:1,0:0:0:0:
320,25,203841,6,0,P|262:89|289:147,1,140,6|8,1:0|0:1,0:0:0:0:
430,324,204493,1,6,1:0:0:0:
430,324,204820,1,6,1:0:0:0:
223,190,205309,6,0,P|193:182|97:143,1,125.999996154785,6|0,1:0|1:0,0:0:0:0:
47,189,205798,2,0,P|64:145|11:87,1,125.999996154785,2|0,0:1|0:0,0:0:0:0:
59,29,206287,2,0,P|88:17|126:0,2,62.9999980773926,2|0|0,1:0|0:0|1:0,0:0:0:0:
23,95,206776,2,0,B|41:122|41:122|39:165,1,62.9999980773926,2|0,3:1|1:0,0:0:0:0:
83,213,207102,1,0,0:0:0:0:
130,131,207265,2,0,B|202:145|180:164|270:166,1,125.999996154785,2|0,1:0|1:0,0:0:0:0:
252,173,207917,6,0,P|232:212|206:300,1,125.999996154785,2|0,1:0|1:0,0:0:0:0:
290,258,208407,2,0,P|286:322|291:388,1,125.999996154785,2|0,0:1|0:0,0:0:0:0:
359,341,208896,2,0,P|394:375|412:389,1,62.9999980773926,2|0,1:0|0:0,0:0:0:0:
430,310,209222,2,0,P|469:306|514:292,1,62.9999980773926,0|0,1:0|3:0,0:0:0:0:
454,237,209548,2,0,P|477:210|500:173,2,62.9999980773926,0|0|0,1:0|0:0|1:0,0:0:0:0:
273,157,210200,1,0,1:0:0:0:
273,157,210363,1,0,0:0:0:0:
233,233,210526,6,0,P|241:186|166:135,1,125.999996154785,6|0,1:0|1:0,0:0:0:0:
134,178,211015,2,0,P|126:225|201:276,1,125.999996154785,2|0,0:1|0:0,0:0:0:0:
270,249,211504,2,0,P|296:253|402:288,1,125.999996154785,2|0,1:0|1:0,0:0:0:0:
349,345,211993,1,0,3:0:0:0:
349,345,212075,1,0,3:0:0:0:
349,345,212157,2,0,P|315:361|281:384,2,62.9999980773926,0|0|0,1:0|0:0|1:0,0:0:0:0:
501,204,212809,1,2,1:0:0:0:
433,238,212972,1,2,3:1:0:0:
451,148,213135,6,0,B|386:133|413:113|320:88,1,125.999996154785,6|0,1:0|1:0,0:0:0:0:
273,128,213624,1,0,1:0:0:0:
326,193,213787,1,8,0:1:0:0:
283,251,213950,1,8,0:1:0:0:
326,324,214113,1,8,0:1:0:0:
260,362,214276,6,0,P|214:347|154:316,1,94.499997116089,4|0,1:0|0:0,0:0:0:0:
172,327,214602,2,0,B|175:296|175:296|150:255,1,62.9999980773926,8|0,0:1|0:0,0:0:0:0:
82,195,214928,1,0,1:0:0:0:
82,195,215254,1,0,1:0:0:0:
82,195,215580,1,0,3:0:0:0:
91,292,215743,1,4,1:0:0:0:
