osu file format v14

[General]
AudioFilename: audio.mp3
AudioLeadIn: 0
PreviewTime: 66314
Countdown: 0
SampleSet: Soft
StackLeniency: 0.7
Mode: 0
LetterboxInBreaks: 0
WidescreenStoryboard: 1

[Editor]
DistanceSpacing: 0.9
BeatDivisor: 2
GridSize: 4
TimelineZoom: 1.9

[Metadata]
Title:pedalnote
TitleUnicode:pedalnote
Artist:Annabel
ArtistUnicode:Annabel
Creator:Agatsu
Version:normal
Source:
Tags:japanese pop gibune caracol norakuro
BeatmapID:3409174
BeatmapSetID:1669381

[Difficulty]
HPDrainRate:4
CircleSize:3.5
OverallDifficulty:5
ApproachRate:6
SliderMultiplier:1
SliderTickRate:1

[Events]
//Background and Video events
0,0,"70458152_p0.jpg",0,0
//Break Periods
2,165074,171650
//Storyboard Layer 0 (Background)
//Storyboard Layer 1 (Fail)
//Storyboard Layer 2 (Pass)
//Storyboard Layer 3 (Foreground)
//Storyboard Layer 4 (Overlay)
//Storyboard Sound Samples

[TimingPoints]
186,326.086956521739,4,2,1,50,1,0
5744,326.086956521739,4,2,1,50,1,0
21722,-100,4,2,1,60,0,0
22048,-100,4,2,1,70,0,0
22374,-100,4,2,1,80,0,0
23352,-100,4,2,1,70,0,0
24004,-100,4,2,1,80,0,0
34276,-100,4,2,1,60,0,0
34439,-111.111111111111,4,2,2,60,0,0
55309,-111.111111111111,4,2,1,70,0,0
55635,-111.111111111111,4,2,1,80,0,0
55961,-111.111111111111,4,2,2,70,0,0
60852,-111.111111111111,4,2,1,80,0,0
61178,-111.111111111111,4,2,2,70,0,0
67048,-100,4,2,1,80,0,0
90363,-100,4,2,1,60,0,0
90526,-111.111111111111,4,2,2,60,0,0
111396,-111.111111111111,4,2,2,70,0,0
111722,-111.111111111111,4,2,1,80,0,0
112048,-111.111111111111,4,2,2,70,0,0
116613,-111.111111111111,4,2,1,70,0,0
116939,-111.111111111111,4,2,1,80,0,0
117265,-111.111111111111,4,2,2,70,0,0
123135,-100,4,2,1,80,0,0
162184,-100,4,2,1,50,0,0
172700,-100,4,2,1,70,0,0
176613,-100,4,2,1,80,0,0
205309,-100,4,2,1,60,0,0

[Colours]
Combo1 : 252,194,233
Combo2 : 255,255,255
Combo3 : 252,219,165
Combo4 : 165,234,153

[HitObjects]
35,156,5744,6,0,P|33:116|22:-17,2,150,2|2|2,0:0|0:0|0:0,0:0:0:0:
41,235,7048,1,2,0:0:0:0:
180,156,7700,1,2,0:0:0:0:
254,183,8026,1,2,0:0:0:0:
235,260,8352,6,0,P|241:328|324:359,1,150,2|2,0:0|0:0,0:0:0:0:
425,334,9330,1,2,0:0:0:0:
502,314,9657,2,0,P|502:295|495:210,1,100,2|0,0:0|3:0,0:0:0:0:
433,164,10309,2,0,P|404:177|319:201,1,100,0|0,3:0|0:0,0:0:0:0:
279,251,10961,6,0,B|200:233|219:275|110:236,2,150,2|2|2,0:0|0:0|0:0,0:0:0:0:
338,197,12265,1,2,0:0:0:0:
251,62,12917,2,0,P|232:58|142:21,1,100,0|0,3:0|0:0,0:0:0:0:
81,2,13570,6,0,P|76:29|68:181,2,150,2|2|2,0:0|0:0|0:0,0:0:0:0:
192,214,15526,1,0,3:0:0:0:
130,265,15852,1,0,0:0:0:0:
165,336,16178,6,0,P|186:345|325:377,1,150,2|2,0:0|0:0,0:0:0:0:
425,347,17157,2,0,P|450:315|490:237,1,100,2|2,0:0|0:0,0:0:0:0:
349,170,18135,1,2,0:0:0:0:
270,187,18461,1,2,0:0:0:0:
192,207,18787,6,0,B|165:278|211:249|168:380,1,150,2|2,0:0|0:0,0:0:0:0:
73,291,19765,1,2,0:0:0:0:
18,232,20091,2,0,P|15:215|11:120,2,100,2|0|0,0:0|3:0|3:0,0:0:0:0:
73,291,21070,1,0,0:0:0:0:
139,334,21396,6,0,P|163:329|252:295,1,100,8|8,0:1|0:1,0:0:0:0:
267,282,21885,2,0,P|294:295|373:323,1,100,8|8,0:1|0:1,0:0:0:0:
391,343,22374,1,8,0:1:0:0:
423,365,22537,1,8,0:1:0:0:
266,40,24004,5,4,1:0:0:0:
344,84,24330,1,8,0:1:0:0:
357,173,24657,2,0,P|326:187|232:215,1,100,2|8,1:0|0:1,0:0:0:0:
234,242,25146,2,0,P|156:229|143:134,1,150,2|8,1:0|0:1,0:0:0:0:
133,124,25798,2,0,P|104:108|41:64,1,100,2|0,0:1|3:0,0:0:0:0:
18,36,26287,1,8,0:1:0:0:
101,3,26613,5,2,1:0:0:0:
185,33,26939,1,10,0:1:0:0:
244,100,27265,2,0,P|255:140|261:179,1,50,2|0,1:0|0:0,0:0:0:0:
323,208,27754,2,0,P|323:244|198:297,1,150,2|12,1:0|0:1,0:0:0:0:
198,292,28407,1,2,0:1:0:0:
146,218,28733,2,0,P|146:182|271:129,1,150,2|4,3:1|1:0,0:0:0:0:
294,55,29548,5,8,0:1:0:0:
383,64,29874,2,0,P|407:70|488:102,1,100,2|8,1:0|0:1,0:0:0:0:
506,131,30363,2,0,B|414:133|448:166|338:154,1,150,2|8,1:0|0:1,0:0:0:0:
341,197,31015,2,0,P|375:212|460:239,1,100,2|0,0:1|0:0,0:0:0:0:
478,242,31504,1,8,0:1:0:0:
504,328,31830,5,2,1:0:0:0:
420,362,32157,1,10,0:1:0:0:
332,339,32483,2,0,P|309:350|268:362,1,50,2|0,1:0|1:0,0:0:0:0:
221,295,32972,2,0,P|189:285|104:246,1,100,6|8,1:0|0:1,0:0:0:0:
48,301,33624,1,14,0:1:0:0:
93,378,33950,1,14,0:1:0:0:
212,358,34439,6,0,P|213:329|206:162,1,179.999994506836,6|2,1:0|1:0,0:0:0:0:
261,118,35417,1,8,0:1:0:0:
261,118,35580,2,0,P|226:131|125:149,1,134.999995880127,2|8,0:1|0:1,0:0:0:0:
89,151,36233,1,2,1:0:0:0:
18,110,36559,2,0,P|25:84|40:48,1,44.999998626709,0|10,1:0|0:1,0:0:0:0:
98,22,37048,5,2,1:0:0:0:
175,46,37374,1,8,0:1:0:0:
175,46,37537,2,0,B|254:45|227:78|337:57,1,134.999995880127,2|8,0:1|0:1,0:0:0:0:
343,42,38189,1,2,0:1:0:0:
416,8,38515,2,0,P|433:33|473:110,1,89.9999972534181,2|0,0:1|1:0,0:0:0:0:
486,208,39330,5,10,0:1:0:0:
486,208,39493,2,0,P|431:201|334:172,1,134.999995880127,2|8,0:1|0:1,0:0:0:0:
238,215,40472,2,0,P|231:191|223:149,1,44.999998626709,0|10,1:0|0:1,0:0:0:0:
240,133,40798,2,0,P|191:150|88:169,1,134.999995880127,2|8,0:1|0:1,0:0:0:0:
56,322,41939,5,10,0:1:0:0:
56,322,42102,2,0,P|120:335|166:281,1,134.999995880127,2|8,0:1|0:1,0:0:0:0:
133,171,43080,2,0,P|157:155|184:125,1,44.999998626709,2|8,1:0|0:1,0:0:0:0:
201,120,43407,2,0,P|187:163|175:237,2,89.9999972534181,2|2|0,0:1|0:1|1:0,0:0:0:0:
248,55,44385,1,0,3:0:0:0:
248,55,44548,2,0,P|278:46|311:28,1,44.999998626709,8|4,0:3|0:3,0:0:0:0:
325,19,44874,6,0,P|383:39|377:132,1,134.999995880127,6|0,1:0|0:0,0:0:0:0:
376,140,45526,1,2,1:0:0:0:
305,175,45852,1,8,0:1:0:0:
305,175,46015,2,0,P|257:165|152:128,1,134.999995880127,2|8,0:1|0:1,0:0:0:0:
137,123,46667,1,2,1:0:0:0:
69,165,46993,1,0,1:0:0:0:
69,165,47157,1,10,0:1:0:0:
47,242,47483,5,2,1:0:0:0:
85,319,47809,1,8,0:1:0:0:
85,319,47972,2,0,B|164:312|143:348|261:319,1,134.999995880127,2|8,0:1|0:1,0:0:0:0:
257,315,48624,1,2,0:1:0:0:
330,281,48950,2,0,P|375:304|442:332,2,89.9999972534181,2|0|0,0:1|1:0|1:0,0:0:0:0:
321,241,49765,1,10,0:1:0:0:
383,189,50091,6,0,P|365:140|354:91,1,89.9999972534181,0|8,1:0|0:1,0:0:0:0:
266,20,50907,2,0,P|248:59|243:88,1,44.999998626709,2|8,1:0|0:1,0:0:0:0:
254,100,51233,2,0,B|182:89|200:125|87:97,1,134.999995880127,2|8,0:1|0:1,0:0:0:0:
83,87,51885,1,0,1:0:0:0:
112,204,52374,2,0,P|73:219|51:230,1,44.999998626709,10|2,0:1|0:1,0:0:0:0:
36,244,52700,6,0,P|80:267|143:288,1,89.9999972534181,0|8,1:0|0:1,0:0:0:0:
158,283,53189,1,0,0:0:0:0:
226,326,53515,1,2,1:0:0:0:
306,321,53841,1,2,3:1:0:0:
378,356,54167,2,0,P|400:345|429:325,1,44.999998626709,2|8,3:1|0:1,0:0:0:0:
448,308,54493,2,0,B|452:265|452:265|410:204,1,89.9999972534181,0|8,1:0|0:1,0:0:0:0:
393,201,54983,2,0,P|352:217|320:225,1,44.999998626709,8|4,0:3|0:3,0:0:0:0:
312,228,55309,5,4,1:0:0:0:
264,293,55635,2,2,P|231:280|156:240,1,89.9999972534181,14|2,0:1|1:0,0:1:0:0:
107,274,56287,1,8,0:1:0:0:
107,274,56450,1,2,0:1:0:0:
45,220,56776,1,2,0:1:0:0:
70,142,57102,2,0,B|66:99|66:99|97:46,1,89.9999972534181,2|0,1:0|3:0,0:0:0:0:
118,29,57591,1,10,0:1:0:0:
195,50,57917,6,0,B|218:90|218:90|217:139,1,89.9999972534181,2|8,1:0|0:1,0:0:0:0:
176,204,58570,2,0,P|123:230|53:252,1,89.9999972534181,2|8,1:0|0:1,0:0:0:0:
58,259,59059,1,2,0:1:0:0:
100,327,59385,1,2,0:1:0:0:
180,315,59711,2,0,P|242:338|286:350,1,89.9999972534181,2|0,1:0|1:0,0:0:0:0:
298,367,60200,2,0,P|326:353|352:337,1,44.999998626709,10|0,0:1|0:0,0:0:0:0:
367,318,60526,5,4,1:0:0:0:
317,254,60852,2,2,P|340:210|364:153,1,89.9999972534181,14|2,0:1|1:0,0:1:0:0:
330,101,61504,1,8,0:1:0:0:
330,101,61667,1,2,0:1:0:0:
250,113,61993,1,2,0:1:0:0:
186,61,62320,2,0,P|131:85|79:100,1,89.9999972534181,2|0,1:0|3:0,0:0:0:0:
64,109,62809,1,10,0:1:0:0:
91,185,63135,6,0,P|110:225|125:279,1,89.9999972534181,6|8,1:0|0:1,0:0:0:0:
196,302,63787,2,0,P|220:250|235:202,1,89.9999972534181,6|8,1:0|0:1,0:0:0:0:
291,165,64439,2,0,P|310:205|327:261,1,89.9999972534181,6|8,1:0|0:1,0:0:0:0:
404,261,65091,2,0,P|425:225|437:194,1,44.999998626709,2|0,1:0|3:0,0:0:0:0:
443,185,65417,1,8,0:3:0:0:
499,243,65743,1,4,1:0:0:0:
26,20,67048,6,0,P|78:37|148:51,1,100,6|8,1:0|0:1,0:0:0:0:
165,58,67537,2,0,P|103:78|35:104,1,100,2|0,0:1|0:0,0:0:0:0:
30,110,68026,1,10,0:1:0:0:
73,188,68352,2,0,P|41:225|2:284,1,100,2|8,0:1|0:1,0:0:0:0:
22,356,69004,1,2,1:0:0:0:
105,323,69330,1,10,0:1:0:0:
181,371,69657,6,0,P|232:356|300:322,1,100,2|8,1:0|0:1,0:0:0:0:
319,342,70146,2,0,P|299:279|359:214,1,150,2|10,0:1|0:1,0:0:0:0:
389,202,70798,1,0,1:0:0:0:
432,192,70961,1,2,0:1:0:0:
475,113,71287,1,10,0:1:0:0:
409,51,71613,1,2,1:0:0:0:
363,128,71939,1,10,0:1:0:0:
277,157,72265,6,0,P|226:171|155:183,1,100,6|8,1:0|0:1,0:0:0:0:
136,192,72754,2,0,B|228:208|192:237|299:237,1,150,2|10,3:1|0:1,0:0:0:0:
365,217,73570,2,0,P|412:235|494:257,1,100,2|8,1:0|0:1,0:0:0:0:
494,332,74222,1,2,1:0:0:0:
404,334,74548,2,0,P|365:346|331:352,1,50,8|2,0:1|3:1,0:0:0:0:
316,368,74874,2,0,P|330:301|268:246,1,150,2|2,1:2|0:0,0:0:0:0:
190,220,75689,2,0,P|143:237|119:242,1,50,2|8,3:2|0:1,0:0:0:0:
99,248,76015,5,6,1:0:0:0:
37,182,76341,1,10,0:1:0:0:
68,97,76667,1,6,1:0:0:0:
157,87,76993,2,0,P|219:109|280:121,1,100,2|0,1:0|3:0,0:0:0:0:
296,126,77483,6,0,B|266:166|266:166|264:237,1,100,6|8,1:0|0:1,0:0:0:0:
299,243,77972,2,0,B|329:203|329:203|331:132,1,100,2|0,0:1|0:0,0:0:0:0:
323,108,78461,1,10,0:1:0:0:
383,41,78787,2,0,P|437:23|505:-4,1,100,2|8,0:1|0:1,0:0:0:0:
502,94,79439,1,2,1:0:0:0:
435,154,79765,1,10,0:1:0:0:
486,227,80091,6,0,P|439:249|379:270,1,100,2|8,1:0|0:1,0:0:0:0:
358,293,80580,2,0,P|301:259|323:167,1,150,2|10,3:1|0:1,0:0:0:0:
330,145,81233,1,0,1:0:0:0:
354,107,81396,1,2,0:1:0:0:
272,69,81722,1,10,0:1:0:0:
186,96,82048,1,2,1:0:0:0:
98,73,82374,1,10,0:1:0:0:
23,124,82700,6,0,B|28:175|28:175|66:229,1,100,6|8,1:0|0:1,0:0:0:0:
50,259,83189,2,0,P|86:273|115:284,1,50,2|8,1:0|0:1,0:0:0:0:
131,305,83515,1,8,0:1:0:0:
174,294,83678,1,8,0:1:0:0:
217,283,83841,1,10,0:1:0:0:
464,380,85309,6,0,P|471:356|488:258,1,100,4|8,1:0|0:1,0:0:0:0:
407,231,85961,2,0,P|355:257|303:277,1,100,2|8,1:0|0:1,0:0:0:0:
294,311,86450,2,0,P|235:300|172:277,1,100,2|0,3:1|0:0,0:0:0:0:
119,332,87102,2,0,P|63:289|90:194,1,150,2|8,0:1|0:1,0:0:0:0:
131,152,87917,5,2,1:0:0:0:
214,185,88243,1,10,0:1:0:0:
288,134,88570,2,0,P|276:100|256:62,2,50,4|8|8,3:0|0:1|0:1,0:0:0:0:
290,178,89059,2,0,B|292:228|292:228|325:282,1,100,6|8,1:0|0:1,0:0:0:0:
374,347,89711,1,6,1:0:0:0:
374,347,90037,1,6,1:0:0:0:
232,369,90526,6,0,P|236:344|241:189,1,179.999994506836,6|2,1:0|0:1,0:0:0:0:
165,211,91504,1,8,0:1:0:0:
165,211,91667,2,0,P|120:195|112:98,1,134.999995880127,2|8,0:1|0:1,0:0:0:0:
119,80,92320,1,2,0:1:0:0:
177,24,92646,2,0,P|207:35|236:40,1,44.999998626709,0|10,0:0|0:1,0:0:0:0:
295,65,93135,6,0,P|346:53|411:31,1,89.9999972534181,2|8,1:0|0:1,0:0:0:0:
418,24,93624,2,0,B|396:100|450:76|415:181,1,134.999995880127,2|8,0:1|0:1,0:0:0:0:
397,188,94276,1,2,0:1:0:0:
360,260,94602,2,0,P|412:281|477:299,1,89.9999972534181,2|0,0:1|0:0,0:0:0:0:
338,380,95417,6,0,P|329:360|313:311,1,44.999998626709,10|2,0:1|1:0,0:0:0:0:
281,327,95743,2,0,P|248:343|182:367,1,89.9999972534181,4|8,1:0|0:1,0:0:0:0:
76,362,96559,2,0,P|87:332|100:304,1,44.999998626709,2|8,0:1|0:1,0:0:0:0:
71,286,96885,2,0,P|89:235|32:178,1,134.999995880127,2|8,0:1|0:1,0:0:0:0:
11,19,98026,2,0,P|49:-1|74:-11,1,44.999998626709,10|2,0:1|1:0,0:0:0:0:
89,8,98352,6,0,P|69:64|56:127,1,89.9999972534181,0|8,1:0|0:1,0:0:0:0:
81,172,99004,1,2,0:1:0:0:
81,172,99167,1,0,0:0:0:0:
159,149,99493,1,2,1:0:0:0:
193,222,99820,1,8,2:3:0:0:
114,242,100146,2,0,P|92:284|73:340,1,89.9999972534181,4|4,0:3|3:0,0:0:0:0:
57,359,100635,2,0,P|23:372|-13:380,2,44.999998626709,2|0|8,3:0|0:0|0:1,0:0:0:0:
131,328,101287,6,0,B|233:337|202:381|316:372,1,179.999994506836,6|8,1:0|0:1,0:0:0:0:
342,365,102102,1,2,0:1:0:0:
428,287,102591,1,8,0:1:0:0:
428,287,102754,2,0,P|390:274|316:238,1,89.9999972534181,2|0,1:0|1:0,0:0:0:0:
310,231,103243,1,10,0:1:0:0:
264,163,103570,5,2,1:0:0:0:
301,91,103896,1,8,0:1:0:0:
301,91,104059,2,0,P|346:78|452:43,1,134.999995880127,2|8,0:1|0:1,0:0:0:0:
462,27,104711,1,2,0:1:0:0:
504,95,105037,2,0,P|465:131|418:166,1,89.9999972534181,2|0,0:1|1:0,0:0:0:0:
338,225,105852,6,0,P|324:262|317:291,1,44.999998626709,10|2,0:1|0:1,0:0:0:0:
312,306,106178,2,0,P|252:276|272:154,1,179.999994506836,0|0,1:0|1:0,0:0:0:0:
279,144,106993,1,2,1:0:0:0:
225,84,107320,1,2,0:1:0:0:
225,84,107483,2,0,P|191:74|87:37,1,134.999995880127,0|0,1:0|1:0,0:0:0:0:
30,142,108461,6,0,P|43:184|53:206,1,44.999998626709,10|2,0:1|0:1,0:0:0:0:
30,223,108787,2,0,P|69:276|179:213,1,179.999994506836,0|0,1:0|1:0,0:0:0:0:
187,214,109602,1,2,1:0:0:0:
140,147,109928,1,2,3:1:0:0:
141,66,110254,1,2,3:1:0:0:
200,11,110580,2,0,P|250:26|323:43,1,89.9999972534181,6|8,1:0|0:1,0:0:0:0:
326,44,111070,2,0,P|298:84|288:106,1,44.999998626709,8|4,0:3|0:3,0:0:0:0:
282,117,111396,1,4,1:0:0:0:
212,159,111722,6,0,P|169:171|99:186,2,89.9999972534181,14|2|8,0:1|1:0|0:1,0:0:0:0:
233,193,112537,1,2,0:1:0:0:
272,263,112863,1,2,0:1:0:0:
350,243,113189,2,0,P|411:262|414:350,1,134.999995880127,2|10,1:0|0:1,0:0:0:0:
360,372,114004,5,2,1:0:0:0:
282,348,114330,1,8,0:1:0:0:
230,285,114657,2,0,P|186:267|135:240,1,89.9999972534181,2|8,1:0|0:1,0:0:0:0:
115,224,115146,1,2,0:1:0:0:
62,285,115472,1,2,0:1:0:0:
11,221,115798,2,0,B|6:177|6:177|37:128,1,89.9999972534181,2|0,1:0|1:0,0:0:0:0:
59,110,116287,2,0,L|126:93,1,44.999998626709,10|0,0:1|0:0,0:0:0:0:
129,68,116613,1,4,1:0:0:0:
207,88,116939,6,0,P|217:57|233:-13,2,89.9999972534181,14|2|8,0:1|1:0|0:1,0:0:0:0:
193,126,117754,1,2,0:1:0:0:
224,200,118080,1,2,0:1:0:0:
300,171,118407,2,0,P|355:191|399:203,1,89.9999972534181,2|0,1:0|3:0,0:0:0:0:
424,210,118896,1,10,0:1:0:0:
448,287,119222,6,0,B|429:328|429:328|376:352,1,89.9999972534181,6|8,1:0|0:1,0:0:0:0:
310,328,119874,2,0,B|283:290|283:290|289:233,1,89.9999972534181,6|8,1:0|0:1,0:0:0:0:
343,188,120526,2,0,B|388:183|388:183|435:217,1,89.9999972534181,6|8,1:0|0:1,0:0:0:0:
448,287,121178,2,0,P|476:302|514:318,2,44.999998626709,2|0|8,1:0|3:0|0:3,0:0:0:0:
367,274,121830,1,4,1:0:0:0:
17,361,123135,6,0,P|66:349|135:318,1,100,6|8,1:0|0:1,0:0:0:0:
144,299,123624,2,0,P|200:324|252:344,1,100,2|0,0:1|0:0,0:0:0:0:
277,355,124113,1,10,0:1:0:0:
301,268,124439,2,0,P|259:229|219:184,1,100,2|8,0:1|0:1,0:0:0:0:
183,120,125091,1,2,1:0:0:0:
260,73,125417,1,10,0:1:0:0:
198,7,125743,6,0,P|150:23|63:41,1,100,2|8,1:0|0:1,0:0:0:0:
59,50,126233,2,0,B|61:129|106:99|109:189,1,150,2|10,0:1|0:1,0:0:0:0:
85,225,126885,1,0,1:0:0:0:
55,259,127048,1,2,0:1:0:0:
135,299,127374,1,10,0:1:0:0:
223,281,127700,1,2,1:0:0:0:
308,310,128026,1,10,0:1:0:0:
394,285,128352,6,0,B|403:239|403:239|370:174,1,100,6|8,1:0|0:1,0:0:0:0:
341,167,128841,2,0,P|292:150|216:117,1,100,2|0,3:1|0:0,0:0:0:0:
206,113,129330,1,10,0:1:0:0:
267,46,129657,2,0,P|325:31|399:2,1,100,2|8,1:0|0:1,0:0:0:0:
451,3,130309,1,2,1:0:0:0:
507,73,130635,2,0,P|477:118|465:145,1,50,8|2,0:1|3:1,0:0:0:0:
441,139,130961,2,0,P|491:166|480:257,1,150,2|2,1:2|0:0,0:0:0:0:
412,301,131776,2,0,P|381:291|347:274,1,50,2|8,3:2|0:1,0:0:0:0:
325,263,132102,5,6,1:0:0:0:
355,178,132428,1,10,0:1:0:0:
283,123,132754,1,6,1:0:0:0:
246,205,133080,2,0,P|197:225|121:246,1,100,2|0,1:0|3:0,0:0:0:0:
109,254,133570,6,0,B|155:266|155:266|199:317,1,100,6|8,1:0|0:1,0:0:0:0:
212,344,134059,2,0,B|256:317|256:317|338:311,1,100,2|0,0:1|0:0,0:0:0:0:
344,334,134548,1,10,0:1:0:0:
414,278,134874,2,0,P|472:262|532:236,1,100,2|8,0:1|0:1,0:0:0:0:
478,162,135526,1,2,1:0:0:0:
395,198,135852,1,10,0:1:0:0:
313,158,136178,6,0,B|311:112|311:112|344:66,1,100,2|8,1:0|0:1,0:0:0:0:
371,34,136667,2,0,B|292:31|312:69|209:51,1,150,2|10,3:1|0:1,0:0:0:0:
181,37,137320,1,0,1:0:0:0:
140,16,137483,1,2,0:1:0:0:
58,54,137809,1,10,0:1:0:0:
22,136,138135,1,2,1:0:0:0:
31,225,138461,1,10,0:1:0:0:
100,282,138787,6,0,P|151:270|219:244,1,100,6|8,1:0|0:1,0:0:0:0:
237,236,139276,2,0,P|204:294|194:314,1,50,2|8,1:0|0:1,0:0:0:0:
199,322,139602,1,8,0:1:0:0:
241,337,139765,1,8,0:1:0:0:
284,349,139928,1,10,0:1:0:0:
492,357,141396,5,6,1:0:0:0:
421,301,141722,1,8,0:1:0:0:
334,323,142048,2,0,P|299:315|263:299,1,50,2|0,1:0|1:0,0:0:0:0:
246,288,142374,1,8,0:1:0:0:
208,263,142537,2,0,P|157:286|42:312,1,150,2|8,0:1|0:1,0:0:0:0:
10,238,143352,1,2,0:1:0:0:
54,159,143678,1,10,0:1:0:0:
17,76,144004,6,0,P|68:59|141:23,1,100,2|8,1:0|0:1,0:0:0:0:
192,3,144657,2,0,P|241:30|301:52,1,100,2|8,1:0|0:1,0:0:0:0:
322,66,145146,2,0,B|284:102|284:102|276:164,1,100,2|0,0:1|0:0,0:0:0:0:
275,194,145635,1,8,0:1:0:0:
361,170,145961,1,2,3:1:0:0:
428,228,146287,1,10,0:1:0:0:
342,257,146613,6,0,P|308:302|264:377,1,100,6|8,1:0|0:1,0:0:0:0:
366,375,147265,2,0,P|412:345|465:318,1,100,2|8,1:0|0:1,0:0:0:0:
489,298,147754,2,0,P|426:302|379:224,1,150,2|8,0:1|0:1,0:0:0:0:
339,155,148570,1,2,0:1:0:0:
254,185,148896,1,10,0:1:0:0:
207,107,149222,6,0,P|163:91|98:60,1,100,2|8,1:0|0:1,0:0:0:0:
44,128,149874,2,0,P|56:169|61:200,1,50,2|0,1:0|1:0,0:0:0:0:
59,221,150200,1,8,0:1:0:0:
45,263,150363,1,2,3:1:0:0:
37,352,150689,2,0,P|88:338|156:306,1,100,2|0,0:1|1:0,0:0:0:0:
171,298,151178,1,10,0:1:0:0:
208,273,151341,1,10,0:1:0:0:
244,246,151504,2,0,P|252:220|261:179,1,50,8|0,0:3|3:0,0:0:0:0:
239,156,151830,6,0,B|215:114|215:114|219:53,1,100,6|8,1:0|0:1,0:0:0:0:
288,6,152483,2,0,L|343:22,1,50,2|0,1:0|1:0,0:0:0:0:
377,37,152809,1,8,0:1:0:0:
419,52,152972,2,0,P|367:75|258:103,1,150,2|8,0:1|0:1,0:0:0:0:
229,175,153787,1,2,0:1:0:0:
297,233,154113,1,10,0:1:0:0:
375,188,154439,6,0,P|390:229|403:297,1,100,2|8,1:0|0:1,0:0:0:0:
338,348,155091,2,0,P|291:330|234:298,1,100,2|8,1:0|0:1,0:0:0:0:
208,283,155580,2,0,P|134:296|125:378,1,150,2|8,0:1|0:1,0:0:0:0:
205,379,156396,1,2,3:1:0:0:
287,342,156722,1,10,0:1:0:0:
373,368,157048,6,0,B|396:324|396:324|392:260,1,100,6|8,1:0|0:1,0:0:0:0:
332,206,157700,2,0,P|282:195|219:174,1,100,2|8,1:0|0:1,0:0:0:0:
196,157,158189,2,0,P|137:183|80:200,1,100,2|0,0:1|0:0,0:0:0:0:
60,207,158678,1,8,0:1:0:0:
15,128,159004,1,2,0:1:0:0:
62,51,159330,1,10,0:1:0:0:
151,38,159657,6,0,B|179:82|179:82|173:151,1,100,2|8,1:0|0:1,0:0:0:0:
219,208,160309,2,0,P|168:227|154:230,2,50,2|0|8,1:0|3:0|0:1,0:0:0:0:
256,182,160798,1,6,1:0:0:0:
324,240,161124,2,0,P|368:261|390:267,1,50,0|2,0:0|3:0,0:0:0:0:
399,294,161450,2,0,B|324:276|335:322|222:286,1,150,6|0,1:0|0:0,0:0:0:0:
209,276,162102,1,2,3:1:0:0:
256,192,162265,12,4,164874,1:0:0:0:
479,363,172700,6,0,P|432:353|351:320,1,100,4|0,1:0|1:0,0:0:0:0:
298,366,173352,2,0,P|271:328|255:304,1,50,8|8,0:1|0:1,0:0:0:0:
258,281,173678,1,4,1:0:0:0:
170,260,174004,2,0,P|165:226|165:176,1,50,8|8,0:1|0:3,0:0:0:0:
131,179,174330,2,0,P|144:135|155:108,1,50,0|4,1:0|0:3,0:0:0:0:
130,88,174657,1,8,0:1:0:0:
148,47,174820,1,4,0:3:0:0:
167,6,174983,1,4,1:0:0:0:
492,168,176613,6,0,P|441:184|364:197,1,100,6|8,1:0|0:1,0:0:0:0:
354,211,177102,2,0,P|313:185|269:144,1,100,2|0,0:1|0:0,0:0:0:0:
247,114,177591,1,10,0:1:0:0:
167,155,177917,2,0,P|125:178|56:208,1,100,2|8,0:1|0:1,0:0:0:0:
17,266,178570,1,2,1:0:0:0:
93,312,178896,1,10,0:1:0:0:
178,283,179222,6,0,P|194:245|212:177,1,100,2|8,1:0|0:1,0:0:0:0:
201,144,179711,2,0,P|242:191|342:171,1,150,2|10,0:1|0:1,0:0:0:0:
363,164,180363,1,0,1:0:0:0:
398,136,180526,1,2,0:1:0:0:
466,193,180852,1,10,0:1:0:0:
394,247,181178,1,2,1:0:0:0:
466,300,181504,1,10,0:1:0:0:
393,353,181830,6,0,P|348:338|262:297,1,100,6|8,1:0|0:1,0:0:0:0:
262,291,182320,2,0,P|311:271|366:244,1,100,2|0,3:1|0:0,0:0:0:0:
389,223,182809,1,10,0:1:0:0:
478,232,183135,2,0,B|502:190|502:190|497:134,1,100,2|8,1:0|0:1,0:0:0:0:
455,58,183787,1,2,1:0:0:0:
366,71,184113,2,0,P|322:59|286:42,1,50,8|2,0:1|3:1,0:0:0:0:
276,38,184439,2,0,P|293:82|320:168,1,100,2|8,1:2|0:1,0:0:0:0:
311,177,184928,1,2,0:0:0:0:
231,219,185254,2,0,P|213:267|197:297,1,50,2|8,3:2|0:1,0:0:0:0:
183,298,185580,5,6,1:0:0:0:
99,264,185907,1,10,0:1:0:0:
51,187,186233,1,6,1:0:0:0:
36,98,186559,2,0,P|78:84|159:48,1,100,2|0,1:0|3:0,0:0:0:0:
168,41,187048,6,0,B|186:89|186:89|167:143,1,100,6|8,1:0|0:1,0:0:0:0:
188,175,187537,2,0,B|150:209|150:209|75:215,1,100,2|0,0:1|0:0,0:0:0:0:
65,240,188026,1,10,0:1:0:0:
10,311,188352,2,0,P|63:330|138:349,1,100,2|8,0:1|0:1,0:0:0:0:
190,370,189004,1,2,1:0:0:0:
181,280,189330,1,10,0:1:0:0:
270,294,189657,6,0,P|324:280|383:251,1,100,2|8,1:0|0:1,0:0:0:0:
384,221,190146,2,0,P|315:270|336:354,1,150,2|10,3:1|0:1,0:0:0:0:
350,358,190798,1,0,1:0:0:0:
389,378,190961,1,2,0:1:0:0:
418,293,191287,2,0,P|464:275|526:242,2,100,10|2|10,0:1|1:0|0:1,0:0:0:0:
355,228,192265,6,0,P|305:208|245:171,1,100,6|8,1:0|0:1,0:0:0:0:
220,189,192754,2,0,P|186:140|172:118,1,50,2|8,1:0|0:1,0:0:0:0:
186,103,193080,1,8,0:1:0:0:
142,114,193243,1,8,0:1:0:0:
99,128,193407,1,10,0:1:0:0:
29,370,194874,5,4,1:0:0:0:
100,315,195200,1,8,0:1:0:0:
88,225,195526,2,0,P|143:208|206:181,1,100,2|8,1:0|0:1,0:0:0:0:
218,165,196015,2,0,P|169:143|106:108,1,100,2|0,3:1|0:0,0:0:0:0:
95,99,196504,1,8,0:1:0:0:
95,99,196667,2,0,B|180:85|150:58|252:36,1,150,2|8,0:1|0:1,0:0:0:0:
321,35,197483,5,2,1:0:0:0:
393,88,197809,1,10,0:1:0:0:
481,73,198135,2,0,P|504:109|509:137,1,50,2|0,1:0|1:0,0:0:0:0:
496,159,198461,1,8,0:1:0:0:
465,191,198624,2,0,B|387:171|410:218|295:178,1,150,2|14,1:0|0:1,0:0:0:0:
231,212,199439,2,0,P|210:245|194:279,1,50,8|0,0:3|0:0,0:0:0:0:
165,275,199765,2,0,P|169:323|178:355,1,50,2|4,3:0|0:3,0:0:0:0:
155,367,200091,1,4,1:0:0:0:
84,310,200417,5,10,0:1:0:0:
104,222,200743,2,0,P|49:204|-9:180,1,100,2|8,1:0|0:1,0:0:0:0:
24,145,201233,2,0,P|8:100|-14:15,1,100,2|0,1:0|0:0,0:0:0:0:
11,10,201722,1,8,0:1:0:0:
11,10,201885,2,0,P|79:22|88:122,1,150,2|8,0:1|0:1,0:0:0:0:
167,155,202700,5,6,1:0:0:0:
245,111,203026,1,10,0:1:0:0:
252,21,203352,2,0,P|215:6|174:-18,2,50,2|0|8,1:0|3:0|0:1,0:0:0:0:
292,39,203841,2,0,P|323:28|405:-9,1,100,6|8,1:0|0:1,0:0:0:0:
460,50,204493,1,6,1:0:0:0:
460,50,204820,1,6,1:0:0:0:
338,107,205309,6,0,B|310:149|310:149|316:207,1,100,6|0,1:0|1:0,0:0:0:0:
332,239,205798,2,0,P|282:263|212:284,1,100,2|0,0:1|0:0,0:0:0:0:
205,306,206287,2,0,B|125:299|143:342|34:317,2,150,2|2|2,1:0|3:1|1:0,0:0:0:0:
280,355,207591,1,0,1:0:0:0:
357,309,207917,6,0,P|413:331|467:346,1,100,2|0,1:0|1:0,0:0:0:0:
495,349,208407,2,0,P|453:301|421:249,1,100,2|0,0:1|0:0,0:0:0:0:
417,228,208896,1,2,1:0:0:0:
472,157,209222,1,0,1:0:0:0:
435,74,209548,2,0,P|455:38|474:14,2,50,0|0|0,1:0|0:0|1:0,0:0:0:0:
349,101,210200,2,0,P|317:113|274:124,1,50,0|0,1:0|0:0,0:0:0:0:
256,119,210526,6,0,B|281:162|281:162|268:228,1,100,6|0,1:0|1:0,0:0:0:0:
239,243,211015,2,0,B|214:200|214:200|227:134,1,100,2|0,0:1|0:0,0:0:0:0:
200,112,211504,2,0,P|157:100|85:69,1,100,2|0,1:0|1:0,0:0:0:0:
23,116,212157,1,0,1:0:0:0:
82,183,212483,1,0,1:0:0:0:
11,239,212809,2,0,P|26:283|30:317,1,50,2|2,1:0|3:1,0:0:0:0:
46,326,213135,6,0,P|97:351|154:369,1,100,6|0,1:0|1:0,0:0:0:0:
222,333,213787,2,0,P|251:321|296:285,1,50,8|8,0:1|0:1,0:0:0:0:
302,284,214113,1,8,0:1:0:0:
332,251,214276,1,4,1:0:0:0:
413,288,214602,1,8,0:1:0:0:
477,364,214928,1,0,1:0:0:0:
477,364,215254,1,0,1:0:0:0:
387,363,215580,2,0,P|359:371|313:375,1,50,0|4,3:0|1:0,0:0:0:0:
