osu file format v14

[General]
AudioFilename: audio.mp3
AudioLeadIn: 0
PreviewTime: 66314
Countdown: 0
SampleSet: Soft
StackLeniency: 0.7
Mode: 0
LetterboxInBreaks: 0
WidescreenStoryboard: 0

[Editor]
Bookmarks: 141396
DistanceSpacing: 2.1
BeatDivisor: 4
GridSize: 4
TimelineZoom: 1.9

[Metadata]
Title:pedalnote
TitleUnicode:pedalnote
Artist:Annabel
ArtistUnicode:Annabel
Creator:Agatsu
Version:nightfall
Source:
Tags:japanese pop gibune caracol norakuro
BeatmapID:3409173
BeatmapSetID:1669381

[Difficulty]
HPDrainRate:6
CircleSize:4
OverallDifficulty:8
ApproachRate:9
SliderMultiplier:1.6
SliderTickRate:1

[Events]
//Background and Video events
0,0,"70458152_p0.jpg",0,0
//Break Periods
2,165074,172100
//Storyboard Layer 0 (Background)
//Storyboard Layer 1 (Fail)
//Storyboard Layer 2 (Pass)
//Storyboard Layer 3 (Foreground)
//Storyboard Layer 4 (Overlay)
//Storyboard Sound Samples

[TimingPoints]
186,326.086956521739,4,2,1,50,1,0
5744,326.086956521739,4,2,1,50,1,0
5744,-125,4,2,1,50,0,0
21722,-125,4,2,1,60,0,0
22048,-125,4,2,1,70,0,0
22374,-125,4,2,1,80,0,0
23352,-125,4,2,1,70,0,0
23678,-100,4,2,1,70,0,0
24004,-100,4,2,1,80,0,0
34276,-100,4,2,1,60,0,0
34439,-111.111111111111,4,2,2,60,0,0
55309,-111.111111111111,4,2,1,70,0,0
55635,-111.111111111111,4,2,1,80,0,0
55961,-111.111111111111,4,2,2,70,0,0
60852,-111.111111111111,4,2,1,80,0,0
61178,-111.111111111111,4,2,2,70,0,0
67048,-100,4,2,1,80,0,0
90363,-100,4,2,1,60,0,0
90526,-111.111111111111,4,2,2,60,0,0
111396,-111.111111111111,4,2,2,70,0,0
111722,-111.111111111111,4,2,1,80,0,0
112048,-111.111111111111,4,2,2,70,0,0
116613,-111.111111111111,4,2,1,70,0,0
116939,-111.111111111111,4,2,1,80,0,0
117265,-111.111111111111,4,2,2,70,0,0
123135,-100,4,2,1,80,0,0
161450,-100,4,2,1,80,0,0
162184,-100,4,2,1,50,0,0
172700,-100,4,2,1,70,0,0
176613,-100,4,2,1,80,0,0
205309,-111.111111111111,4,2,1,60,0,0
213135,-100,4,2,1,60,0,0
215743,-100,4,2,1,60,0,0

[Colours]
Combo1 : 252,194,233
Combo2 : 255,255,255
Combo3 : 252,219,165
Combo4 : 165,234,153

[HitObjects]
15,117,5744,6,0,P|54:129|151:169,1,128,2|0,0:0|0:0,0:0:0:0:
276,180,6233,2,0,P|227:139|174:104,1,128,2|0,0:0|0:0,0:0:0:0:
337,146,6722,2,0,P|364:185|382:220,1,64,2|0,0:0|0:0,0:0:0:0:
226,377,7048,5,2,0:0:0:0:
227,306,7211,2,0,P|174:308|142:383,1,128
338,313,7700,2,0,P|377:337|408:353,1,64,2|0,0:0|0:0,0:0:0:0:
228,218,8026,2,0,P|216:182|201:143,1,64,2|0,0:0|0:0,0:0:0:0:
343,238,8352,6,0,B|407:222|399:254|499:229,1,128,2|0,0:0|0:0,0:0:0:0:
454,307,8841,2,0,P|404:326|330:369,1,128,2|0,0:0|0:0,0:0:0:0:
183,252,9330,1,2,0:0:0:0:
240,300,9493,1,0,0:0:0:0:
103,359,9657,6,0,B|104:328|104:328|130:292,1,64,2|0,0:0|0:0,0:0:0:0:
266,206,9983,1,0,3:0:0:0:
314,190,10091,1,0,3:0:0:0:
362,191,10200,1,0,3:0:0:0:
405,176,10309,2,0,L|376:169,6,21.3333333333333,0|0|0|0|0|0|0,3:0|0:0|0:0|0:0|0:0|0:0|0:0,0:0:0:0:
246,69,10798,5,0,0:0:0:0:
259,0,10961,2,0,P|206:-2|164:72,1,128,2|0,0:0|0:0,0:0:0:0:
231,246,11450,2,0,P|284:248|326:174,1,128,2|0,0:0|0:0,0:0:0:0:
387,158,11939,2,0,P|428:177|460:188,1,64,2|0,0:0|0:0,0:0:0:0:
498,353,12265,6,0,B|496:322|496:322|517:286,1,64,2|0,0:0|0:0,0:0:0:0:
302,374,12591,1,0,3:0:0:0:
256,382,12700,1,0,3:0:0:0:
213,361,12809,1,0,3:0:0:0:
197,317,12917,2,0,L|172:328,6,21.3333333333333,0|0|0|0|0|0|0,3:0|0:0|0:0|0:0|0:0|0:0|0:0,0:0:0:0:
289,102,13407,1,0,0:0:0:0:
253,41,13570,6,0,P|250:60|238:180,1,128,2|0,0:0|0:0,0:0:0:0:
174,199,14059,2,0,P|167:162|164:110,2,64,2|0|0,0:0|0:0|0:0,0:0:0:0:
113,309,14548,2,0,P|110:290|98:170,1,128,2|0,0:0|0:0,0:0:0:0:
34,151,15037,2,0,P|27:188|24:240,1,64,2|0,0:0|3:0,0:0:0:0:
23,261,15309,1,0,3:0:0:0:
34,306,15417,1,0,3:0:0:0:
26,349,15526,2,0,L|48:357,6,21.3333333333333,0|0|0|0|0|0|0,3:0|0:0|0:0|0:0|0:0|0:0|0:0,0:0:0:0:
283,315,16015,5,0,0:0:0:0:
272,243,16178,2,0,B|347:233|333:266|415:255,1,128,2|0,0:0|0:0,0:0:0:0:
512,281,16667,2,0,B|437:271|451:304|369:293,1,128,2|0,0:0|0:0,0:0:0:0:
420,364,17157,2,0,P|376:377|343:384,1,64,2|0,0:0|0:0,0:0:0:0:
190,291,17483,5,2,0:0:0:0:
154,229,17646,2,0,P|111:249|105:329,1,128
66,147,18135,2,0,P|30:130|-6:105,1,64,2|0,0:0|0:0,0:0:0:0:
119,96,18461,2,0,P|99:64|81:24,1,64,2|0,0:0|0:0,0:0:0:0:
197,93,18787,6,0,P|190:48|255:-1,1,128,2|0,0:0|0:0,0:0:0:0:
364,98,19276,2,0,P|371:143|306:192,1,128,2|0,0:0|0:0,0:0:0:0:
245,215,19765,1,2,0:0:0:0:
335,322,19928,1,0,0:0:0:0:
208,278,20091,6,0,P|169:295|126:308,1,64,2|0,0:0|0:0,0:0:0:0:
328,160,20417,1,0,3:0:0:0:
377,151,20526,1,0,3:0:0:0:
423,174,20635,1,0,3:0:0:0:
441,220,20743,2,0,L|416:230,6,21.3333333333333,0|0|0|0|0|0|0,3:0|0:0|0:0|0:0|0:0|0:0|0:0,0:0:0:0:
256,371,21233,5,0,0:0:0:0:
206,264,21396,5,8,0:1:0:0:
313,323,21559,1,8,0:1:0:0:
340,182,21722,5,8,0:1:0:0:
135,295,21885,1,8,0:1:0:0:
102,156,22048,5,8,0:1:0:0:
394,235,22211,1,8,0:1:0:0:
438,65,22374,5,8,0:1:0:0:
41,199,22537,1,8,0:1:0:0:
342,0,23352,5,8,0:1:0:0:
328,27,23434,1,8,0:1:0:0:
345,51,23515,1,0,1:0:0:0:
337,68,23597,1,0,1:0:0:0:
340,77,23678,2,0,B|431:65|418:109|517:94,1,160,8|4,0:1|1:0,0:0:0:0:
326,190,24167,1,0,0:0:0:0:
437,230,24330,2,0,P|386:249|333:261,1,80,8|0,0:1|0:0,0:0:0:0:
36,367,24657,5,2,1:0:0:0:
141,215,24820,1,0,0:0:0:0:
169,359,24983,5,8,0:1:0:0:
75,252,25146,2,0,P|30:238|-14:218,1,80,2|0,1:0|0:0,0:0:0:0:
102,319,25472,5,0,1:0:0:0:
230,203,25635,1,8,0:1:0:0:
123,50,25798,2,0,B|214:38|201:82|300:67,1,160,2|0,0:1|3:0,0:0:0:0:
279,69,26205,1,0,3:0:0:0:
279,69,26287,1,8,0:1:0:0:
435,320,26613,6,0,P|476:340|519:367,1,80,2|0,1:0|0:0,0:0:0:0:
312,219,26939,2,0,B|316:179|316:179|291:140,1,80,10|0,0:1|0:0,0:0:0:0:
387,204,27265,1,2,1:0:0:0:
234,324,27428,2,0,P|202:360|176:392,1,80,0|8,0:0|0:1,0:0:0:0:
5,157,27754,6,0,P|39:215|131:208,1,160,2|0,1:0|1:0,0:0:0:0:
269,46,28243,1,12,0:1:0:0:
205,7,28407,2,0,P|181:56|175:104,1,80,2|8,0:1|0:3,0:0:0:0:
291,222,28733,1,2,3:1:0:0:
291,222,28814,1,0,3:0:0:0:
291,222,28896,1,2,3:0:0:0:
117,335,29059,1,4,0:3:0:0:
181,383,29222,6,0,B|191:317|220:344|231:262,1,120,4|0,1:0|0:0,0:0:0:0:
228,275,29548,2,0,L|141:245,1,80,8|0,0:1|0:0,0:0:0:0:
456,118,29874,5,2,1:0:0:0:
301,198,30037,1,0,0:0:0:0:
289,33,30200,5,8,0:1:0:0:
352,76,30363,2,0,B|384:155|331:142|367:242,1,160,2|0,1:0|1:0,0:0:0:0:
302,273,30852,1,8,0:1:0:0:
192,83,31015,2,0,P|172:76|103:41,1,80,2|0,0:1|1:0,0:0:0:0:
240,233,31341,1,0,0:0:0:0:
98,331,31504,2,0,B|97:292|97:292|131:251,1,80,8|0,0:1|0:0,0:0:0:0:
308,81,31830,6,0,P|316:110|324:211,1,120,2|0,1:0|0:0,0:0:0:0:
324,199,32157,2,0,P|367:218|417:233,1,80,10|0,0:1|0:0,0:0:0:0:
104,366,32483,5,2,1:0:0:0:
248,204,32646,1,0,1:0:0:0:
13,124,32809,5,8,0:1:0:0:
172,331,32972,2,0,B|164:262|126:288|122:209,1,120,6|0,1:0|0:0,0:0:0:0:
124,225,33298,2,0,P|164:212|223:184,1,80,8|0,0:1|0:0,0:0:0:0:
485,13,33624,6,0,L|529:26,1,40,14|0,0:1|0:0,0:0:0:0:
478,17,33950,2,0,L|455:79,1,40,14|0,0:1|0:0,0:0:0:0:
255,248,34276,6,0,P|269:271|277:289,1,40,0|0,3:0|3:0,0:0:0:0:
342,314,34439,2,0,B|269:298|277:340|181:324,1,143.999995605469,6|8,1:0|0:1,0:0:0:0:
145,284,34928,1,0,0:0:0:0:
283,161,35091,2,0,B|280:127|280:127|307:87,1,71.9999978027344,2|0,1:0|1:0,0:0:0:0:
203,144,35417,1,8,0:1:0:0:
366,11,35580,6,0,P|392:21|520:58,1,143.999995605469,2|0,0:1|0:0,0:0:0:0:
381,271,36070,1,8,0:1:0:0:
333,220,36233,2,0,B|332:186|332:186|358:153,1,71.9999978027344,2|0,1:0|0:0,0:0:0:0:
261,32,36559,1,0,1:0:0:0:
261,32,36722,2,0,P|225:15|177:-13,1,71.9999978027344,10|0,0:1|0:0,0:0:0:0:
0,167,37048,6,0,B|82:157|71:190|157:179,1,143.999995605469,2|8,1:0|0:1,0:0:0:0:
317,291,37537,1,2,0:1:0:0:
356,229,37700,1,0,1:0:0:0:
230,281,37863,1,0,1:0:0:0:
345,372,38026,1,8,0:1:0:0:
182,337,38189,6,0,P|146:352|103:365,1,71.9999978027344,2|0,0:1|1:0,0:0:0:0:
313,199,38515,2,0,P|323:159|341:106,1,71.9999978027344,2|8,0:1|0:1,0:0:0:0:
142,271,38841,2,0,B|66:260|78:291|-11:281,1,143.999995605469,0|0,1:0|1:0,0:0:0:0:
200,220,39330,1,10,0:1:0:0:
88,53,39493,1,2,0:1:0:0:
45,112,39657,6,0,P|95:132|137:145,1,71.9999978027344,0|0,1:0|0:0,0:0:0:0:
283,313,39983,1,8,0:1:0:0:
303,244,40146,2,0,P|201:271|189:308,1,143.999995605469,0|0,0:0|1:0,0:0:0:0:
436,290,40635,2,0,P|490:311|516:319,1,71.9999978027344,10|2,0:1|0:1,0:0:0:0:
320,117,40961,5,0,1:0:0:0:
420,213,41124,1,0,0:0:0:0:
357,251,41287,5,8,0:1:0:0:
461,90,41450,2,0,P|442:84|311:33,1,143.999995605469,0|0,1:0|1:0,0:0:0:0:
436,253,41939,2,0,B|448:218|448:218|432:169,1,71.9999978027344,10|2,0:1|0:1,0:0:0:0:
274,97,42265,5,0,1:0:0:0:
274,97,42428,2,0,P|239:113|190:132,1,71.9999978027344,0|8,0:0|0:1,0:0:0:0:
21,265,42754,5,0,3:0:0:0:
164,357,42917,1,0,1:0:0:0:
295,196,43080,5,2,1:0:0:0:
162,280,43243,1,8,0:1:0:0:
377,375,43407,6,0,B|384:316|416:337|424:260,1,107.999996704102,2|0,0:1|0:0,0:0:0:0:
421,278,43733,2,0,P|392:265|345:237,1,71.9999978027344,2|8,0:1|0:1,0:0:0:0:
167,91,44059,2,0,P|121:123|138:217,1,143.999995605469,0|0,1:0|3:0,0:0:0:0:
133,211,44466,1,2,3:0:0:0:
133,211,44548,2,0,P|98:233|53:254,1,71.9999978027344,8|4,0:3|0:3,0:0:0:0:
250,29,44874,6,0,B|336:41|311:73|406:71,2,143.999995605469,6|8|2,1:0|0:1|1:0,0:0:0:0:
366,144,45689,2,0,P|329:164|290:180,1,71.9999978027344,0|8,1:0|0:1,0:0:0:0:
503,370,46015,6,0,P|505:348|506:218,1,143.999995605469,2|0,0:1|0:0,0:0:0:0:
470,166,46504,1,8,0:1:0:0:
393,295,46667,2,0,P|357:314|305:346,1,71.9999978027344,2|0,1:0|0:0,0:0:0:0:
277,280,46993,1,0,1:0:0:0:
394,164,47157,2,0,B|391:131|391:131|419:88,1,71.9999978027344,10|0,0:1|0:0,0:0:0:0:
226,222,47483,6,0,P|188:234|56:263,1,143.999995605469,2|8,1:0|0:1,0:0:0:0:
219,106,47972,1,2,0:1:0:0:
319,173,48135,1,0,1:0:0:0:
351,109,48298,6,0,B|353:76|353:76|382:40,1,71.9999978027344,0|8,1:0|0:1,0:0:0:0:
214,181,48624,2,0,P|170:207|128:223,1,71.9999978027344,2|0,0:1|1:0,0:0:0:0:
419,246,48950,2,0,P|454:291|472:311,1,71.9999978027344,2|8,0:1|0:1,0:0:0:0:
278,135,49276,2,0,P|225:135|201:52,1,143.999995605469,0|0,1:0|1:0,0:0:0:0:
33,184,49765,1,10,0:1:0:0:
154,311,49928,1,2,0:1:0:0:
166,240,50091,6,0,P|132:228|77:203,1,71.9999978027344,0|0,1:0|0:0,0:0:0:0:
187,380,50417,1,8,0:1:0:0:
324,271,50580,2,0,P|322:241|326:143,1,107.999996704102
323,163,50907,2,0,P|361:147|402:124,1,71.9999978027344,2|8,1:0|0:1,0:0:0:0:
437,188,51233,1,2,0:1:0:0:
215,251,51396,6,0,P|260:242|326:316,1,143.999995605469,0|8,1:0|0:1,0:0:0:0:
293,373,51885,2,0,P|248:382|182:308,1,143.999995605469,0|0,1:0|1:0,0:0:0:0:
282,193,52374,1,10,0:1:0:0:
407,294,52537,1,2,0:1:0:0:
425,222,52700,6,0,L|505:190,1,71.9999978027344,0|0,1:0|0:0,0:0:0:0:
259,118,53026,1,8,0:1:0:0:
286,52,53189,2,0,B|214:36|229:81|113:54,1,143.999995605469,0|2,0:0|1:0,0:0:0:0:
177,175,53678,5,8,0:1:0:0:
50,265,53841,1,2,3:1:0:0:
204,368,54004,5,0,1:0:0:0:
94,199,54167,1,2,3:1:0:0:
333,83,54330,5,8,0:1:0:0:
189,261,54493,2,0,P|217:271|288:291,1,71.9999978027344,0|0,1:0|0:0,0:0:0:0:
257,283,54738,1,8,0:1:0:0:
257,283,54820,1,8,0:1:0:0:
134,84,54983,5,8,0:3:0:0:
271,210,55146,1,4,0:3:0:0:
51,333,55309,1,4,1:0:0:0:
51,333,55635,2,2,B|57:267|92:296|97:210,1,107.999996704102,14|0,0:1|0:0,0:1:0:0:
94,236,55961,2,0,L|10:207,1,71.9999978027344,2|0,1:0|1:0,0:0:0:0:
242,329,56287,1,8,0:1:0:0:
149,384,56450,6,0,B|148:349|148:349|181:305,1,71.9999978027344,2|0,0:1|1:0,0:0:0:0:
322,192,56776,2,0,L|406:163,1,71.9999978027344,2|8,0:1|0:1,0:0:0:0:
456,127,57102,2,0,P|460:151|465:287,1,143.999995605469,2|0,1:0|3:0,0:0:0:0:
465,270,57510,1,0,3:0:0:0:
465,270,57591,1,10,0:1:0:0:
160,24,57917,6,0,P|112:9|74:-7,1,71.9999978027344,2|0,1:0|0:0,0:0:0:0:
114,156,58243,2,0,P|157:121|186:99,1,71.9999978027344,8|0,0:1|0:0,0:0:0:0:
14,57,58570,2,0,P|23:105|29:144,1,71.9999978027344,2|0,1:0|1:0,0:0:0:0:
164,232,58896,1,8,0:1:0:0:
9,357,59059,1,2,0:1:0:0:
11,283,59222,6,0,B|46:282|46:282|94:308,1,71.9999978027344,0|2,1:0|0:1,0:0:0:0:
314,318,59548,1,8,0:1:0:0:
275,383,59711,2,0,B|328:373|328:373|356:344|356:344|408:332,1,143.999995605469,2|0,1:0|1:0,0:0:0:0:
405,333,60118,1,0,3:0:0:0:
405,333,60200,2,0,P|367:322|305:298,1,71.9999978027344,10|0,0:1|0:0,0:0:0:0:
154,135,60526,5,4,1:0:0:0:
154,135,60852,2,2,P|158:110|165:23,1,107.999996704102,14|0,0:1|0:0,0:1:0:0:
164,27,61178,2,0,P|125:15|82:0,1,71.9999978027344,2|0,1:0|1:0,0:0:0:0:
310,167,61504,1,8,0:1:0:0:
286,101,61667,6,0,P|348:98|387:189,1,143.999995605469,2|2,0:1|0:1,0:0:0:0:
445,207,62157,1,8,0:1:0:0:
291,307,62320,2,0,P|254:325|209:350,1,71.9999978027344,2|0,1:0|0:0,0:0:0:0:
479,384,62646,1,0,3:0:0:0:
479,384,62727,1,0,3:0:0:0:
479,384,62809,1,10,0:1:0:0:
397,375,63135,6,0,B|406:318|439:337|441:263,1,107.999996704102,6|0,1:0|0:0,0:0:0:0:
440,278,63461,2,0,L|516:250,1,71.9999978027344,8|0,0:1|0:0,0:0:0:0:
301,347,63787,5,6,1:0:0:0:
194,214,63950,1,0,1:0:0:0:
153,275,64113,5,8,0:1:0:0:
336,208,64276,1,0,3:0:0:0:
116,105,64439,5,6,1:0:0:0:
264,236,64602,1,0,1:0:0:0:
411,22,64765,5,8,0:1:0:0:
255,164,64928,1,0,1:0:0:0:
483,270,65091,5,2,1:0:0:0:
299,102,65254,1,0,3:0:0:0:
299,102,65336,1,2,3:0:0:0:
299,102,65417,2,0,B|301:67|301:67|274:27,1,71.9999978027344,8|0,0:3|0:0,0:0:0:0:
58,226,65743,5,4,1:0:0:0:
256,192,65825,12,8,66722,0:1:0:0:
71,203,67048,6,0,P|100:135|29:78,1,160,6|8,1:0|0:1,0:0:0:0:
245,208,67537,1,2,0:1:0:0:
339,33,67700,1,0,1:0:0:0:
221,136,67863,1,0,0:0:0:0:
380,231,68026,2,0,B|377:192|377:192|403:151,1,80,10|0,0:1|1:0,0:0:0:0:
163,174,68352,5,2,0:1:0:0:
307,260,68515,1,0,1:0:0:0:
452,108,68678,2,0,P|400:117|321:152,1,120,8|0,0:1|0:0,0:0:0:0:
276,184,69004,1,2,1:0:0:0:
428,289,69167,1,0,1:0:0:0:
251,379,69330,2,0,B|256:341|256:341|231:297,1,80,10|0,0:1|0:0,0:0:0:0:
463,191,69657,5,2,1:0:0:0:
323,249,69820,1,0,0:0:0:0:
186,114,69983,5,8,0:1:0:0:
341,177,70146,2,0,B|321:89|372:115|336:4,1,160,2|0,0:1|1:0,0:0:0:0:
143,213,70635,5,10,0:1:0:0:
274,69,70798,1,0,1:0:0:0:
74,4,70961,2,0,P|22:35|42:114,1,120,2|0,0:1|0:0,0:0:0:0:
76,148,71287,2,0,L|175:124,1,80,10|0,0:1|0:0,0:0:0:0:
296,343,71613,5,2,1:0:0:0:
126,266,71776,1,0,3:0:0:0:
294,232,71939,5,10,0:1:0:0:
152,341,72102,1,0,3:0:0:0:
352,294,72265,6,0,B|439:274|407:313|523:280,1,160,6|8,1:0|0:1,0:0:0:0:
372,214,72754,1,2,3:1:0:0:
364,209,72836,1,0,3:0:0:0:
357,205,72917,1,0,1:0:0:0:
179,270,73080,1,0,0:0:0:0:
15,158,73243,2,0,B|52:154|52:154|98:177,1,80,10|0,0:1|0:0,0:0:0:0:
235,326,73570,5,2,1:0:0:0:
59,367,73733,1,0,3:0:0:0:
92,298,73896,1,8,0:1:0:0:
188,384,74059,1,0,3:0:0:0:
381,204,74222,5,2,1:0:0:0:
234,277,74385,1,0,3:0:0:0:
272,344,74548,5,8,0:1:0:0:
348,134,74711,1,2,3:1:0:0:
479,303,74874,6,0,P|487:352|504:407,1,80,2|0,1:2|0:0,0:0:0:0:
419,365,75200,1,8,0:1:0:0:
512,167,75363,2,0,B|472:165|472:165|422:193,1,80,2|0,0:0|1:0,0:0:0:0:
226,370,75689,5,2,3:2:0:0:
386,234,75852,1,8,0:1:0:0:
212,112,76015,2,0,P|163:154|183:222,1,120,6|0,1:0|0:0,0:0:0:0:
123,264,76341,2,0,P|84:285|31:305,1,80,10|0,0:1|3:0,0:0:0:0:
321,202,76667,6,0,B|391:188|372:216|465:189,1,120,6|0,1:0|0:0,0:0:0:0:
507,173,76993,2,0,P|475:164|435:150,1,40,2|0,1:0|0:0,0:0:0:0:
225,20,77157,1,8,0:1:0:0:
235,69,77238,1,0,3:0:0:0:
234,83,77320,1,0,3:0:0:0:
228,128,77401,1,0,3:0:0:0:
236,174,77483,6,0,B|148:156|177:195|44:160,1,160,6|8,1:0|0:1,0:0:0:0:
301,289,77972,1,2,0:1:0:0:
129,366,78135,1,0,1:0:0:0:
241,245,78298,1,0,0:0:0:0:
340,384,78461,2,0,P|282:364|233:354,1,80,10|0,0:1|1:0,0:0:0:0:
65,211,78787,5,2,0:1:0:0:
187,309,78950,1,0,1:0:0:0:
0,374,79113,2,0,B|23:306|-23:321|10:240,1,120,8|0,0:1|0:0,0:0:0:0:
1,183,79439,2,0,L|97:164,1,80,2|0,1:0|0:0,0:0:0:0:
356,80,79765,2,0,L|260:61,1,80,10|0,0:1|0:0,0:0:0:0:
359,195,80091,5,2,1:0:0:0:
201,72,80254,1,0,3:0:0:0:
348,5,80417,5,8,0:1:0:0:
224,167,80580,1,2,3:1:0:0:
219,175,80662,1,0,3:0:0:0:
215,185,80743,1,0,1:0:0:0:
390,374,80907,5,0,3:0:0:0:
485,233,81070,1,10,0:1:0:0:
351,306,81233,5,0,1:0:0:0:
253,104,81396,2,0,B|294:104|294:104|340:130,1,80,2|0,0:1|0:0,0:0:0:0:
77,238,81722,2,0,P|29:251|-15:258,1,80,10|0,0:1|0:0,0:0:0:0:
236,384,82048,6,0,P|242:346|259:280,1,80,2|0,1:0|0:0,0:0:0:0:
47,88,82374,2,0,B|54:130|54:130|91:174,1,80,10|0,0:1|3:0,0:0:0:0:
148,195,82618,1,0,3:0:0:0:
158,204,82700,6,0,B|253:193|216:230|348:202,1,160,6|8,1:0|0:1,0:0:0:0:
512,89,83189,5,2,1:0:0:0:
303,141,83352,1,8,0:1:0:0:
162,0,83515,5,8,0:1:0:0:
337,79,83678,1,8,0:1:0:0:
0,193,83841,5,10,0:1:0:0:
254,383,84657,6,0,P|229:375|198:370,1,40,8|0,0:1|1:0,0:0:0:0:
86,256,84820,2,0,P|112:249|147:233,1,40,0|0,1:0|1:0,0:0:0:0:
317,329,84983,2,0,B|224:311|245:355|140:320,1,160,12|4,0:1|1:0,0:0:0:0:
88,294,85472,5,0,0:0:0:0:
304,131,85635,2,0,B|265:127|265:127|210:152,1,80,8|0,0:1|0:0,0:0:0:0:
419,307,85961,5,2,1:0:0:0:
274,231,86124,1,0,3:0:0:0:
237,350,86287,5,8,0:1:0:0:
447,207,86450,2,0,L|476:375,1,160,2|0,3:1|0:0,0:0:0:0:
381,250,86939,5,8,0:1:0:0:
491,84,87102,2,0,P|457:74|404:52,1,80,2|0,0:1|1:0,0:0:0:0:
265,181,87428,5,0,3:0:0:0:
255,186,87510,1,0,3:0:0:0:
244,191,87591,1,8,0:1:0:0:
355,325,87754,1,0,3:0:0:0:
466,183,87917,6,0,P|421:200|356:217,1,80,2|0,1:0|0:0,0:0:0:0:
186,384,88243,2,0,B|162:351|162:351|164:306,1,80,10|0,0:1|0:0,0:0:0:0:
198,238,88488,1,8,3:0:0:0:
208,228,88570,1,4,3:0:0:0:
344,383,88733,1,8,0:1:0:0:
92,384,88896,5,8,0:1:0:0:
364,294,89059,2,0,L|339:162,1,120,6|0,1:0|0:0,0:0:0:0:
322,104,89385,1,8,0:1:0:0:
172,285,89548,1,0,3:0:0:0:
475,154,89711,6,0,P|498:165|529:174,1,40,6|0,1:0|0:0,0:0:0:0:
470,145,90037,2,0,P|476:121|481:87,1,40,6|0,1:0|0:0,0:0:0:0:
208,306,90363,6,0,P|190:314|156:326,1,40,0|0,3:0|3:0,0:0:0:0:
103,338,90526,2,0,P|144:348|256:389,1,143.999995605469,6|8,1:0|0:1,0:0:0:0:
302,340,91015,1,0,0:0:0:0:
193,161,91178,2,0,P|234:141|274:120,1,71.9999978027344,2|0,0:1|0:0,0:0:0:0:
192,234,91504,1,8,0:1:0:0:
49,109,91667,6,0,P|-2:143|4:225,1,143.999995605469,2|0,0:1|0:0,0:0:0:0:
38,281,92157,1,8,0:1:0:0:
168,217,92320,2,0,B|166:181|166:181|190:148,1,71.9999978027344,2|0,0:1|0:0,0:0:0:0:
250,326,92646,1,0,0:0:0:0:
250,326,92809,2,0,P|286:351|317:376,1,71.9999978027344,10|0,0:1|1:0,0:0:0:0:
502,187,93135,6,0,B|425:189|445:225|334:214,1,143.999995605469,2|8,1:0|0:1,0:0:0:0:
387,288,93624,2,0,P|429:306|463:326,1,71.9999978027344,2|0,0:1|0:0,0:0:0:0:
368,212,93950,1,0,0:0:0:0:
225,271,94113,1,8,0:1:0:0:
110,173,94276,6,0,P|54:209|66:293,1,143.999995605469,2|2,0:1|0:1,0:0:0:0:
230,195,94765,1,8,0:1:0:0:
266,133,94874,1,0,3:0:0:0:
239,64,94983,1,0,3:0:0:0:
171,48,95091,2,0,P|155:69|148:81,6,23.9999992675781,0|0|0|0|0|0|10,3:0|0:0|0:0|0:0|0:0|0:0|0:1,0:0:0:0:
455,185,95580,5,2,1:0:0:0:
479,114,95743,2,0,B|405:103|416:138|318:114,1,143.999995605469,4|8,1:0|0:1,0:0:0:0:
137,215,96233,2,0,P|100:227|52:240,1,71.9999978027344
190,268,96559,1,2,0:1:0:0:
60,336,96722,1,8,0:1:0:0:
289,384,96885,6,0,P|289:358|279:238,1,143.999995605469,2|0,0:1|0:0,0:0:0:0:
441,24,97374,1,8,0:1:0:0:
428,94,97483,1,0,3:0:0:0:
365,128,97591,1,0,3:0:0:0:
295,111,97700,2,0,L|287:86,6,23.9999992675781,0|0|0|0|0|0|10,3:0|0:0|0:0|0:0|0:0|0:0|0:1,0:0:0:0:
436,341,98189,5,2,1:0:0:0:
461,274,98352,2,0,P|499:292|543:308,1,71.9999978027344,0|0,1:0|0:0,0:0:0:0:
290,380,98678,2,0,B|286:347|286:347|315:302,1,71.9999978027344,8|0,0:1|0:0,0:0:0:0:
474,175,99004,1,2,0:1:0:0:
474,175,99167,2,0,P|436:193|392:209,1,71.9999978027344,0|8,0:0|0:1,0:0:0:0:
156,337,99493,6,0,L|143:380,1,35.9999989013672,2|0,1:0|2:0,0:0:0:0:
151,330,99820,2,0,L|102:314,1,35.9999989013672,8|0,2:3|2:0,0:0:0:0:
57,383,100146,6,0,P|89:338|45:262,1,143.999995605469,4|4,0:3|3:0,0:0:0:0:
52,265,100553,1,0,3:0:0:0:
52,265,100635,2,0,P|87:245|127:215,1,71.9999978027344,2|0,3:0|0:0,0:0:0:0:
259,4,100961,5,8,0:1:0:0:
248,26,101042,1,8,0:3:0:0:
270,43,101124,1,4,0:3:0:0:
263,55,101205,1,4,0:3:0:0:
265,65,101287,2,0,B|192:49|203:88|112:66,1,143.999995605469,6|0,1:0|1:0,0:0:0:0:
306,132,101776,2,0,P|345:144|394:164,1,71.9999978027344,0|8,0:0|0:1,0:0:0:0:
511,294,102102,6,0,P|514:263|511:139,1,143.999995605469,2|0,0:1|0:0,0:0:0:0:
358,245,102591,1,8,0:1:0:0:
411,300,102754,2,0,P|355:327|318:349,1,71.9999978027344,2|0,1:0|0:0,0:0:0:0:
286,290,103080,1,0,1:0:0:0:
406,166,103243,2,0,P|370:146|330:119,1,71.9999978027344,10|0,0:1|0:0,0:0:0:0:
233,374,103570,6,0,P|291:387|348:311,1,143.999995605469,2|8,1:0|0:1,0:0:0:0:
162,199,104059,2,0,B|166:163|166:163|144:127,1,71.9999978027344,2|0,0:1|1:0,0:0:0:0:
80,161,104385,1,0,1:0:0:0:
168,273,104548,1,8,0:1:0:0:
62,236,104711,6,0,P|29:256|-9:277,1,71.9999978027344,2|0,0:1|1:0,0:0:0:0:
180,103,105037,2,0,P|188:58|201:16,1,71.9999978027344,2|8,0:1|0:1,0:0:0:0:
272,257,105363,2,0,B|353:272|330:297|417:297,1,143.999995605469,0|0,1:0|1:0,0:0:0:0:
176,291,105852,1,10,0:1:0:0:
318,195,106015,1,2,0:1:0:0:
200,363,106178,6,0,P|134:368|100:293,1,143.999995605469,0|8,1:0|0:1,0:0:0:0:
308,123,106667,2,0,L|389:100,1,71.9999978027344,0|0,0:0|1:0,0:0:0:0:
461,276,106993,1,2,1:0:0:0:
319,195,107157,1,8,0:1:0:0:
223,345,107320,5,2,0:1:0:0:
292,309,107483,1,0,1:0:0:0:
148,198,107646,2,0,B|128:231|128:231|135:275,1,71.9999978027344,0|8,0:0|0:1,0:0:0:0:
342,361,107972,2,0,B|425:349|412:387|509:375,1,143.999995605469,0|0,1:0|1:0,0:0:0:0:
298,230,108461,2,0,P|253:217|209:200,1,71.9999978027344,10|2,0:1|0:1,0:0:0:0:
14,87,108787,6,0,P|11:104|3:245,1,143.999995605469,0|8,1:0|0:1,0:0:0:0:
213,132,109276,2,0,P|258:119|302:102,1,71.9999978027344,0|0,0:0|1:0,0:0:0:0:
346,151,109602,1,2,1:0:0:0:
191,249,109765,1,8,0:1:0:0:
358,353,109928,1,2,3:1:0:0:
267,239,110091,5,0,1:0:0:0:
88,352,110254,1,2,3:1:0:0:
157,384,110417,5,8,0:1:0:0:
83,164,110580,2,0,P|42:146|-9:119,1,71.9999978027344,6|0,1:0|0:0,0:0:0:0:
258,317,110907,5,8,0:1:0:0:
427,168,111070,1,8,0:3:0:0:
252,68,111233,5,4,0:3:0:0:
430,249,111396,1,4,1:0:0:0:
430,249,111722,2,2,P|396:260|299:283,1,107.999996704102,14|0,0:1|0:0,0:1:0:0:
326,277,112048,2,0,P|364:291|417:317,1,71.9999978027344,2|0,1:0|1:0,0:0:0:0:
362,142,112374,1,8,0:1:0:0:
362,142,112537,2,0,P|330:167|281:200,1,71.9999978027344,2|0,0:1|1:0,0:0:0:0:
463,248,112863,2,0,P|456:208|452:149,1,71.9999978027344,2|8,0:1|0:1,0:0:0:0:
167,246,113189,2,0,B|93:229|99:268|10:253,1,143.999995605469,2|0,1:0|3:0,0:0:0:0:
25,255,113597,1,0,3:0:0:0:
25,255,113678,1,10,0:1:0:0:
317,334,114004,6,0,P|356:351|405:367,1,71.9999978027344,2|0,1:0|0:0,0:0:0:0:
217,171,114330,1,8,0:1:0:0:
344,265,114493,1,0,0:0:0:0:
153,338,114657,5,2,1:0:0:0:
211,289,114820,1,0,1:0:0:0:
77,169,114983,5,8,0:1:0:0:
30,226,115146,2,0,B|37:264|37:264|73:305,1,71.9999978027344,2|0,0:1|1:0,0:0:0:0:
215,136,115472,2,0,P|245:125|294:106,1,71.9999978027344,2|8,0:1|0:1,0:0:0:0:
322,344,115798,2,0,P|261:351|211:275,1,143.999995605469,2|0,1:0|1:0,0:0:0:0:
211,292,116205,1,0,3:0:0:0:
211,292,116287,1,10,0:1:0:0:
330,68,116450,6,0,P|308:78|280:88,1,35.9999989013672
239,44,116613,1,4,1:0:0:0:
239,44,116939,2,2,B|246:106|279:81|289:157,1,107.999996704102,14|0,0:1|0:0,0:1:0:0:
286,139,117265,2,0,P|251:161|206:182,1,71.9999978027344,2|0,1:0|1:0,0:0:0:0:
337,297,117591,1,8,0:1:0:0:
241,377,117754,6,0,B|240:344|240:344|268:307,1,71.9999978027344,2|0,0:1|0:0,0:0:0:0:
437,204,118080,2,0,P|469:190|502:173,1,71.9999978027344,2|8,0:1|0:1,0:0:0:0:
289,0,118407,2,0,P|287:28|274:170,1,143.999995605469,2|0,1:0|3:0,0:0:0:0:
276,143,118814,1,0,3:0:0:0:
276,143,118896,1,10,0:1:0:0:
41,356,119222,6,0,P|43:337|68:234,1,107.999996704102,6|0,1:0|0:0,0:0:0:0:
62,250,119548,2,0,P|31:233|-14:196,1,71.9999978027344,8|0,0:1|0:0,0:0:0:0:
288,286,119874,5,6,1:0:0:0:
114,358,120037,1,0,1:0:0:0:
144,291,120200,5,8,0:1:0:0:
279,372,120363,1,0,3:0:0:0:
512,223,120526,5,6,1:0:0:0:
348,334,120689,1,0,1:0:0:0:
256,93,120852,5,8,0:1:0:0:
380,260,121015,1,0,1:0:0:0:
98,322,121178,5,2,1:0:0:0:
273,175,121341,1,0,3:0:0:0:
273,175,121423,1,2,3:0:0:0:
273,175,121504,2,0,P|233:162|176:138,1,71.9999978027344,8|0,0:3|0:0,0:0:0:0:
512,384,121830,5,4,1:0:0:0:
256,192,121912,12,8,122809,0:3:0:0:
441,25,123135,6,0,L|469:185,1,160,6|8,1:0|0:1,0:0:0:0:
223,269,123624,1,2,0:1:0:0:
386,145,123787,2,0,P|345:132|285:107,1,80,0|0,1:0|0:0,0:0:0:0:
406,364,124113,5,10,0:1:0:0:
297,248,124276,1,0,1:0:0:0:
217,374,124439,5,2,0:1:0:0:
372,271,124602,1,0,1:0:0:0:
234,129,124765,2,0,P|283:112|328:93,1,80,8|0,0:1|0:0,0:0:0:0:
80,218,125091,5,2,1:0:0:0:
242,298,125254,1,0,1:0:0:0:
411,155,125417,2,0,P|450:186|432:264,1,120,10|0,0:1|0:0,0:0:0:0:
392,304,125743,6,0,L|305:281,1,80,2|0,1:0|0:0,0:0:0:0:
119,138,126070,1,8,0:1:0:0:
103,69,126233,2,0,B|199:56|173:91|295:61,1,160,2|0,0:1|0:0,0:0:0:0:
125,210,126722,1,10,0:1:0:0:
245,329,126885,1,0,1:0:0:0:
344,247,127048,6,0,B|305:243|305:243|250:266,1,80,2|0,0:1|0:0,0:0:0:0:
105,290,127374,2,0,L|79:374,1,80,10|0,0:1|0:0,0:0:0:0:
349,170,127700,6,0,B|356:131|356:131|331:84,1,80,2|0,1:0|3:0,0:0:0:0:
100,212,128026,2,0,P|52:231|10:244,1,80,10|0,0:1|3:0,0:0:0:0:
15,157,128271,1,0,3:0:0:0:
26,148,128352,6,0,B|115:137|101:183|215:168,1,160,6|8,1:0|0:1,0:0:0:0:
325,344,128841,1,2,3:1:0:0:
441,186,129004,1,0,1:0:0:0:
321,269,129167,1,0,0:0:0:0:
497,370,129330,2,0,B|505:334|505:334|477:284,1,80,10|0,0:1|0:0,0:0:0:0:
325,194,129657,5,2,1:0:0:0:
163,240,129820,1,0,3:0:0:0:
18,109,129983,2,0,P|71:121|164:157,1,120,8|0,0:1|0:0,0:0:0:0:
200,173,130309,5,2,1:0:0:0:
6,272,130472,1,0,3:0:0:0:
37,206,130635,5,8,0:1:0:0:
207,310,130798,1,2,3:1:0:0:
399,215,130961,6,0,P|445:255|425:331,1,120,2|0,1:2|0:0,0:0:0:0:
403,372,131287,1,8,0:1:0:0:
250,246,131450,2,0,P|205:228|164:208,1,80,2|0,0:0|1:0,0:0:0:0:
109,174,131695,1,0,3:0:0:0:
100,166,131776,1,2,3:2:0:0:
181,306,131939,1,8,0:1:0:0:
23,136,132102,6,0,P|81:122|165:92,1,120,6|0,1:0|0:0,0:0:0:0:
203,64,132428,2,0,P|225:90|232:126,1,40,10|0,0:1|0:0,0:0:0:0:
106,279,132591,1,0,3:0:0:0:
301,111,132754,6,0,P|285:151|261:170,1,40,6|0,1:0|0:0,0:0:0:0:
46,226,132917,1,0,0:0:0:0:
335,204,133080,6,0,P|305:224|269:228,1,40,2|0,1:0|0:0,0:0:0:0:
17,156,133243,1,8,0:1:0:0:
63,136,133325,1,0,3:0:0:0:
111,142,133407,1,0,3:0:0:0:
147,175,133488,1,0,3:0:0:0:
159,219,133570,6,0,P|74:253|-23:275,1,160,6|8,1:0|0:1,0:0:0:0:
288,369,134059,1,2,0:1:0:0:
225,264,134222,2,0,P|268:284|317:302,1,80,0|0,1:0|0:0,0:0:0:0:
86,384,134548,5,10,0:1:0:0:
181,206,134711,1,0,1:0:0:0:
2,262,134874,2,0,B|6:304|6:304|36:346,1,80,2|0,0:1|1:0,0:0:0:0:
154,135,135200,6,0,P|178:91|132:20,1,120,8|0,0:1|0:0,0:0:0:0:
96,74,135526,1,2,1:0:0:0:
232,172,135689,1,0,0:0:0:0:
416,54,135852,2,0,B|378:50|378:50|312:81,1,80,10|0,0:1|0:0,0:0:0:0:
290,122,136178,5,2,1:0:0:0:
406,222,136341,1,0,3:0:0:0:
224,336,136504,5,8,0:1:0:0:
347,174,136667,2,0,L|315:-3,1,160,2|0,3:1|3:0,0:0:0:0:
154,222,137157,2,0,P|197:240|253:256,1,80,10|0,0:1|1:0,0:0:0:0:
0,378,137483,5,2,0:1:0:0:
186,313,137646,1,0,3:0:0:0:
22,304,137809,5,10,0:1:0:0:
190,384,137972,1,0,3:0:0:0:
398,285,138135,6,0,P|355:269|303:241,1,80,2|0,1:0|0:0,0:0:0:0:
147,63,138461,1,10,0:1:0:0:
160,109,138542,1,0,3:0:0:0:
158,125,138624,1,0,3:0:0:0:
165,165,138705,1,0,3:0:0:0:
166,210,138787,2,0,B|259:191|239:234|350:220,1,160,6|8,1:0|0:1,0:0:0:0:
398,216,139276,5,2,1:0:0:0:
216,308,139439,1,8,0:1:0:0:
43,144,139602,5,8,0:1:0:0:
240,237,139765,1,8,0:1:0:0:
512,26,139928,5,10,0:1:0:0:
373,121,140743,5,8,0:1:0:0:
387,94,140825,1,8,0:1:0:0:
370,70,140906,1,0,1:0:0:0:
378,53,140988,1,0,1:0:0:0:
374,41,141069,2,0,B|283:29|296:73|197:58,1,160,12|6,0:1|1:0,0:0:0:0:
211,68,141722,2,0,P|258:89|293:108,1,80,8|0,0:1|0:0,0:0:0:0:
473,217,142048,5,2,1:0:0:0:
290,284,142211,1,0,1:0:0:0:
169,128,142374,5,8,0:1:0:0:
320,215,142537,2,0,P|324:237|330:377,1,160,2|0,0:1|0:0,0:0:0:0:
373,160,143026,5,8,0:1:0:0:
227,238,143189,1,0,1:0:0:0:
257,168,143352,5,2,0:1:0:0:
411,250,143515,1,0,1:0:0:0:
411,250,143597,1,0,3:0:0:0:
411,250,143678,1,10,0:1:0:0:
219,76,144004,6,0,P|187:58|145:30,1,80,2|0,1:0|0:0,0:0:0:0:
144,206,144330,2,0,P|173:187|219:163,1,80,8|0,0:1|0:0,0:0:0:0:
67,76,144657,2,0,P|63:130|59:158,1,80,2|0,1:0|1:0,0:0:0:0:
347,238,144983,5,8,0:1:0:0:
322,305,145146,2,0,P|377:316|439:228,1,160,2|0,0:1|0:0,0:0:0:0:
505,283,145635,1,8,0:1:0:0:
262,182,145798,1,0,1:0:0:0:
262,182,145879,1,0,3:0:0:0:
262,182,145961,1,2,3:1:0:0:
313,127,146124,6,0,P|330:155|334:173,1,40,0|0,3:0|3:0,0:0:0:0:
181,351,146287,1,10,0:1:0:0:
175,343,146532,5,0,3:0:0:0:
175,343,146613,2,0,B|92:327|99:369|-3:352,2,160,6|8|2,1:0|0:1|1:0,0:0:0:0:
62,208,147428,1,0,1:0:0:0:
182,47,147591,1,8,0:1:0:0:
177,121,147754,6,0,L|81:85,1,80,2|0,0:1|1:0,0:0:0:0:
344,242,148080,1,0,0:0:0:0:
256,313,148243,2,0,B|249:275|249:275|269:239,1,80,8|0,0:1|1:0,0:0:0:0:
422,76,148570,2,0,L|501:53,1,80,2|0,0:1|1:0,0:0:0:0:
499,54,148814,1,0,3:0:0:0:
499,54,148896,1,10,0:1:0:0:
487,137,149222,6,0,B|479:72|441:95|436:19,1,120,2|0,1:0|0:0,0:0:0:0:
437,30,149548,2,0,L|353:7,1,80,8|0,0:1|0:0,0:0:0:0:
182,188,149874,5,2,1:0:0:0:
336,79,150037,1,0,1:0:0:0:
344,241,150200,5,8,0:1:0:0:
223,128,150363,1,2,3:1:0:0:
128,297,150526,6,0,P|170:318|232:336,1,80,0|2,1:0|0:1,0:0:0:0:
427,129,150852,2,0,P|385:150|323:168,1,80,8|0,0:1|1:0,0:0:0:0:
353,160,151097,1,0,3:0:0:0:
353,160,151178,1,10,0:1:0:0:
512,290,151341,1,10,0:1:0:0:
284,374,151504,1,8,0:3:0:0:
273,335,151586,1,0,3:0:0:0:
287,311,151667,1,0,3:0:0:0:
279,299,151749,1,0,3:0:0:0:
281,292,151830,6,0,B|192:281|204:318|111:303,1,160,6|8,1:0|0:1,0:0:0:0:
74,252,152320,1,0,0:0:0:0:
208,107,152483,2,0,L|125:71,1,80,2|0,1:0|1:0,0:0:0:0:
280,288,152809,1,8,0:1:0:0:
314,222,152972,6,0,P|377:272|357:347,1,160,2|0,0:1|0:0,0:0:0:0:
435,138,153461,2,0,P|477:117|529:83,1,80,8|0,0:1|1:0,0:0:0:0:
453,310,153787,1,2,0:1:0:0:
286,180,153950,1,0,1:0:0:0:
286,180,154032,1,0,3:0:0:0:
286,180,154113,1,10,0:1:0:0:
357,209,154439,6,0,P|359:185|365:75,1,120,2|0,1:0|0:0,0:0:0:0:
364,89,154765,2,0,P|323:74|278:47,1,80,8|0,0:1|0:0,0:0:0:0:
140,160,155091,5,2,1:0:0:0:
7,254,155254,1,0,1:0:0:0:
169,350,155417,5,8,0:1:0:0:
81,205,155580,2,0,B|174:193|154:236|264:224,1,160,2|0,0:1|0:0,0:0:0:0:
134,283,156070,1,8,0:1:0:0:
300,366,156233,1,0,1:0:0:0:
300,366,156314,1,0,3:0:0:0:
300,366,156396,1,2,3:1:0:0:
346,275,156559,6,0,P|314:285|282:302,1,40,0|0,3:0|3:0,0:0:0:0:
55,382,156722,1,10,0:1:0:0:
50,373,156966,5,0,3:0:0:0:
50,373,157048,2,0,L|84:211,2,160,6|8|2,1:0|0:1|1:0,0:0:0:0:
230,208,157863,2,0,P|263:195|325:162,1,80,0|8,1:0|0:1,0:0:0:0:
487,348,158189,6,0,P|417:357|369:273,1,160,2|0,0:1|0:0,0:0:0:0:
248,159,158678,2,0,P|215:146|150:112,1,80,8|0,0:1|1:0,0:0:0:0:
253,235,159004,1,2,0:1:0:0:
431,147,159167,1,0,1:0:0:0:
431,147,159249,1,0,3:0:0:0:
431,147,159330,1,10,0:1:0:0:
367,96,159657,6,0,P|324:135|345:206,1,120,2|0,1:0|0:0,0:0:0:0:
300,260,159983,2,0,P|248:287|196:307,1,80,8|0,0:1|0:0,0:0:0:0:
0,75,160309,5,2,1:0:0:0:
152,179,160472,1,0,3:0:0:0:
246,3,160635,5,8,0:1:0:0:
112,83,160798,2,0,B|83:164|136:146|103:244,1,160,6|0,1:0|0:0,0:0:0:0:
137,305,161287,1,2,3:0:0:0:
72,365,161450,2,0,B|40:271|93:289|64:208,1,160,6|0,1:0|0:0,0:0:0:0:
485,365,162102,5,2,3:1:0:0:
256,192,162184,12,4,164874,1:0:0:0:
41,76,172700,6,0,P|79:90|170:114,1,120,4|0,1:0|0:0,0:0:0:0:
155,111,173026,2,0,P|103:130|52:155,1,80,0|0,1:0|1:0,0:0:0:0:
282,269,173352,5,8,0:1:0:0:
60,351,173515,1,8,0:1:0:0:
331,369,173678,5,4,1:0:0:0:
133,248,173841,1,8,0:1:0:0:
367,64,174004,5,8,0:1:0:0:
412,90,174086,1,8,0:3:0:0:
421,149,174167,1,8,0:3:0:0:
404,181,174249,1,8,0:3:0:0:
367,212,174330,1,0,1:0:0:0:
322,246,174412,1,4,0:3:0:0:
305,309,174493,1,4,0:3:0:0:
350,354,174575,1,4,0:3:0:0:
371,361,174657,6,0,P|392:355|431:333,1,40,8|8,0:1|0:3,0:0:0:0:
415,273,174820,2,0,P|436:279|475:301,1,40,4|4,0:3|0:3,0:0:0:0:
74,356,174983,5,4,1:0:0:0:
256,192,175064,12,0,175961,0:0:0:0:
299,216,176613,6,0,B|394:234|348:270|472:271,1,160,6|8,1:0|0:1,0:0:0:0:
217,144,177102,2,0,P|190:137|125:112,1,80,2|0,0:1|1:0,0:0:0:0:
236,301,177428,1,0,0:0:0:0:
399,173,177591,2,0,P|401:158|407:28,1,120,10|0,0:1|0:0,0:0:0:0:
407,53,177917,5,2,0:1:0:0:
238,169,178080,1,0,1:0:0:0:
300,209,178243,1,8,0:1:0:0:
294,11,178407,1,0,3:0:0:0:
112,117,178570,6,0,B|104:156|104:156|125:200,1,80,2|0,1:0|1:0,0:0:0:0:
369,109,178896,2,0,P|409:124|460:136,1,80,10|0,0:1|3:0,0:0:0:0:
445,133,179140,1,0,3:0:0:0:
445,133,179222,6,0,B|358:133|390:175|265:157,1,160,2|8,1:0|0:1,0:0:0:0:
105,38,179711,2,0,P|76:30|17:8,1,80,2|0,0:1|1:0,0:0:0:0:
173,190,180037,1,0,3:0:0:0:
100,204,180200,1,10,0:1:0:0:
224,93,180363,1,0,1:0:0:0:
353,221,180526,6,0,B|339:289|310:270|298:343,1,120,2|0,0:1|0:0,0:0:0:0:
301,327,180852,2,0,P|323:352|379:394,1,80,10|0,0:1|0:0,0:0:0:0:
222,189,181178,2,0,P|232:151|247:114,1,80,2|0,1:0|3:0,0:0:0:0:
80,297,181504,2,0,P|35:315|-12:330,1,80,10|0,0:1|3:0,0:0:0:0:
224,93,181830,6,0,B|192:164|245:172|209:254,1,160,6|8,1:0|0:1,0:0:0:0:
102,55,182320,2,0,P|66:37|27:11,1,80,2|0,3:1|1:0,0:0:0:0:
105,133,182646,1,0,0:0:0:0:
284,23,182809,2,0,P|333:28|373:102,1,120,10|0,0:1|0:0,0:0:0:0:
384,157,183135,5,2,1:0:0:0:
218,228,183298,1,0,3:0:0:0:
250,162,183461,1,8,0:1:0:0:
359,293,183624,1,0,3:0:0:0:
187,345,183787,6,0,P|213:358|270:381,1,80,2|0,1:0|3:0,0:0:0:0:
132,157,184113,1,8,0:1:0:0:
237,286,184276,1,2,3:1:0:0:
13,374,184439,6,0,B|26:315|56:340|69:257,1,120,2|0,1:2|0:0,0:0:0:0:
67,269,184765,2,0,P|38:253|-10:216,1,80,8|2,0:1|0:0,0:0:0:0:
139,371,185091,1,0,1:0:0:0:
316,266,185254,2,0,P|319:249|319:133,1,120,2|0,3:2|0:0,0:0:0:0:
320,146,185580,6,0,P|353:130|412:94,1,80,6|0,1:0|0:0,0:0:0:0:
157,289,185907,2,0,P|141:340|123:386,1,80,10|0,0:1|3:0,0:0:0:0:
91,81,186233,2,0,P|63:47|33:2,1,80,6|0,1:0|0:0,0:0:0:0:
68,157,186559,1,2,1:0:0:0:
276,33,186722,1,8,0:1:0:0:
284,78,186803,1,0,3:0:0:0:
279,90,186885,1,0,3:0:0:0:
284,131,186966,1,0,3:0:0:0:
273,178,187048,6,0,B|368:161|353:209|461:184,1,160,6|8,1:0|0:1,0:0:0:0:
248,313,187537,1,2,0:1:0:0:
350,351,187700,2,0,P|310:370|254:392,1,80,0|0,1:0|0:0,0:0:0:0:
150,223,188026,1,10,0:1:0:0:
32,125,188189,1,0,1:0:0:0:
0,191,188352,6,0,P|31:209|88:228,1,80,2|0,0:1|1:0,0:0:0:0:
314,135,188678,1,8,0:1:0:0:
334,71,188841,2,0,B|247:50|262:101|145:75,1,160,0|0,3:0|3:0,0:0:0:0:
176,80,189249,1,0,3:0:0:0:
176,80,189330,2,0,P|200:99|255:131,1,80,10|0,0:1|0:0,0:0:0:0:
440,322,189657,6,0,P|469:271|407:199,1,160,2|8,1:0|0:1,0:0:0:0:
421,126,190146,2,0,P|452:109|506:72,1,80,2|0,3:1|1:0,0:0:0:0:
304,279,190472,1,0,3:0:0:0:
221,161,190635,1,10,0:1:0:0:
287,192,190798,1,0,1:0:0:0:
76,328,190961,6,0,B|82:270|118:290|122:213,1,120,2|0,0:1|0:0,0:0:0:0:
121,219,191287,2,0,L|40:192,1,80,10|0,0:1|0:0,0:0:0:0:
274,384,191613,2,0,B|283:350|283:350|259:299,1,80,2|0,1:0|0:0,0:0:0:0:
382,129,191939,2,0,L|465:93,1,80,10|0,0:1|0:0,0:0:0:0:
477,298,192265,5,6,1:0:0:0:
406,271,192428,1,0,1:0:0:0:
300,185,192591,5,8,0:1:0:0:
403,142,192754,1,2,1:0:0:0:
237,312,192917,5,8,0:1:0:0:
33,216,193080,1,8,0:1:0:0:
229,384,193243,5,8,0:1:0:0:
487,222,193407,1,10,0:1:0:0:
487,229,194874,6,0,B|402:218|417:260|318:243,1,160,4|8,1:0|0:1,0:0:0:0:
272,198,195363,1,0,0:0:0:0:
407,89,195526,2,0,P|365:75|314:53,1,80,2|0,1:0|3:0,0:0:0:0:
102,176,195852,5,8,0:1:0:0:
70,241,196015,2,0,P|143:254|195:166,1,160,2|0,3:1|0:0,0:0:0:0:
292,330,196504,1,8,0:1:0:0:
434,205,196667,2,0,P|437:230|439:327,1,120,2|0,0:1|0:0,0:0:0:0:
439,325,196993,2,0,P|467:339|534:362,1,80,0|8,3:0|0:1,0:0:0:0:
325,204,197320,5,0,3:0:0:0:
348,134,197483,2,0,P|284:124|234:226,1,160,2|10,1:0|0:1,0:0:0:0:
163,229,197972,1,0,0:0:0:0:
314,340,198135,2,0,P|357:354|417:378,1,80,2|0,1:0|1:0,0:0:0:0:
317,264,198461,1,8,0:1:0:0:
156,353,198624,6,0,B|76:337|95:389|-15:357,1,160,2|0,1:0|0:0,0:0:0:0:
252,225,199113,2,0,P|255:200|255:93,1,120,14|0,0:1|0:0,0:0:0:0:
250,62,199439,1,8,0:3:0:0:
134,189,199602,1,0,3:0:0:0:
134,189,199684,1,0,3:0:0:0:
134,189,199765,1,2,3:0:0:0:
274,326,199928,5,4,0:3:0:0:
257,254,200091,2,0,P|313:245|368:330,1,160,4|10,1:0|0:1,0:0:0:0:
467,74,200580,1,0,0:0:0:0:
499,141,200743,2,0,P|463:156|410:169,1,80,2|0,1:0|1:0,0:0:0:0:
191,100,201070,1,8,0:1:0:0:
166,31,201233,6,0,B|260:16|239:64|352:29,1,160,2|0,1:0|0:0,0:0:0:0:
193,175,201722,1,8,0:1:0:0:
121,153,201885,2,0,P|77:168|28:189,1,80,2|0,0:1|1:0,0:0:0:0:
199,294,202211,1,0,0:0:0:0:
339,155,202374,2,0,B|345:218|376:190|389:268,1,120,8|0,0:1|0:0,0:0:0:0:
388,262,202700,6,0,L|306:293,1,80,6|0,1:0|0:0,0:0:0:0:
93,384,203026,2,0,B|74:350|74:350|81:289,1,80,10|0,0:1|0:0,0:0:0:0:
107,234,203271,1,0,3:0:0:0:
111,224,203352,1,2,1:0:0:0:
227,319,203515,1,0,3:0:0:0:
0,384,203678,5,8,0:1:0:0:
244,248,203841,2,0,L|224:121,1,120,6|0,1:0|0:0,0:0:0:0:
216,86,204167,1,8,0:1:0:0:
358,216,204330,1,0,1:0:0:0:
473,24,204493,6,0,L|533:2,1,40,6|0,1:0|0:0,0:0:0:0:
470,33,204820,2,0,L|486:89,1,40,6|0,1:0|0:0,0:0:0:0:
183,226,205146,6,0,P|209:216|234:199,1,40,0|0,3:0|3:0,0:0:0:0:
260,268,205309,2,0,B|187:257|198:296|90:256,1,143.999995605469,6|0,1:0|1:0,0:0:0:0:
277,343,205798,2,0,P|312:353|366:378,1,71.9999978027344,2|0,0:1|1:0,0:0:0:0:
366,224,206124,1,0,0:0:0:0:
306,267,206287,1,2,1:0:0:0:
435,382,206450,6,0,P|440:358|448:234,1,143.999995605469,0|2,0:0|3:1,0:0:0:0:
448,239,206858,1,0,3:0:0:0:
448,239,206939,2,0,P|485:222|527:195,1,71.9999978027344,0|0,1:0|0:0,0:0:0:0:
280,152,207265,2,0,P|232:177|237:267,1,143.999995605469,2|0,1:0|1:0,0:0:0:0:
234,255,207917,6,0,P|210:267|90:304,1,143.999995605469,2|0,1:0|1:0,0:0:0:0:
45,257,208407,1,2,0:1:0:0:
154,148,208570,2,0,P|126:135|89:111,1,71.9999978027344,0|0,1:0|0:0,0:0:0:0:
241,264,208896,1,2,1:0:0:0:
241,264,209059,2,0,B|261:296|261:296|252:346,1,71.9999978027344,0|0,0:0|1:0,0:0:0:0:
84,235,209385,6,0,L|45:251,2,23.9999992675781,0|0|0,3:0|0:0|0:0,0:0:0:0:
99,246,209548,1,0,1:0:0:0:
128,199,209657,1,0,3:0:0:0:
110,149,209765,1,0,3:0:0:0:
61,134,209874,2,0,B|141:115|110:95|200:71,1,143.999995605469,0|0,1:0|1:0,0:0:0:0:
429,208,210363,1,0,0:0:0:0:
498,187,210526,6,0,P|463:177|354:127,1,143.999995605469,6|0,1:0|1:0,0:0:0:0:
478,291,211015,2,0,B|495:323|495:323|485:370,1,71.9999978027344,2|0,0:1|1:0,0:0:0:0:
419,384,211341,1,0,0:0:0:0:
390,249,211504,2,0,P|346:231|310:213,1,71.9999978027344,2|0,1:0|0:0,0:0:0:0:
282,164,211830,1,0,1:0:0:0:
462,166,211993,6,0,P|450:142|443:124,2,23.9999992675781,0|0|0,3:0|0:0|0:0,0:0:0:0:
459,121,212157,1,0,1:0:0:0:
430,54,212265,1,0,3:0:0:0:
361,36,212374,1,0,3:0:0:0:
292,63,212483,2,0,P|279:85|276:98,5,23.9999992675781,0|0|0|0|0|0,1:0|0:0|0:0|0:0|0:0|0:0,0:0:0:0:
246,95,212809,6,0,P|220:76|202:60,1,35.9999989013672,2|0,1:0|0:0,0:0:0:0:
345,254,212972,2,0,P|360:262|375:273,1,35.9999989013672,2|0,3:1|0:0,0:0:0:0:
340,122,213135,6,0,B|256:109|271:164|161:132,1,160,6|0,1:0|1:0,0:0:0:0:
123,179,213624,1,0,1:0:0:0:
259,353,213787,5,8,0:1:0:0:
443,211,213950,1,8,0:1:0:0:
249,276,214113,5,8,0:1:0:0:
37,171,214276,2,0,L|63:37,1,120,4|0,1:0|0:0,0:0:0:0:
121,16,214602,2,0,P|158:10|224:-8,1,80,8|0,0:1|0:0,0:0:0:0:
423,251,214928,1,0,1:0:0:0:
423,251,215254,1,0,1:0:0:0:
478,201,215580,6,0,P|495:226|501:252,1,40,0|0,3:0|3:0,0:0:0:0:
214,377,215743,1,4,1:0:0:0:
