osu file format v14

[General]
AudioFilename: audio.mp3
AudioLeadIn: 0
PreviewTime: 54261
Countdown: 0
SampleSet: Normal
StackLeniency: 0.3
Mode: 0
LetterboxInBreaks: 0
WidescreenStoryboard: 0

[Editor]
Bookmarks: 54261,124975,176404
DistanceSpacing: 0.9
BeatDivisor: 8
GridSize: 4
TimelineZoom: 3.599998

[Metadata]
Title:lilac slumber -cosmic ver.-
TitleUnicode:lilac slumber -cosmic ver.-
Artist:Annabel
ArtistUnicode:Annabel
Creator:PandaHero
Version:fall
Source:
Tags:gibune delis shirohamymommy mirash gardener japanese pop jpop j-pop art dream jazz chamber アナベル あなべる cosmic gardener 田口囁一 shouichi taguchi fa featured artist
BeatmapID:3254177
BeatmapSetID:1593278

[Difficulty]
HPDrainRate:8
CircleSize:4
OverallDifficulty:9
ApproachRate:9
SliderMultiplier:2
SliderTickRate:1

[Events]
//Background and Video events
0,0,"EV3k8LrUMAAfrjV.jpg",0,0
//Break Periods
2,17845,24924
2,82131,87947
//Storyboard Layer 0 (Background)
//Storyboard Layer 1 (Fail)
//Storyboard Layer 2 (Pass)
//Storyboard Layer 3 (Foreground)
//Storyboard Layer 4 (Overlay)
//Storyboard Sound Samples

[TimingPoints]
703,357.142857142857,6,2,1,35,1,0
9246,-100,6,2,1,50,0,0
9261,-100,6,2,1,50,0,0
13532,-100,6,2,1,35,0,0
13547,-100,6,2,1,35,0,0
17845,-100,6,2,1,30,0,0
25689,-125,4,2,1,50,0,0
34975,-125,4,2,1,50,0,0
51047,-125,4,2,1,55,0,0
52118,-125,4,2,1,60,0,0
53189,-100,4,2,1,60,0,0
53368,-66.6666666666667,4,2,1,60,0,0
53547,-50,4,2,1,60,0,0
53725,-40,4,2,1,60,0,0
53904,-100,4,2,1,60,0,0
54261,-100,4,1,1,70,0,0
55332,-76.9230769230769,4,1,1,70,0,0
55689,-83.3333333333333,4,1,1,70,0,0
56047,-90.9090909090909,4,1,1,70,0,0
56404,-100,4,1,1,70,0,0
61761,-66.6666666666667,4,1,1,70,0,0
62118,-50,4,1,1,70,0,0
62475,-33.3333333333333,4,1,1,70,0,0
63011,-100,4,1,1,70,0,0
63904,-76.9230769230769,4,1,1,70,0,0
64261,-83.3333333333333,4,1,1,70,0,0
64618,-90.9090909090909,4,1,1,70,0,0
64975,-100,4,1,1,70,0,0
69707,-76.9230769230769,4,1,1,70,0,0
71404,-100,4,1,1,65,0,0
74797,-200,4,1,1,65,0,0
75689,-100,4,1,1,65,0,0
78457,-66.6666666666667,4,1,1,65,0,0
78814,-66.6666666666667,4,2,1,10,0,0
78904,-50,4,1,1,65,0,0
79082,-100,4,2,1,50,0,0
79261,-50,4,1,1,65,0,0
79439,-100,4,2,1,50,0,0
79618,-66.6666666666667,4,1,1,65,0,0
79960,-100,4,2,1,60,0,0
79975,-83.3333333333333,4,2,1,60,0,0
88547,365.853658536585,6,2,1,50,1,0
88547,-250,3,2,1,50,0,0
90724,352.941176470588,6,2,1,50,1,0
90724,-250,4,2,1,50,0,0
92135,357.142857142857,6,2,1,50,1,0
92135,-250,4,2,1,50,0,0
92849,357.142857142857,6,2,1,50,1,0
92849,-250,4,2,1,50,0,0
93563,361.44578313253,6,2,1,50,1,0
93563,-250,4,2,1,50,0,0
95008,352.941176470588,6,2,1,50,1,0
95008,-250,4,2,1,50,0,0
96419,357.142857142857,6,2,1,50,1,0
96419,-250,4,2,1,50,0,0
97133,357.142857142857,6,2,1,50,1,0
97133,-125,4,2,1,50,0,0
97847,352.941176470588,6,2,1,50,1,0
97847,-125,4,2,1,50,0,0
99258,357.142857142857,6,2,1,50,1,0
99258,-125,4,2,1,50,0,0
100686,365.853658536585,6,2,1,50,1,0
100686,-125,4,2,1,50,0,0
101417,357.142857142857,6,2,1,50,1,0
101417,-125,4,2,1,50,0,0
102131,-125,4,2,1,50,0,0
102489,361.44578313253,6,2,1,50,1,0
102489,-125,4,2,1,50,0,0
103573,363.636363636364,6,2,1,50,1,0
104663,340.909090909091,6,2,1,50,1,0
105684,363.636363636364,6,2,1,50,1,0
105684,-250,4,2,1,45,0,0
107138,348.837209302326,6,2,1,45,1,0
107138,-250,4,2,1,45,0,0
107835,361.44578313253,6,2,1,45,1,0
107835,-250,4,2,1,45,0,0
108184,-100,4,2,1,45,0,0
108557,357.142857142857,6,2,1,45,1,0
108904,-66.6666666666667,4,2,1,45,0,0
109985,357.142857142857,6,2,1,45,1,0
109985,-100,4,2,1,45,0,0
110689,-50,4,2,1,45,0,0
111414,352.941176470588,6,2,1,45,1,0
111582,-100,4,2,1,45,0,0
112118,-80,4,2,1,45,0,0
112119,352.941176470588,6,2,1,45,1,0
112649,-50,4,2,1,45,0,0
112825,361.44578313253,6,2,1,45,1,0
112825,-100,4,2,1,45,0,0
114270,357.142857142857,6,2,1,45,1,0
114270,-100,4,2,1,45,0,0
114618,-100,4,2,1,45,0,0
116404,-66.6666666666667,4,2,1,50,0,0
118555,361.44578313253,6,2,1,55,1,0
118555,-125,4,2,1,55,0,0
119618,-66.6666666666667,4,2,1,55,0,0
120362,352.941176470588,6,2,1,55,1,0
120714,352.941176470588,6,2,1,55,1,0
120714,-250,4,2,1,60,0,0
121420,356.083086053412,6,2,1,60,1,0
122832,-100,4,2,1,65,0,0
122844,356.083086053412,6,2,1,60,1,0
124082,-100,4,2,1,65,0,0
124975,-50,4,1,1,70,0,0
124980,357.142857142857,6,1,1,70,1,0
124980,-50,4,1,1,70,0,0
125154,-66.6666666666667,4,1,1,70,0,0
125332,-80,4,1,1,70,0,0
125511,-100,4,1,1,70,0,0
125689,-133.333333333333,4,1,1,70,0,0
125868,-200,4,1,1,70,0,0
126047,-66.6666666666667,4,1,1,70,0,0
126404,-200,4,1,1,70,0,0
126761,-66.6666666666667,4,1,1,70,0,0
126939,-80,4,1,1,70,0,0
127118,-66.6666666666667,4,1,1,70,0,0
128547,-50,4,1,1,70,0,0
128725,-83.3333333333333,4,1,1,70,0,0
128904,-55.5555555555556,4,1,1,70,0,0
129082,-40,4,1,1,70,0,0
129261,-66.6666666666667,4,1,1,70,0,0
130511,-83.3333333333333,4,1,1,70,0,0
130689,-71.4285714285714,4,1,1,70,0,0
130868,-62.5,4,1,1,70,0,0
131047,-55.5555555555556,4,1,1,70,0,0
131225,-50,4,1,1,70,0,0
131761,-66.6666666666667,4,1,1,70,0,0
133011,-50,4,1,1,70,0,0
133189,-40,4,1,1,70,0,0
133725,-100,4,1,1,70,0,0
133904,-83.3333333333333,4,1,1,70,0,0
134082,-66.6666666666667,4,1,1,70,0,0
134261,-55.5555555555556,4,1,1,70,0,0
134439,-50,4,1,1,70,0,0
136047,-66.6666666666667,4,1,1,70,0,0
137832,-200,4,1,1,70,0,0
138189,-66.6666666666667,4,1,1,70,0,0
139618,-50,4,1,1,70,0,0
139797,-66.6666666666667,4,1,1,70,0,0
139975,-40,4,1,1,70,0,0
140154,-33.3333333333333,4,1,1,70,0,0
140779,-50,4,1,1,70,0,0
141047,-133.333333333333,4,1,1,70,0,0
141404,-200,4,1,1,70,0,0
141582,-133.333333333333,4,1,1,70,0,0
141761,-100,4,1,1,70,0,0
141939,-66.6666666666667,4,1,1,70,0,0
142118,-25,4,1,1,65,0,0
142341,-133.333333333333,4,1,1,65,0,0
144886,-55.5555555555556,4,1,1,65,0,0
150868,-66.6666666666667,4,1,1,65,0,0
152475,-100,4,1,1,65,0,0
152832,-66.6666666666667,4,1,1,65,0,0
153547,-100,4,1,1,65,0,0
156047,-66.6666666666667,4,1,1,65,0,0
156582,-100,4,1,1,65,0,0
157118,-200,4,1,1,65,0,0
157832,-133.333333333333,4,1,1,65,0,0
162654,-100,4,1,1,65,0,0
169439,-66.6666666666667,4,1,1,65,0,0
174980,361.44578313253,6,1,1,65,1,0
176404,-100,4,1,1,70,0,0
176425,357.142857142857,6,1,1,70,1,0
176582,-83.3333333333333,4,1,1,70,0,0
176761,-71.4285714285714,4,1,1,70,0,0
176939,-62.5,4,1,1,70,0,0
177118,-55.5555555555556,4,1,1,70,0,0
177297,-50,4,1,1,70,0,0
177832,-100,4,1,1,70,0,0
178189,-133.333333333333,4,1,1,70,0,0
182139,352.941176470588,6,1,1,70,1,0
182844,352.941176470588,6,1,1,70,1,0
183550,357.142857142857,6,1,1,70,1,0
183550,-133.333333333333,4,1,1,70,0,0
186047,-50,4,1,1,70,0,0
186404,-100,4,1,1,70,0,0
191407,-66.6666666666667,4,1,1,70,0,0
192121,-133.333333333333,4,1,1,70,0,0
192475,-33.3333333333333,4,1,1,70,0,0
192654,-30.03003003003,4,1,1,70,0,0
192832,-27.2479564032698,4,1,1,70,0,0
193011,-25,4,1,1,70,0,0
193550,359.281437125748,6,1,1,75,1,0
193550,-40,4,1,1,75,0,0
193904,-50,4,1,1,75,0,0
194082,-66.6666666666667,4,1,1,75,0,0
194261,-100,4,1,1,75,0,0
194439,-133.333333333333,4,1,1,75,0,0
194618,-50,4,1,1,75,0,0
194987,357.142857142857,6,1,1,75,1,0
194987,-100,4,1,1,75,0,0
195332,-66.6666666666667,4,1,1,75,0,0
195701,357.142857142857,6,1,1,75,1,0
196761,-133.333333333333,4,1,1,75,0,0
198011,-100,4,1,1,75,0,0
198904,-100,4,1,1,75,0,0
199975,-66.6666666666667,4,1,1,75,0,0
200511,-40,4,1,1,75,0,0
200868,-133.333333333333,4,1,1,75,0,0
201058,352.941176470588,6,1,1,75,1,0
201058,-200,4,1,1,75,0,0
201672,-33.3333333333333,4,1,1,75,0,0
202116,357.142857142857,6,1,1,75,1,0
202118,-50,4,1,1,75,0,0
204437,-66.6666666666667,4,1,1,75,0,0
204616,-133.333333333333,4,1,1,75,0,0
205062,-66.6666666666667,4,1,1,75,0,0
206401,361.44578313253,6,1,1,75,1,0
207846,357.142857142857,6,1,1,75,1,0
208560,357.142857142857,6,1,1,75,1,0
208560,-66.6666666666667,4,1,1,75,0,0
209274,352.941176470588,6,1,1,75,1,0
209274,-66.6666666666667,4,1,1,75,0,0
210685,359.281437125748,6,1,1,70,1,0
210685,-66.6666666666667,4,1,1,70,0,0
212122,357.142857142857,6,1,1,70,1,0
212122,-33.3333333333333,4,1,1,70,0,0
212836,357.142857142857,6,1,1,70,1,0
213193,-33.3333333333333,4,1,1,70,0,0
213904,-66.6666666666667,4,1,1,70,0,0
219439,-50,4,1,1,70,0,0
223011,-66.6666666666667,4,1,1,70,0,0
223279,-50,4,1,1,70,0,0
224082,-100,4,1,1,70,0,0
225154,-66.6666666666667,4,1,1,70,0,0
227832,-50,4,1,1,65,0,0
229975,-66.6666666666667,4,1,1,65,0,0
234261,-50,4,1,1,65,0,0
237654,-133.333333333333,4,1,1,65,0,0
237832,-50,4,1,1,65,0,0
238011,-100,4,1,1,65,0,0
238547,-50,4,1,1,65,0,0
238904,-133.333333333333,4,1,1,65,0,0
239082,-50,4,1,1,65,0,0
241225,-200,4,1,1,65,0,0
241404,-100,4,1,1,65,0,0
241582,-50,4,1,1,65,0,0
241761,-33.3333333333333,4,1,1,65,0,0
241939,-25,4,1,1,65,0,0
242297,-200,4,1,1,65,0,0
242832,-33.3333333333333,4,1,1,65,0,0
243189,-133.333333333333,4,1,1,65,0,0
244975,-142.857142857143,4,2,1,50,0,0

[Colours]
Combo1 : 225,225,225
Combo2 : 152,147,204
Combo3 : 154,199,152

[HitObjects]
79,294,703,5,4,1:0:0:0:
306,166,1060,1,0,0:0:0:0:
229,142,1238,1,0,3:0:0:0:
217,219,1417,1,0,0:0:0:0:
292,239,1595,1,0,3:0:0:0:
257,188,1774,1,2,1:3:0:0:
433,90,2131,1,0,0:0:0:0:
433,90,2488,1,0,3:0:0:0:
81,154,2845,5,4,1:2:0:0:
281,238,3202,1,0,0:0:0:0:
212,209,3381,1,0,3:0:0:0:
242,140,3560,1,0,3:0:0:0:
312,168,3738,1,0,0:0:0:0:
430,226,3917,1,2,0:3:0:0:
491,109,4095,1,0,0:0:0:0:
373,51,4274,1,0,3:0:0:0:
413,131,4631,5,0,3:0:0:0:
410,140,4720,1,0,3:0:0:0:
407,149,4810,1,2,3:0:0:0:
404,158,4899,1,0,3:0:0:0:
402,167,4988,1,4,1:0:0:0:
368,239,5167,1,0,0:0:0:0:
293,230,5345,1,0,0:0:0:0:
329,160,5524,5,0,3:0:0:0:
209,190,5702,1,2,0:0:0:0:
141,289,5881,1,0,1:0:0:0:
68,342,6060,5,2,1:3:0:0:
216,313,6238,1,0,0:0:0:0:
364,282,6417,1,2,0:0:0:0:
441,307,6595,5,0,1:0:0:0:
491,194,6774,1,0,0:0:0:0:
377,152,6952,1,0,3:0:0:0:
201,231,7131,5,2,1:3:0:0:
303,217,7310,1,0,3:0:0:0:
338,23,7488,1,0,3:0:0:0:
257,100,7667,1,2,0:0:0:0:
441,211,7845,1,0,1:0:0:0:
386,119,8024,1,2,0:0:0:0:
303,217,8202,5,4,1:2:0:0:
386,119,8381,1,0,0:0:0:0:
257,100,8560,1,0,0:0:0:0:
302,188,8738,5,8,1:3:0:0:
352,133,8917,1,4,0:3:0:0:
273,121,9095,1,0,0:0:0:0:
308,152,9274,5,4,1:0:0:0:
301,175,9452,1,0,0:0:0:0:
279,205,9631,1,0,0:0:0:0:
238,240,9810,1,0,3:0:0:0:
167,264,9988,1,2,0:0:0:0:
89,254,10167,1,0,0:0:0:0:
24,187,10345,5,8,1:0:0:0:
36,174,10524,1,0,0:0:0:0:
61,160,10702,1,0,0:0:0:0:
108,140,10881,1,8,0:1:0:0:
183,143,11060,1,2,0:0:0:0:
267,175,11238,1,0,1:0:0:0:
352,245,11417,5,2,1:3:0:0:
422,277,11595,1,0,0:0:0:0:
500,239,11774,1,8,1:0:0:0:
505,148,11952,1,0,1:0:0:0:
428,98,12131,1,2,0:0:0:0:
329,146,12310,1,0,1:0:0:0:
214,284,12488,5,8,1:0:0:0:
120,309,12667,1,0,0:0:0:0:
56,275,12845,1,2,0:0:0:0:
39,240,13024,1,8,1:3:0:0:
45,213,13202,1,4,1:3:0:0:
58,204,13381,1,8,0:3:0:0:
67,202,13560,5,4,1:0:0:0:
188,277,13738,2,0,P|259:271|403:249,1,200,0|0,1:0|3:0,0:0:0:0:
462,238,14274,1,0,3:0:0:0:
285,41,14631,5,8,0:0:0:0:
274,124,14810,2,0,L|311:179,2,50,0|0|0,0:0|0:0|0:0,0:0:0:0:
166,125,15167,1,8,0:0:0:0:
233,197,15345,1,2,0:0:0:0:
148,250,15524,1,0,1:0:0:0:
247,333,15702,6,0,P|283:290|337:236,1,100,0|0,1:0|0:0,0:0:0:0:
389,202,16060,1,0,1:0:0:0:
265,51,16238,2,0,P|229:94|175:148,1,100,0|0,1:0|0:0,0:0:0:0:
123,182,16595,1,0,1:0:0:0:
313,258,16774,1,8,0:0:0:0:
199,126,16952,6,0,P|147:133|87:138,1,100,0|0,1:0|0:0,0:0:0:0:
313,258,17310,2,0,P|365:251|425:246,1,100,8|2,0:0|0:0,0:0:0:0:
353,69,25524,5,0,3:0:0:0:
353,69,25702,1,2,0:3:0:0:
129,99,26060,1,2,0:0:0:0:
154,323,26417,2,0,P|252:315|348:297,1,160,4|0,1:2|3:0,0:0:0:0:
386,321,26952,1,0,0:0:0:0:
391,246,27131,2,0,L|440:251,2,40,2|0|0,0:0|0:0|3:0,0:0:0:0:
333,193,27488,6,0,P|382:174|499:149,1,160,8|0,1:2|0:0,0:0:0:0:
416,128,28024,2,0,P|340:120|244:97,1,160,8|0,0:0|0:0,0:0:0:0:
198,152,28560,1,0,1:0:0:0:
35,51,28917,5,0,0:0:0:0:
66,116,29095,1,0,0:0:0:0:
93,185,29274,1,2,0:3:0:0:
117,254,29452,1,0,0:0:0:0:
138,327,29631,1,8,1:2:0:0:
218,355,29810,6,0,P|268:361|311:375,1,80,0|0,0:0|0:0,0:0:0:0:
262,286,30167,2,0,P|324:296|360:309,1,80,8|0,1:2|0:0,0:0:0:0:
348,303,30524,1,0,1:0:0:0:
241,200,30702,6,0,P|256:104|274:27,1,160,0|0,1:0|0:0,0:0:0:0:
355,225,31417,1,0,1:0:0:0:
355,225,31595,1,0,3:0:0:0:
355,225,31774,2,0,P|435:136|481:96,1,160,8|0,1:2|0:0,0:0:0:0:
350,326,32310,2,0,P|442:313|518:313,1,160,8|0,0:0|1:0,0:0:0:0:
508,312,32756,1,0,1:0:0:0:
508,312,32845,1,0,1:0:0:0:
252,283,33024,5,2,0:0:0:0:
173,291,33202,2,0,P|83:287|-7:270,2,160,2|0|8,1:3|0:0|0:0,0:0:0:0:
173,291,34274,2,0,P|130:309|61:327,1,80,2|8,1:3|0:3,0:0:0:0:
302,225,34631,2,0,P|314:187|322:134,1,80,4|0,1:3|0:0,0:0:0:0:
190,118,34988,5,4,1:0:0:0:
173,42,35167,1,0,0:0:0:0:
116,98,35345,1,0,0:0:0:0:
190,118,35524,1,2,0:3:0:0:
267,102,35702,1,0,0:0:0:0:
343,84,35881,1,0,1:0:0:0:
418,102,36060,1,8,1:0:0:0:
362,157,36238,1,0,0:0:0:0:
343,84,36417,1,0,3:1:0:0:
362,157,36595,1,2,0:3:0:0:
381,229,36774,1,0,0:0:0:0:
399,299,36952,1,0,0:0:0:0:
344,357,37131,5,0,1:0:0:0:
271,325,37310,2,0,L|102:350,1,160,0|0,1:0|1:0,0:0:0:0:
43,325,37845,2,0,P|31:290|37:238,1,80,2|0,0:0|0:0,0:0:0:0:
44,230,38113,1,8,1:0:0:0:
57,215,38202,1,8,1:0:0:0:
133,241,38381,2,0,P|155:185|144:87,1,160,0|0,1:0|0:0,0:0:0:0:
193,146,38917,2,0,L|367:178,1,160,0|4,1:0|0:0,0:0:0:0:
477,288,40345,5,8,1:0:0:0:
477,288,40702,1,0,0:0:0:0:
426,345,40881,1,0,3:0:0:0:
426,345,40970,1,0,3:0:0:0:
426,345,41060,2,0,P|391:365|337:375,1,80,2|0,0:0|0:0,0:0:0:0:
277,364,41417,5,2,0:0:0:0:
201,345,41595,1,0,1:0:0:0:
149,289,41774,1,0,1:0:0:0:
201,345,41952,5,8,0:0:0:0:
149,289,42131,1,0,0:0:0:0:
133,214,42310,1,8,0:0:0:0:
158,138,42488,5,4,1:2:0:0:
210,77,42667,1,0,0:0:0:0:
285,55,42845,1,0,1:0:0:0:
210,77,43024,5,0,3:0:0:0:
285,55,43202,1,0,1:0:0:0:
364,58,43381,1,0,3:0:0:0:
373,64,43470,1,0,3:0:0:0:
381,72,43560,1,0,1:0:0:0:
283,328,44274,6,0,P|262:301|272:255,1,80,8|0,0:3|0:0,0:0:0:0:
288,185,44631,2,0,P|223:191|155:272,1,160,8|0,1:0|1:0,0:0:0:0:
147,330,45167,1,0,0:0:0:0:
87,279,45345,6,0,P|65:316|36:346,2,80,0|0|0,1:0|0:0|0:0,0:0:0:0:
125,209,45881,1,0,1:0:0:0:
142,131,46060,1,0,1:0:0:0:
115,58,46238,1,0,3:0:0:0:
63,118,46417,1,0,1:0:0:0:
142,131,46595,1,4,0:3:0:0:
228,233,46774,5,8,1:0:0:0:
301,203,46952,1,2,0:0:0:0:
368,159,47131,1,0,3:0:0:0:
400,89,47310,1,0,1:0:0:0:
321,94,47488,1,2,1:3:0:0:
368,159,47667,1,2,0:0:0:0:
398,330,47845,5,4,1:2:0:0:
473,357,48024,1,8,1:2:0:0:
486,281,48202,1,0,0:0:0:0:
411,251,48381,1,8,1:2:0:0:
398,330,48560,1,2,1:2:0:0:
473,357,48738,1,0,1:0:0:0:
486,281,48917,6,0,P|479:226|459:169,1,80,8|0,1:0|0:0,0:0:0:0:
466,128,49274,2,0,P|422:94|367:67,1,80,2|0,0:0|0:0,0:0:0:0:
339,39,49631,2,0,P|284:46|227:66,1,80,4|0,1:3|0:0,0:0:0:0:
210,111,49988,6,0,B|128:101|72:180|72:180|99:85|10:23,1,320,4|0,1:0|0:0,0:0:0:0:
28,115,50881,1,0,1:0:0:0:
157,204,51060,5,8,1:0:0:0:
131,278,51238,1,2,0:0:0:0:
145,356,51417,1,0,1:0:0:0:
266,195,51595,5,8,1:0:0:0:
337,223,51774,1,8,1:3:0:0:
372,155,51952,1,0,3:0:0:0:
467,342,52131,6,0,L|377:362,1,80,4|0,1:0|0:0,0:0:0:0:
388,359,52488,1,0,1:0:0:0:
257,196,52667,2,0,L|242:289,1,80,8|0,1:0|0:0,0:0:0:0:
244,274,53024,1,0,3:0:0:0:
32,368,53202,6,0,L|-3:294,1,50,4|0,1:3|0:0,0:0:0:0:
94,311,53381,6,0,L|90:227,1,75.0000028610231,0|0,1:0|0:0,0:0:0:0:
174,267,53560,6,0,L|208:158,1,100,8|0,1:0|0:0,0:0:0:0:
273,235,53738,6,0,L|362:134,1,125,8|0,1:0|0:0,0:0:0:0:
382,254,53917,6,0,L|528:168,1,150.000005722046,4|0,1:2|0:0,0:0:0:0:
511,177,54274,5,4,0:0:0:0:
382,254,54452,1,0,0:0:0:0:
445,140,54631,1,8,0:0:0:0:
447,290,54810,1,0,2:0:0:0:
381,179,54988,1,0,0:0:0:0:
511,252,55167,1,2,0:3:0:0:
297,46,55345,6,2,P|244:52|181:103,1,129.999994049073,2|0,0:0|2:0,0:0:0:0:
126,147,55613,1,0,0:0:0:0:
63,184,55702,2,0,P|116:190|172:242,1,119.999996337891,10|0,0:0|2:0,0:0:0:0:
204,294,55970,1,0,0:0:0:0:
254,358,56060,2,0,P|272:321|304:300,1,55.0000016784668,2|0,0:0|2:0,0:0:0:0:
327,244,56238,1,8,0:0:0:0:
151,346,56417,5,2,0:0:0:0:
262,172,56595,1,0,0:0:0:0:
77,307,56774,2,0,P|53:259|37:190,1,100,8|2,0:0|0:0,0:0:0:0:
70,69,57131,1,0,0:0:0:0:
174,196,57310,1,2,0:0:0:0:
18,142,57488,1,2,0:3:0:0:
176,117,57667,5,0,0:0:0:0:
334,96,57845,1,8,0:0:0:0:
206,43,58024,1,2,0:0:0:0:
303,169,58202,1,0,0:0:0:0:
285,32,58381,1,2,0:0:0:0:
224,180,58560,1,4,0:2:0:0:
452,200,58738,6,0,L|494:168,2,50,0|2|8,0:0|2:0|0:0,0:0:0:0:
394,250,59006,1,0,0:0:0:0:
341,307,59095,2,0,P|290:324|239:348,1,100,2|0,0:0|0:0,0:0:0:0:
69,265,59452,1,0,0:0:0:0:
236,148,59631,1,2,0:0:0:0:
169,336,59810,5,0,0:0:0:0:
142,234,59988,1,8,0:0:0:0:
243,257,60167,1,2,0:0:0:0:
129,295,60345,5,0,0:0:0:0:
77,126,60524,1,0,0:0:0:0:
257,168,60702,1,2,0:0:0:0:
348,204,60881,6,0,L|414:180,2,50,2|0|8,0:3|0:0|0:0,0:0:0:0:
177,332,61238,1,0,0:0:0:0:
190,320,61327,1,0,2:0:0:0:
203,308,61417,2,0,P|152:319|102:348,1,100,2|2,0:3|0:0,0:0:0:0:
270,241,61774,6,0,P|204:214|89:220,1,150.000005722046,2|0,0:0|0:0,0:0:0:0:
359,232,62131,6,0,P|320:140|217:65,1,200,10|0,0:0|0:0,0:0:0:0:
460,266,62488,6,0,L|428:98,1,150.000005722046,2|0,0:0|0:0,0:0:0:0:
382,59,62667,1,8,0:0:0:0:
373,48,62756,1,8,0:0:0:0:
365,39,62845,1,4,0:0:0:0:
168,176,63024,5,0,0:0:0:0:
349,148,63202,1,8,0:0:0:0:
214,33,63381,1,0,0:0:0:0:
269,338,63560,5,0,0:0:0:0:
347,190,63738,1,2,3:0:0:0:
165,213,63917,2,0,L|8:238,1,129.999994049073,2|0,0:0|2:0,0:0:0:0:
0,171,64185,1,0,0:0:0:0:
55,243,64274,2,0,L|185:223,1,119.999996337891,10|0,0:0|2:0,0:0:0:0:
232,268,64542,1,0,0:0:0:0:
165,213,64631,2,0,P|166:180|179:148,1,55.0000016784668,2|0,0:0|2:0,0:0:0:0:
226,101,64810,1,0,0:0:0:0:
304,347,64988,5,2,0:0:0:0:
420,312,65167,1,0,0:0:0:0:
260,199,65345,1,8,0:0:0:0:
344,273,65524,1,2,0:0:0:0:
344,273,65613,1,2,0:3:0:0:
344,273,65702,1,0,0:0:0:0:
380,125,65881,1,0,0:0:0:0:
477,234,66060,1,2,0:0:0:0:
298,40,66238,5,2,0:3:0:0:
210,51,66417,2,0,P|153:61|81:97,1,100,8|0,0:0|0:0,0:0:0:0:
82,117,66685,1,0,0:0:0:0:
59,166,66774,2,0,P|126:181|162:214,1,100,0|2,0:0|0:3,0:0:0:0:
192,235,67042,1,0,0:0:0:0:
221,278,67131,1,6,0:0:0:0:
284,181,67310,6,0,L|326:117,2,50,10|0|0,0:0|0:0|0:0,0:0:0:0:
318,341,67667,1,2,0:0:0:0:
375,237,67845,2,0,P|420:214|482:207,1,100,0|0,0:0|0:0,0:0:0:0:
220,344,68202,1,2,0:0:0:0:
441,302,68381,5,0,0:0:0:0:
265,249,68560,1,8,0:0:0:0:
393,131,68738,1,0,0:0:0:0:
441,302,68917,1,2,0:3:0:0:
358,227,69095,1,2,3:0:0:0:
473,196,69274,5,6,0:0:0:0:
334,330,69452,1,0,0:0:0:0:
289,151,69631,1,10,0:0:0:0:
285,145,69720,2,0,P|240:111|157:102,1,129.999994049073,0|0,0:0|2:0,0:0:0:0:
110,150,69988,2,0,P|93:126|99:81,1,64.9999970245363,2|0,0:0|2:0,0:0:0:0:
241,159,70167,2,0,P|258:183|252:228,1,64.9999970245363,2|0,0:3|2:0,0:0:0:0:
162,324,70345,5,6,0:0:0:0:
358,55,70524,1,0,0:0:0:0:
358,55,70702,1,8,0:0:0:0:
97,219,70881,5,2,0:0:0:0:
425,167,71060,1,2,0:0:0:0:
425,167,71238,1,10,0:0:0:0:
124,98,71417,5,4,1:0:0:0:
256,194,71595,1,0,1:0:0:0:
389,293,71774,1,8,1:0:0:0:
232,357,71952,5,0,3:0:0:0:
256,194,72131,1,0,1:0:0:0:
280,27,72310,1,0,3:0:0:0:
403,135,72488,5,2,1:0:0:0:
256,194,72667,1,0,0:0:0:0:
269,110,72845,1,10,1:0:0:0:
335,162,73024,5,0,3:0:0:0:
256,194,73202,1,2,1:0:0:0:
181,232,73381,1,0,3:0:0:0:
181,232,73470,1,0,0:0:0:0:
181,232,73560,1,2,1:0:0:0:
442,324,73917,5,8,0:0:0:0:
479,256,74095,1,2,1:0:0:0:
70,60,74452,1,8,0:0:0:0:
33,128,74631,1,0,1:0:0:0:
218,307,74810,6,0,L|254:299,1,25,12|0,1:0|0:0,0:0:0:0:
268,296,74988,1,8,1:0:0:0:
162,196,75167,1,0,0:0:0:0:
265,93,75345,1,4,1:3:0:0:
371,193,75524,1,8,1:0:0:0:
360,200,75613,1,8,1:0:0:0:
348,206,75702,1,4,1:1:0:0:
256,191,75881,5,0,1:0:0:0:
256,191,76060,1,8,1:0:0:0:
171,83,76238,2,0,P|120:93|62:100,1,100,0|0,0:0|1:0,0:0:0:0:
341,301,76774,5,2,1:0:0:0:
373,178,76952,1,2,3:0:0:0:
455,230,77131,1,8,1:0:0:0:
427,94,77310,1,6,1:0:0:0:
498,156,77488,1,0,3:0:0:0:
508,139,77667,1,0,1:0:0:0:
302,121,77845,6,0,L|193:138,1,100,6|0,1:0|0:0,0:0:0:0:
88,350,78202,2,0,L|94:281,1,50,8|0,1:0|0:0,0:0:0:0:
62,224,78381,5,6,1:0:0:0:
62,224,78470,2,0,P|128:269|219:254,1,150.000005722046,0|0,0:0|0:0,0:0:0:0:
248,212,78738,2,0,P|271:247|262:297,1,75.0000028610231,0|0,1:0|0:0,0:0:0:0:
240,345,78917,6,0,P|275:302|365:302,1,150,8|0,1:0|0:0,0:0:0:0:
417,352,79095,2,0,P|436:322|425:268,1,75,4|0,1:3|0:0,0:0:0:0:
353,218,79274,6,0,L|326:51,1,150,8|0,1:3|0:0,0:0:0:0:
338,80,79452,2,0,L|354:171,1,75,2|0,1:0|0:0,0:0:0:0:
173,229,79631,6,0,L|58:174,1,112.500004291535,10|0,1:0|0:0,0:0:0:0:
77,163,79810,6,0,L|192:221,1,112.500004291535,2|0,1:3|0:0,0:0:0:0:
418,345,79988,6,0,P|372:255|160:65,3,359.999989013672,4|4|0|0,1:0|0:2|1:0|3:0,0:0:0:0:
119,76,88547,6,0,P|166:98|235:125,1,120,4|0,1:2|1:0,0:0:0:0:
294,85,89278,1,0,0:0:0:0:
303,160,89461,1,0,0:0:0:0:
34,327,89644,6,0,L|26:296,1,20,8|0,1:0|0:0,0:0:0:0:
29,307,90193,2,0,L|36:358,2,40,0|2|0,1:0|0:0|0:0,0:0:0:0:
71,246,90724,2,0,P|58:192|39:114,2,120,0|0|8,1:0|1:0|1:0,0:0:0:0:
126,300,91959,1,2,1:2:0:0:
164,235,92135,1,0,0:0:0:0:
282,338,92313,1,0,1:0:0:0:
272,332,92492,1,2,0:0:0:0:
413,234,92670,1,2,0:0:0:0:
447,335,92849,6,0,P|457:304|463:284,1,40,0|0,1:0|0:2,0:0:0:0:
493,230,93206,2,0,P|503:199|509:179,1,40,2|0,0:0|0:0,0:0:0:0:
488,121,93563,1,0,1:0:0:0:
415,137,93743,1,2,0:0:0:0:
185,57,93924,6,0,L|189:84,1,20,8|0,1:0|0:0,0:0:0:0:
195,154,94105,1,0,0:0:0:0:
195,154,94285,1,0,0:0:0:0:
203,226,94466,2,0,L|212:278,2,40,0|0|2,1:0|0:0|0:0,0:0:0:0:
29,131,95008,6,0,P|41:75|45:50,1,80,0|2,1:0|0:0,0:0:0:0:
168,32,95537,1,0,1:0:0:0:
45,53,95713,2,0,P|38:83|31:104,1,40,0|2,0:0|1:2,0:0:0:0:
370,175,96066,6,0,L|378:146,1,20,8|0,1:0|0:0,0:0:0:0:
63,292,96597,6,0,L|68:311,1,20,2|0,1:3|0:0,0:0:0:0:
356,261,97133,6,0,P|401:224|381:100,1,160,0|0,1:0|0:0,0:0:0:0:
329,123,97669,1,0,1:0:0:0:
256,19,97847,2,0,L|355:39,1,80,2|0,0:0|0:0,0:0:0:0:
146,219,98199,6,0,L|86:205,1,40,8|0,1:0|0:0,0:0:0:0:
32,192,98729,1,4,1:3:0:0:
107,209,98905,2,0,L|210:232,1,80,2|0,0:0|0:0,0:0:0:0:
245,180,99258,6,0,P|316:167|353:18,1,240,0|8,1:0|1:3,0:0:0:0:
355,22,99972,1,0,0:0:0:0:
355,22,100150,1,0,0:0:0:0:
356,99,100329,2,0,P|366:145|391:197,1,80,8|0,1:0|0:0,0:0:0:0:
372,250,100686,1,2,0:0:0:0:
111,267,100868,2,0,P|101:313|91:332,1,40,8|0,1:0|0:0,0:0:0:0:
8,383,101051,5,0,1:0:0:0:
8,383,101143,1,0,1:0:0:0:
8,383,101234,1,0,1:0:0:0:
8,383,101326,1,0,1:0:0:0:
71,347,101417,6,0,P|118:359|153:373,1,80,0|2,1:0|0:0,0:0:0:0:
215,328,101774,1,2,0:0:0:0:
283,287,101952,2,0,P|330:299|365:313,2,80,0|2|0,1:0|0:0|0:0,0:0:0:0:
127,117,102489,6,0,P|85:116|65:118,1,40,8|0,1:0|0:0,0:0:0:0:
16,140,102669,1,0,0:0:0:0:
16,140,102850,1,2,0:0:0:0:
185,60,103031,2,0,P|228:71|275:92,2,80,0|2|0,1:0|0:0|0:0,0:0:0:0:
0,224,103573,5,4,1:2:0:0:
0,224,103754,1,0,0:0:0:0:
50,279,103936,1,2,0:0:0:0:
206,190,104118,1,0,1:0:0:0:
201,207,104300,1,0,0:0:0:0:
440,263,104482,1,0,1:0:0:0:
385,333,104663,5,8,1:0:0:0:
333,231,104833,1,0,1:0:0:0:
415,151,105003,1,8,1:3:0:0:
512,212,105174,1,0,1:0:0:0:
496,316,105344,1,8,1:3:0:0:
482,323,105515,1,8,0:3:0:0:
251,159,105684,6,2,L|123:190,1,120,4|0,0:0|0:0,0:0:0:0:
63,207,106411,1,0,0:0:0:0:
56,210,106593,1,0,1:0:0:0:
200,167,106774,2,0,L|250:157,1,40,0|0,3:0|0:0,0:0:0:0:
314,141,107138,1,0,1:0:0:0:
94,194,107312,2,0,L|144:184,1,40,8|0,0:1|0:0,0:0:0:0:
25,213,107661,1,0,0:0:0:0:
385,119,107835,2,0,L|435:109,1,40,2|0,1:3|0:0,0:0:0:0:
204,88,108196,6,0,B|163:50|83:40|83:40|118:86|92:136,1,200,0|0,1:0|1:0,0:0:0:0:
312,285,108914,6,0,B|365:354|481:359|481:359|446:313|486:235,2,300.000011444092,8|0|0,1:0|1:0|1:0,0:0:0:0:
308,88,109985,6,2,B|349:50|429:40|429:40|394:86|420:136,1,200,4|0,1:0|0:0,0:0:0:0:
255,193,110521,1,0,1:0:0:0:
204,296,110699,2,0,B|163:334|83:344|83:344|118:298|92:248,2,200,2|0|2,0:0|3:0|1:3,0:0:0:0:
468,198,111235,5,2,3:0:0:0:
44,198,111414,5,4,0:0:0:0:
78,127,111766,2,0,P|117:132|145:193,1,100,0|0,1:0|3:0,0:0:0:0:
140,255,112119,6,0,L|404:211,1,250,4|0,1:2|1:0,0:0:0:0:
360,244,112649,6,0,L|143:209,1,200,12|0,1:0|0:0,0:0:0:0:
190,135,113186,5,0,1:0:0:0:
243,33,113457,1,0,0:0:0:0:
260,90,113547,2,0,L|277:219,1,100,4|0,0:3|0:0,0:0:0:0:
354,317,113818,1,8,0:3:0:0:
354,317,113909,1,8,0:3:0:0:
282,284,114029,5,8,0:3:0:0:
244,343,114150,5,8,0:3:0:0:
270,373,114270,5,4,1:0:0:0:
284,297,114448,1,0,0:0:0:0:
214,264,114627,2,0,P|159:281|130:361,1,100,2|0,0:0|0:0,0:0:0:0:
91,373,114984,2,0,P|36:373|-14:328,1,100,0|8,1:0|0:3,0:0:0:0:
5,273,115341,1,2,0:0:0:0:
21,197,115520,1,8,1:0:0:0:
85,240,115698,1,0,1:0:0:0:
17,279,115877,1,4,0:3:0:0:
11,270,115966,1,0,0:0:0:0:
2,285,116055,2,0,P|21:267|48:246,1,50,8|0,0:3|0:0,0:0:0:0:
65,182,116234,2,0,P|90:175|124:171,1,50,0|0,1:0|0:0,0:0:0:0:
246,185,116412,6,0,P|321:224|552:268,1,300.000011444092,4|0,1:0|1:0,0:0:0:0:
511,248,116859,1,0,0:0:0:0:
488,269,116948,2,0,P|492:302|500:342,1,75.0000028610231,2|0,1:3|0:0,0:0:0:0:
235,368,117127,6,0,B|134:353|144:267|220:240|294:303,1,225.000008583069,0|0,1:0|0:0,0:0:0:0:
255,282,117484,2,0,B|356:297|346:383|270:410|196:347,1,225.000008583069,0|0,1:0|0:0,0:0:0:0:
182,304,117841,5,0,3:0:0:0:
181,229,118020,1,0,1:0:0:0:
180,127,118198,1,8,0:2:0:0:
172,11,118377,1,8,1:2:0:0:
241,373,118555,6,0,B|134:353|144:267|220:240|294:303,1,240,4|0,1:0|1:0,0:0:0:0:
337,340,119277,1,0,1:0:0:0:
413,325,119458,1,0,3:0:0:0:
231,53,119639,2,0,B|168:47|131:16|131:16|3:23|-2:162|54:95,2,300.000011444092,8|0|2,1:0|3:0|1:3,0:0:0:0:
482,196,120714,6,0,L|497:283,1,80,4|0,1:2|1:0,0:0:0:0:
420,273,121420,1,0,1:0:0:0:
381,210,121598,1,2,0:0:0:0:
261,183,121776,5,8,1:3:0:0:
256,181,121865,1,0,0:0:0:0:
251,180,121954,1,0,3:0:0:0:
247,182,122043,1,0,3:0:0:0:
244,185,122132,1,8,0:3:0:0:
243,190,122221,1,0,0:0:0:0:
244,195,122310,1,4,1:3:0:0:
247,199,122399,1,0,3:0:0:0:
252,200,122488,1,0,3:0:0:0:
256,200,122577,1,0,0:0:0:0:
260,196,122666,1,0,1:0:0:0:
262,192,122755,1,0,1:0:0:0:
279,155,122844,5,0,1:0:0:0:
296,172,122933,1,0,0:0:0:0:
301,196,123022,1,0,1:0:0:0:
294,220,123111,1,2,3:0:0:0:
275,236,123200,1,0,1:0:0:0:
251,240,123289,1,0,0:0:0:0:
228,231,123378,1,0,1:0:0:0:
213,211,123467,1,2,3:0:0:0:
210,187,123556,1,0,1:0:0:0:
220,165,123645,1,0,0:0:0:0:
241,151,123734,1,0,3:0:0:0:
265,149,123823,1,2,3:0:0:0:
254,190,123912,5,0,1:0:0:0:
261,196,124001,5,0,0:0:0:0:
274,205,124090,5,0,1:0:0:0:
294,214,124179,5,0,1:0:0:0:
324,223,124268,5,0,1:0:0:0:
364,226,124357,5,0,1:0:0:0:
411,216,124446,5,8,1:0:0:0:
453,179,124535,5,8,1:0:0:0:
475,111,124624,5,8,1:0:0:0:
433,40,124713,5,8,1:0:0:0:
348,13,124802,5,8,1:0:0:0:
252,38,124891,5,8,1:0:0:0:
204,129,124980,6,0,P|241:110|312:117,1,100,4|0,1:0|2:0,0:0:0:0:
252,38,125158,6,0,P|296:68|301:93,1,75.0000028610231,0|0,1:0|2:0,0:0:0:0:
348,13,125337,6,0,P|349:43|320:80,1,62.5,8|0,1:0|2:0,0:0:0:0:
433,40,125515,6,0,P|406:63|370:69,1,50,0|0,0:0|2:0,0:0:0:0:
475,111,125694,6,0,P|448:115|427:108,1,37.5000014305115,2|0,0:1|2:0,0:0:0:0:
453,179,125872,6,0,P|440:177|425:163,1,25,2|0,0:0|2:0,0:0:0:0:
416,273,126051,5,2,0:1:0:0:
406,277,126140,2,0,P|329:304|252:321,1,150.000005722046,0|0,0:0|2:0,0:0:0:0:
196,355,126408,6,0,P|156:339|112:317,1,75.0000028610231,8|0,0:0|2:0,0:0:0:0:
118,249,126765,6,0,P|81:260|55:300,1,75.0000028610231,2|0,0:1|2:0,0:0:0:0:
174,192,126944,6,0,P|142:172|101:168,1,62.5,0|0,0:0|2:0,0:0:0:0:
258,224,127122,6,0,L|303:58,2,150.000005722046,2|0|8,0:1|0:0|1:0,0:0:0:0:
214,342,127569,2,0,P|197:309|179:175,1,150.000005722046,0|0,0:0|2:0,0:0:0:0:
296,285,127837,6,0,P|313:318|319:375,1,75.0000028610231,0|0,0:0|2:0,0:0:0:0:
165,117,128015,2,0,P|148:84|142:27,1,75.0000028610231,8|0,0:0|2:0,0:0:0:0:
227,56,128194,6,0,L|475:95,1,225.000008583069,6|0,0:0|2:0,0:0:0:0:
463,97,128551,6,0,P|417:107|371:170,1,100,8|0,1:0|2:0,0:0:0:0:
456,176,128730,6,0,P|435:209|433:254,1,59.9999981689454,2|0,0:0|2:0,0:0:0:0:
399,300,128908,6,0,P|364:331|301:329,1,89.9999972534181,2|0,0:3|2:0,0:0:0:0:
328,260,129087,6,0,P|288:223|212:238,1,125,8|0,0:0|2:0,0:0:0:0:
155,264,129265,6,0,P|116:260|86:223,2,75.0000028610231,4|0|0,1:0|0:0|0:0,0:0:0:0:
221,322,129622,1,8,1:0:0:0:
30,165,129801,5,2,0:3:0:0:
30,165,129890,1,0,0:0:0:0:
90,119,129980,2,0,P|128:71|225:76,1,150.000005722046,2|0,0:1|0:0,0:0:0:0:
431,305,130337,1,2,0:1:0:0:
190,221,130515,6,0,P|161:243|121:283,1,59.9999981689454,0|0,0:0|2:0,0:0:0:0:
263,266,130694,6,0,P|274:300|303:353,1,69.9999978637696,8|0,1:0|2:0,0:0:0:0:
326,203,130872,6,0,P|362:202|428:189,1,80,2|0,1:0|2:0,0:0:0:0:
293,130,131051,6,0,P|303:95|308:18,1,89.9999972534181,0|0,0:0|2:0,0:0:0:0:
213,142,131230,6,0,P|183:121|124:95,1,100,2|0,0:0|2:0,0:0:0:0:
46,108,131408,5,4,0:0:0:0:
215,268,131587,1,8,0:0:0:0:
139,294,131676,1,8,0:0:0:0:
139,294,131765,2,0,B|59:304|15:242|15:242|56:241|91:182,1,225.000008583069,8|0,1:0|2:0,0:0:0:0:
156,219,132122,6,0,P|175:185|167:134,1,75.0000028610231,0|0,0:0|2:0,0:0:0:0:
252,73,132301,2,0,P|256:120|272:151,1,75.0000028610231,8|0,0:0|2:0,0:0:0:0:
339,377,132480,5,2,0:1:0:0:
408,345,132569,2,0,B|421:321|421:321|374:278|351:192,1,150.000005722046,0|0,0:0|2:0,0:0:0:0:
457,54,132837,6,0,P|429:93|381:90,1,75.0000028610231,10|0,0:1|2:0,0:0:0:0:
338,144,133015,6,0,P|283:139|222:92,1,100,0|0,0:0|2:0,0:0:0:0:
185,178,133194,6,0,P|118:137|92:74,1,125,0|0,1:0|2:0,0:0:0:0:
23,72,133372,5,4,1:3:0:0:
44,178,133462,1,0,0:0:0:0:
63,283,133551,1,4,1:2:0:0:
271,360,133730,6,0,P|281:333|312:286,1,50,0|0,0:0|2:0,0:0:0:0:
241,305,133908,6,0,P|223:253|192:210,1,59.9999981689454,8|0,1:0|2:0,0:0:0:0:
304,241,134087,6,0,P|326:176|344:134,1,75.0000028610231,2|0,0:1|2:0,0:0:0:0:
234,172,134265,6,0,P|212:127|163:51,1,89.9999972534181,2|0,0:1|2:0,0:0:0:0:
287,98,134444,6,0,P|334:47|383:14,1,100,0|0,0:0|2:0,0:0:0:0:
494,129,134622,5,2,0:1:0:0:
479,138,134712,1,0,0:0:0:0:
457,296,134890,1,8,0:0:0:0:
448,284,134980,1,10,0:0:0:0:
310,340,135158,1,8,0:0:0:0:
313,326,135247,1,8,0:0:0:0:
317,310,135337,1,10,0:0:0:0:
197,227,135515,1,2,0:3:0:0:
28,70,135694,6,0,P|59:47|128:51,1,100,2|0,1:0|2:0,0:0:0:0:
145,164,135872,2,0,P|114:187|45:183,1,100,0|0,0:0|2:0,0:0:0:0:
88,117,136051,5,8,0:0:0:0:
97,118,136140,2,0,L|248:132,1,150.000005722046,0|0,0:0|2:0,0:0:0:0:
310,173,136408,2,0,P|322:133|303:80,1,75.0000028610231,0|0,0:0|2:0,0:0:0:0:
235,278,136587,1,2,0:3:0:0:
235,278,136676,2,0,L|150:288,2,75.0000028610231,8|0|0,0:0|0:0|0:0,0:0:0:0:
301,321,136944,5,2,0:1:0:0:
366,276,137033,1,0,0:0:0:0:
366,276,137122,2,0,P|457:273|501:217,1,150.000005722046,8|2,0:0|0:1,0:0:0:0:
414,205,137390,1,0,0:0:0:0:
464,138,137480,2,0,P|373:141|329:197,1,150.000005722046,0|8,0:0|1:0,0:0:0:0:
147,179,137837,6,0,P|96:163|59:121,1,75.0000028610231,4|0,0:1|2:0,0:0:0:0:
142,105,138194,6,0,P|177:92|203:46,1,75.0000028610231,8|0,1:0|2:0,0:0:0:0:
212,135,138372,2,0,P|253:153|296:145,1,75.0000028610231,4|0,0:2|2:0,0:0:0:0:
361,125,138551,5,0,0:0:0:0:
361,125,138640,2,0,P|320:210|328:272,1,150.000005722046,0|0,0:0|2:0,0:0:0:0:
370,329,138908,2,0,P|397:300|403:259,1,75.0000028610231,0|0,1:0|2:0,0:0:0:0:
181,345,139087,5,2,0:0:0:0:
108,336,139176,1,0,0:0:0:0:
79,268,139265,2,0,P|73:187|151:46,1,225.000008583069,8|0,1:0|2:0,0:0:0:0:
163,143,139622,6,0,P|210:115|301:110,1,100,8|0,0:3|2:0,0:0:0:0:
315,49,139801,6,0,P|357:63|394:104,1,75.0000028610231,4|0,0:3|2:0,0:0:0:0:
306,251,139980,6,0,P|336:215|316:134,1,125,4|0,0:0|2:0,0:0:0:0:
231,331,140158,5,0,0:0:0:0:
313,356,140247,1,0,0:0:0:0:
231,331,140337,2,0,B|200:303|200:303|192:252|220:184,1,150.000005722046,8|0,1:0|2:0,0:0:0:0:
59,194,140515,5,0,0:0:0:0:
59,194,140605,2,0,B|78:145|61:101|61:101|70:134|110:155,1,150.000005722046,0|2,0:0|2:1,0:0:0:0:
172,70,140783,5,0,0:0:0:0:
172,70,140872,2,0,L|289:48,1,100,8|0,0:0|2:0,0:0:0:0:
424,144,141051,6,0,P|471:155|479:102,1,112.500004291535,2|0,0:1|2:0,0:0:0:0:
470,86,141408,6,0,L|423:81,1,37.5,8|0,1:3|2:0,0:0:0:0:
348,72,141587,6,0,L|281:63,1,56.2500021457673,2|0,1:0|2:0,0:0:0:0:
215,60,141765,6,0,L|233:146,1,75,8|0,1:0|2:0,0:0:0:0:
119,65,141944,6,0,L|144:197,1,112.500004291535,8|0,1:0|2:0,0:0:0:0:
29,69,142122,6,0,L|65:269,1,200,4|0,1:0|2:0,0:0:0:0:
82,346,142301,1,0,0:0:0:0:
7,318,142480,1,10,0:0:0:0:
150,289,142658,5,8,0:0:0:0:
159,291,142747,1,8,1:0:0:0:
168,293,142837,1,0,0:0:0:0:
446,342,143015,1,2,3:0:0:0:
244,358,143194,6,0,L|287:351,1,37.5000014305115,0|0,0:0|2:0,0:0:0:0:
301,348,143372,2,0,L|344:341,1,37.5000014305115,0|0,0:0|2:0,0:0:0:0:
219,150,143551,1,10,0:0:0:0:
326,251,143730,5,8,0:0:0:0:
326,251,143819,1,8,0:0:0:0:
326,251,143908,2,0,L|347:201,1,37.5000014305115,0|0,0:0|2:0,0:0:0:0:
371,148,144087,1,2,3:0:0:0:
371,148,144176,1,8,0:0:0:0:
371,148,144265,2,0,L|393:88,1,37.5000014305115,0|0,0:0|2:0,0:0:0:0:
419,47,144444,5,0,0:0:0:0:
294,321,144622,1,10,0:0:0:0:
71,328,144801,5,8,0:0:0:0:
71,328,144890,1,8,0:0:0:0:
71,328,144980,2,0,B|112:324|142:283|142:283|112:325|110:377,1,179.999994506836,0|2,0:0|3:0,0:0:0:0:
100,91,145337,5,4,0:2:0:0:
256,124,145515,1,0,0:0:0:0:
423,162,145694,1,8,0:0:0:0:
458,55,145872,5,8,0:0:0:0:
458,55,145962,1,8,0:0:0:0:
458,55,146051,1,2,0:0:0:0:
72,191,146230,1,2,0:3:0:0:
181,39,146408,5,6,0:0:0:0:
256,56,146587,1,0,0:0:0:0:
335,72,146765,1,8,0:0:0:0:
282,127,146944,5,2,0:0:0:0:
145,158,147122,1,0,0:0:0:0:
9,185,147301,1,2,0:0:0:0:
84,210,147480,5,2,0:0:0:0:
268,219,147658,1,0,0:0:0:0:
452,228,147837,1,8,0:0:0:0:
386,274,148015,5,8,0:0:0:0:
382,265,148105,1,8,0:0:0:0:
378,256,148194,1,0,0:0:0:0:
187,290,148372,1,2,0:3:0:0:
200,43,148551,5,0,0:0:0:0:
327,68,148730,1,0,0:0:0:0:
283,145,148908,5,10,0:0:0:0:
173,181,149087,1,0,0:0:0:0:
235,249,149265,5,0,0:0:0:0:
359,284,149444,1,0,0:0:0:0:
248,334,149622,5,4,1:3:0:0:
404,174,149801,1,4,0:3:0:0:
179,99,149980,1,8,0:0:0:0:
30,146,150247,5,8,1:0:0:0:
105,123,150337,1,8,0:0:0:0:
179,99,150426,1,8,0:0:0:0:
250,76,150515,1,8,0:0:0:0:
321,52,150605,1,8,0:0:0:0:
394,28,150694,1,6,0:0:0:0:
467,196,150872,6,0,L|448:281,1,75.0000028610231,0|0,0:0|2:0,0:0:0:0:
392,185,151051,2,0,L|372:270,1,75.0000028610231,8|0,0:0|2:0,0:0:0:0:
371,278,151230,1,0,0:0:0:0:
212,340,151408,6,0,L|126:354,1,75.0000028610231,0|0,0:0|2:0,0:0:0:0:
200,267,151587,2,0,L|114:281,1,75.0000028610231,2|0,0:3|2:0,0:0:0:0:
36,296,151765,5,2,0:0:0:0:
67,121,151944,2,0,L|89:31,1,75.0000028610231,0|0,0:0|2:0,0:0:0:0:
142,139,152122,2,0,L|164:49,1,75.0000028610231,8|0,0:0|2:0,0:0:0:0:
165,52,152301,1,2,0:0:0:0:
224,170,152480,6,0,L|284:149,1,50,0|0,0:0|2:0,0:0:0:0:
245,238,152658,2,0,L|305:217,1,50,2|0,3:0|2:0,0:0:0:0:
351,115,152837,6,0,L|379:14,1,75.0000028610231,6|0,0:0|2:0,0:0:0:0:
406,174,153015,2,0,L|467:111,1,75.0000028610231,0|0,0:0|2:0,0:0:0:0:
420,253,153194,2,0,L|498:221,1,75.0000028610231,10|0,0:0|2:0,0:0:0:0:
390,332,153372,1,2,0:0:0:0:
164,265,153551,6,0,L|86:286,1,50,0|0,2:0|2:0,0:0:0:0:
144,196,153730,2,0,L|72:216,1,50,2|0,0:0|2:0,0:0:0:0:
327,159,153908,5,4,1:2:0:0:
270,243,154087,1,8,0:0:0:0:
267,252,154176,1,8,0:0:0:0:
264,261,154265,2,0,L|232:135,1,100,10|2,0:0|2:0,0:0:0:0:
280,332,154533,1,0,0:0:0:0:
182,268,154622,2,0,L|214:394,1,100,2|8,0:0|0:0,0:0:0:0:
208,43,154980,5,4,0:0:0:0:
322,77,155158,1,0,0:0:0:0:
239,164,155337,1,8,0:0:0:0:
248,91,155515,1,8,0:0:0:0:
254,98,155605,1,8,0:0:0:0:
260,105,155694,1,2,0:0:0:0:
319,153,155872,1,2,0:0:0:0:
405,51,156051,6,0,P|424:181|468:359,1,300.000011444092,6|8,1:0|0:0,0:0:0:0:
281,359,156587,6,0,P|264:261|231:142,1,200,2|8,0:0|0:0,0:0:0:0:
87,59,157122,6,0,P|104:65|123:67,1,25,2|0,0:0|2:0,0:0:0:0:
119,194,157301,2,0,P|136:200|155:202,1,25,2|0,0:0|2:0,0:0:0:0:
256,93,157480,2,0,P|273:99|292:101,1,25,2|0,0:0|2:0,0:0:0:0:
379,83,157658,5,12,0:0:0:0:
379,83,157747,1,8,0:0:0:0:
379,83,157837,2,0,P|412:101|427:105,1,37.5000014305115,0|0,0:0|2:0,0:0:0:0:
301,248,158015,2,0,P|321:280|333:294,1,37.5000014305115,2|0,0:0|2:0,0:0:0:0:
460,354,158194,5,2,0:0:0:0:
450,298,158283,1,8,0:3:0:0:
421,249,158372,1,0,0:0:0:0:
383,207,158462,1,8,0:3:0:0:
336,175,158551,1,4,0:3:0:0:
52,30,158730,5,8,0:3:0:0:
62,86,158819,1,8,0:3:0:0:
91,135,158908,1,4,0:3:0:0:
129,177,158997,1,4,0:3:0:0:
176,209,159087,1,4,0:3:0:0:
466,43,159265,5,4,1:0:0:0:
306,349,159444,5,0,1:0:0:0:
391,80,159622,5,12,0:0:0:0:
298,71,159801,1,0,0:0:0:0:
211,36,159980,1,0,0:0:0:0:
126,49,160158,1,8,0:3:0:0:
74,334,160337,5,4,0:3:0:0:
156,314,160515,1,8,0:3:0:0:
98,252,160694,1,8,0:0:0:0:
14,271,160872,1,0,3:0:0:0:
40,182,161051,1,2,0:3:0:0:
124,168,161230,1,8,0:0:0:0:
130,172,161319,1,8,0:0:0:0:
136,176,161408,1,0,0:0:0:0:
470,143,161587,5,4,0:3:0:0:
201,242,161765,5,8,0:3:0:0:
489,228,161944,5,8,0:0:0:0:
210,332,162122,5,4,0:3:0:0:
483,309,162301,5,8,0:3:0:0:
404,346,162480,1,8,0:0:0:0:
323,93,162658,6,0,P|338:56|368:36,2,50,0|0|8,0:0|0:0|0:3,0:0:0:0:
307,306,163015,1,8,0:0:0:0:
45,53,163194,5,8,0:0:0:0:
114,82,163283,1,8,0:0:0:0:
169,131,163372,1,8,0:0:0:0:
206,195,163462,1,8,0:0:0:0:
226,267,163551,1,4,0:0:0:0:
163,341,163730,1,0,0:0:0:0:
71,335,163908,1,8,0:0:0:0:
71,335,164087,1,4,0:3:0:0:
333,175,164206,5,0,0:0:0:0:
333,175,164265,2,0,P|398:184|450:200,1,100,2|0,0:3|0:0,0:0:0:0:
357,266,164622,5,4,0:2:0:0:
142,333,164801,1,2,0:2:0:0:
185,115,164980,1,4,0:3:0:0:
51,131,165158,5,4,0:0:0:0:
471,241,165426,1,2,0:3:0:0:
471,241,165515,1,0,0:0:0:0:
107,238,165694,5,8,0:0:0:0:
226,101,165872,1,0,0:0:0:0:
417,168,166051,1,4,0:3:0:0:
76,147,166230,5,4,0:0:0:0:
251,134,166408,1,0,0:0:0:0:
354,252,166587,1,0,0:0:0:0:
102,154,166765,5,4,0:2:0:0:
121,268,166944,1,4,0:3:0:0:
404,345,167122,5,8,0:0:0:0:
404,345,167212,1,8,0:0:0:0:
426,50,167390,5,8,0:0:0:0:
426,50,167480,1,0,1:0:0:0:
253,139,167658,5,8,1:0:0:0:
250,196,167747,1,8,1:0:0:0:
242,252,167837,1,4,1:0:0:0:
346,212,168015,1,0,1:0:0:0:
259,115,168194,1,8,1:0:0:0:
239,274,168372,1,2,1:0:0:0:
263,143,168551,5,0,0:0:0:0:
251,251,168730,1,4,1:3:0:0:
169,193,168908,1,2,1:0:0:0:
308,307,169087,1,0,0:0:0:0:
335,120,169265,1,2,0:1:0:0:
276,193,169444,6,0,P|179:215|24:265,1,225.000008583069,6|0,1:0|2:0,0:0:0:0:
55,328,169801,2,0,P|88:331|128:299,1,75.0000028610231,0|0,0:0|2:0,0:0:0:0:
205,106,169979,5,8,1:0:0:0:
181,107,170069,1,8,0:0:0:0:
160,116,170158,1,8,0:0:0:0:
147,129,170247,1,8,0:0:0:0:
139,148,170337,1,4,0:0:0:0:
274,313,170515,5,4,0:0:0:0:
303,316,170604,1,0,0:0:0:0:
328,331,170694,5,4,0:3:0:0:
307,290,170783,1,4,0:3:0:0:
269,265,170872,1,8,0:3:0:0:
224,264,170962,1,8,0:3:0:0:
181,278,171051,5,4,0:3:0:0:
223,236,171140,1,10,0:0:0:0:
279,216,171229,1,8,0:0:0:0:
338,212,171319,2,0,L|350:177,1,37.5000014305115,2|0,0:0|2:0,0:0:0:0:
386,242,171408,5,4,0:3:0:0:
315,217,171497,5,10,0:0:0:0:
246,187,171587,5,8,0:0:0:0:
170,186,171676,5,8,0:0:0:0:
229,140,171765,5,10,0:0:0:0:
301,120,171854,5,8,0:0:0:0:
375,111,171944,5,10,0:0:0:0:
314,65,172033,5,8,0:0:0:0:
241,44,172122,6,0,P|108:83|15:133,1,225.000008583069,4|0,0:0|2:0,0:0:0:0:
2,196,172479,5,8,0:0:0:0:
162,107,172658,1,0,0:0:0:0:
148,264,172837,1,4,0:3:0:0:
148,264,173015,1,2,0:3:0:0:
107,338,173194,5,4,0:3:0:0:
297,359,173372,1,8,0:3:0:0:
234,207,173551,1,8,0:0:0:0:
234,207,173729,1,4,0:2:0:0:
219,305,173908,5,8,1:3:0:0:
250,113,174087,1,8,0:0:0:0:
99,205,174265,2,0,P|87:142|56:36,1,150.000005722046,4|0,0:0|0:0,0:0:0:0:
18,314,174622,5,8,0:0:0:0:
205,203,174801,1,4,0:2:0:0:
6,161,174979,1,0,0:0:0:0:
378,244,175341,5,4,0:3:0:0:
369,246,175431,1,4,0:3:0:0:
315,194,175522,5,8,0:3:0:0:
306,196,175612,1,8,0:3:0:0:
299,292,175702,5,8,1:0:0:0:
290,294,175793,1,8,1:0:0:0:
222,202,175883,5,8,1:0:0:0:
213,204,175973,1,8,1:0:0:0:
222,339,176064,5,8,0:0:0:0:
213,341,176154,1,8,0:0:0:0:
131,211,176245,5,8,0:0:0:0:
122,213,176335,1,8,0:0:0:0:
132,372,176425,6,0,L|64:346,1,50,4|0,0:0|2:0,0:0:0:0:
76,90,176603,2,0,L|164:127,1,59.9999981689454,0|0,0:0|2:0,0:0:0:0:
290,294,176782,2,0,L|389:334,1,69.9999978637696,8|0,0:0|2:0,0:0:0:0:
461,163,176960,2,0,L|416:35,1,80,0|0,0:0|2:0,0:0:0:0:
257,146,177139,2,0,L|218:251,1,89.9999972534181,0|0,0:0|2:0,0:0:0:0:
6,324,177317,2,0,L|44:217,1,100,2|0,0:3|2:0,0:0:0:0:
415,273,177496,6,0,P|262:304|112:354,1,300,2|0,0:0|2:0,0:0:0:0:
111,270,177853,2,0,P|176:250|286:213,1,150,10|0,0:0|2:0,0:0:0:0:
235,149,178210,2,0,P|177:168|107:186,1,112.500004291535,2|0,0:0|2:0,0:0:0:0:
52,205,178567,5,2,0:0:0:0:
444,151,178746,1,0,0:0:0:0:
507,194,178925,5,8,0:0:0:0:
439,231,179103,1,2,0:0:0:0:
372,190,179282,1,0,0:0:0:0:
377,111,179460,1,2,0:0:0:0:
447,75,179639,1,0,0:0:0:0:
444,151,179817,5,0,0:0:0:0:
100,272,179996,1,8,0:0:0:0:
176,243,180175,1,2,3:0:0:0:
221,174,180353,1,2,0:0:0:0:
219,92,180532,1,2,3:0:0:0:
274,373,180710,1,2,0:0:0:0:
192,343,180889,5,0,0:0:0:0:
259,291,181067,1,8,0:0:0:0:
343,280,181246,1,6,0:0:0:0:
425,308,181425,1,4,0:3:0:0:
499,365,181603,1,0,0:0:0:0:
437,46,181782,1,6,0:0:0:0:
475,128,181960,5,2,3:0:0:0:
360,89,182139,1,8,0:0:0:0:
252,83,182315,1,2,0:0:0:0:
150,111,182491,1,0,0:0:0:0:
60,167,182668,1,0,0:0:0:0:
111,174,182756,1,8,0:0:0:0:
156,202,182844,1,4,0:0:0:0:
360,337,183021,5,0,0:0:0:0:
448,324,183197,5,10,0:0:0:0:
249,282,183374,1,0,0:0:0:0:
479,240,183550,5,0,0:0:0:0:
473,134,183728,1,2,3:0:0:0:
134,60,183907,6,0,L|145:138,1,75.0000028610231,6|0,0:0|0:0,0:0:0:0:
410,263,184264,1,8,0:0:0:0:
39,223,184442,5,8,0:0:0:0:
202,198,184621,1,2,0:0:0:0:
364,172,184800,5,8,0:0:0:0:
283,184,184889,1,8,0:0:0:0:
202,198,184978,1,4,0:0:0:0:
459,80,185157,5,0,0:0:0:0:
482,353,185335,1,8,0:0:0:0:
382,345,185514,1,2,3:0:0:0:
351,49,185692,1,0,0:0:0:0:
385,260,185871,1,0,0:0:0:0:
320,201,186050,6,0,P|178:175|8:155,1,300,2|0,0:0|2:0,0:0:0:0:
52,231,186407,2,0,P|131:212|207:170,1,150,10|0,0:0|2:0,0:0:0:0:
246,125,186764,1,2,0:0:0:0:
174,306,186942,5,8,0:0:0:0:
223,326,187032,1,8,0:0:0:0:
259,363,187121,1,2,0:0:0:0:
441,316,187300,1,0,0:0:0:0:
503,142,187478,1,8,0:0:0:0:
352,36,187657,1,2,0:0:0:0:
321,269,187835,1,0,0:0:0:0:
454,203,188014,1,2,0:3:0:0:
320,127,188192,1,0,0:0:0:0:
28,209,188371,5,2,3:0:0:0:
135,235,188550,1,10,0:0:0:0:
250,224,188728,1,0,0:0:0:0:
353,189,188907,1,10,0:0:0:0:
380,178,188996,1,8,0:0:0:0:
409,179,189085,1,10,0:0:0:0:
438,186,189175,1,8,0:0:0:0:
459,206,189264,1,2,0:0:0:0:
263,309,189442,5,0,0:0:0:0:
196,88,189621,1,8,0:0:0:0:
196,88,189800,1,2,0:0:0:0:
171,334,189978,5,0,0:0:0:0:
303,209,190157,1,2,3:0:0:0:
303,209,190246,1,0,0:0:0:0:
303,209,190335,1,2,0:0:0:0:
72,106,190514,5,0,0:0:0:0:
113,249,190692,1,8,0:0:0:0:
241,155,190871,1,2,0:0:0:0:
348,134,191050,1,0,0:0:0:0:
450,233,191228,1,2,3:0:0:0:
326,353,191407,6,0,P|295:311|300:248,1,112.500004291535,6|0,0:0|2:0,0:0:0:0:
342,189,191585,2,0,P|373:231|368:294,1,112.500004291535,0|0,0:0|2:0,0:0:0:0:
208,305,191764,6,0,P|139:276|117:223,1,112.500004291535,8|0,0:0|2:0,0:0:0:0:
114,167,191942,2,0,P|183:196|205:249,1,112.500004291535,10|0,0:0|2:0,0:0:0:0:
64,342,192121,6,0,P|25:332|2:310,1,56.2500021457673,4|0,0:3|2:0,0:0:0:0:
35,256,192300,2,0,P|74:266|97:288,1,56.2500021457673,4|0,0:3|2:0,0:0:0:0:
192,323,192478,6,0,L|373:368,1,150.000005722046,4|0,0:0|2:0,0:0:0:0:
452,243,192657,6,0,L|251:266,1,166.500004064942,4|0,0:3|2:0,0:0:0:0:
268,141,192835,6,0,L|467:159,1,183.499994435024,8|0,0:0|2:0,0:0:0:0:
476,38,193014,6,0,L|254:51,1,200,4|0,0:3|2:0,0:0:0:0:
95,190,193192,5,8,0:0:0:0:
85,186,193282,1,8,0:0:0:0:
75,182,193371,1,8,0:2:0:0:
65,178,193460,1,8,0:2:0:0:
55,174,193550,1,4,0:0:0:0:
190,362,193729,6,0,P|236:347|270:272,1,125,0|0,0:0|2:0,0:0:0:0:
342,330,193909,6,0,P|351:284|324:215,1,100,8|0,0:0|2:0,0:0:0:0:
420,221,194088,6,0,P|388:173|336:153,1,75.0000028610231,0|0,0:0|2:0,0:0:0:0:
428,107,194268,6,0,P|399:90|356:92,1,50,2|0,0:1|2:0,0:0:0:0:
376,16,194448,6,0,P|350:20|330:41,1,37.5000014305115,0|0,0:0|2:0,0:0:0:0:
299,111,194627,6,0,B|242:171|136:148|129:45|129:45|135:85|173:94,1,300,2|0,0:1|2:0,0:0:0:0:
175,177,194987,2,0,P|230:229|223:309,1,150,10|0,0:0|2:0,0:0:0:0:
130,323,195344,2,0,P|128:295|164:266,1,75.0000028610231,0|0,1:0|2:0,0:0:0:0:
323,149,195522,5,8,0:0:0:0:
369,158,195612,1,8,0:0:0:0:
412,190,195701,1,8,0:1:0:0:
412,297,195879,1,2,0:1:0:0:
234,175,196058,1,8,0:0:0:0:
153,193,196237,1,2,0:0:0:0:
325,57,196415,1,0,0:0:0:0:
254,356,196594,1,0,0:0:0:0:
286,258,196772,6,0,L|303:209,1,37.5000014305115,2|0,0:3|2:0,0:0:0:0:
304,203,196951,1,2,0:1:0:0:
108,356,197129,1,10,0:0:0:0:
174,302,197308,5,0,0:0:0:0:
81,43,197487,1,8,0:0:0:0:
150,91,197665,5,10,0:0:0:0:
125,157,197754,1,8,0:0:0:0:
93,221,197844,1,6,0:0:0:0:
29,146,198022,5,0,0:0:0:0:
328,220,198201,1,8,1:0:0:0:
254,238,198379,1,2,0:1:0:0:
468,41,198558,1,0,0:0:0:0:
400,203,198737,1,2,0:0:0:0:
237,131,198915,1,6,0:0:0:0:
416,121,199094,5,0,0:0:0:0:
437,314,199272,1,8,0:0:0:0:
248,337,199451,1,0,0:0:0:0:
397,194,199629,5,0,0:0:0:0:
414,295,199808,1,0,0:0:0:0:
321,311,199987,2,0,L|283:67,1,225.000008583069,4|0,0:0|2:0,0:0:0:0:
286,88,200344,2,0,P|231:102|189:101,1,75.0000028610231,8|0,0:0|2:0,0:0:0:0:
77,70,200522,6,0,P|252:51|469:74,1,375,4|0,0:0|2:0,0:0:0:0:
457,86,200879,2,0,P|470:81|456:63,1,37.5000014305115,8|0,0:0|2:0,0:0:0:0:
158,295,201058,6,0,L|66:308,1,75,10|0,0:0|2:0,0:0:0:0:
70,311,201410,6,0,L|77:339,1,25,10|0,0:0|0:0,0:0:0:0:
228,334,201587,2,0,L|229:362,1,25,0|0,0:0|1:0,0:0:0:0:
359,350,201763,2,0,P|395:312|356:213,2,150.000005722046,0|4|0,0:0|0:2|0:0,0:0:0:0:
99,77,202116,5,4,1:0:0:0:
197,53,202294,1,0,0:0:0:0:
283,136,202473,1,8,0:0:0:0:
252,257,202651,1,0,0:0:0:0:
355,361,202830,1,2,0:1:0:0:
499,298,203008,1,0,0:0:0:0:
512,130,203187,1,2,0:0:0:0:
113,287,203544,1,8,0:0:0:0:
78,205,203723,5,6,0:1:0:0:
138,54,203901,1,0,0:0:0:0:
192,341,204080,5,8,0:0:0:0:
192,341,204169,1,0,0:0:0:0:
192,341,204258,2,0,P|241:342|292:300,1,100,6|0,0:1|2:0,0:0:0:0:
228,256,204437,2,0,P|261:232|276:179,1,75.0000028610231,0|0,0:0|2:0,0:0:0:0:
296,129,204616,2,0,P|329:146|346:184,1,75.0000028610231,8|2,0:0|2:0,0:0:0:0:
96,94,204973,5,8,0:3:0:0:
96,94,205062,2,0,P|134:94|198:190,1,150.000005722046,0|0,0:0|2:0,0:0:0:0:
199,174,205330,2,0,P|217:119|240:94,1,75.0000028610231,4|0,1:3|2:0,0:0:0:0:
301,43,205508,1,2,0:3:0:0:
120,239,205687,1,8,0:0:0:0:
294,170,205866,5,4,0:2:0:0:
73,141,206044,1,0,0:0:0:0:
260,259,206223,1,8,0:0:0:0:
124,348,206401,5,4,0:0:0:0:
207,336,206581,5,0,0:0:0:0:
425,310,206762,1,8,0:0:0:0:
190,247,206943,5,2,0:3:0:0:
118,195,207123,5,0,0:0:0:0:
356,206,207304,1,2,0:3:0:0:
189,151,207485,1,8,0:3:0:0:
400,115,207666,5,2,0:0:0:0:
400,115,207846,1,10,0:0:0:0:
222,46,208024,5,4,0:3:0:0:
288,327,208203,1,2,0:0:0:0:
222,46,208381,1,2,0:0:0:0:
288,327,208560,2,0,P|349:326|407:253,1,150.000005722046,6|0,0:0|0:0,0:0:0:0:
404,342,208917,5,4,0:3:0:0:
173,259,209096,1,12,0:0:0:0:
456,122,209274,2,0,L|363:146,1,75.0000028610231,0|0,0:0|2:0,0:0:0:0:
298,259,209450,5,8,0:0:0:0:
253,195,209538,1,8,0:0:0:0:
75,255,209715,5,8,0:0:0:0:
58,177,209803,1,0,0:0:0:0:
87,34,209979,5,8,0:0:0:0:
149,75,210068,1,8,0:0:0:0:
351,92,210244,5,0,0:0:0:0:
415,129,210332,1,8,0:0:0:0:
453,191,210421,1,8,0:0:0:0:
424,262,210509,1,8,0:0:0:0:
359,295,210597,1,8,0:0:0:0:
364,195,210685,1,4,0:0:0:0:
255,350,210864,5,0,0:0:0:0:
113,225,211044,1,8,0:0:0:0:
256,104,211223,1,0,0:0:0:0:
412,219,211403,1,0,0:0:0:0:
349,290,211583,5,2,3:0:0:0:
279,226,211762,1,2,0:0:0:0:
343,156,211942,1,0,0:0:0:0:
412,219,212122,2,2,B|453:198|453:198|469:153|447:105|398:92,1,150.000005722046,10|0,0:0|2:0,0:0:0:0:
358,75,212300,1,0,0:0:0:0:
210,148,212479,1,0,0:0:0:0:
35,161,212657,5,2,3:0:0:0:
154,212,212836,1,0,0:0:0:0:
239,328,213014,1,2,3:0:0:0:
429,254,213193,6,2,B|475:236|477:185|477:185|453:209|418:206,1,150.000005722046,10|0,0:0|2:0,0:0:0:0:
327,179,213372,1,0,1:0:0:0:
358,136,213461,1,0,1:0:0:0:
413,118,213550,1,0,1:0:0:0:
429,254,213729,1,2,3:0:0:0:
229,147,213907,6,0,L|243:68,1,75.0000028610231,4|0,0:2|2:0,0:0:0:0:
229,147,214086,1,0,2:0:0:0:
160,89,214264,1,8,0:0:0:0:
229,147,214443,5,4,0:0:0:0:
144,181,214622,1,0,2:0:0:0:
219,235,214800,1,2,0:0:0:0:
229,147,214979,5,4,0:0:0:0:
203,349,215157,1,0,0:0:0:0:
429,357,215336,1,8,0:0:0:0:
487,281,215514,5,4,0:2:0:0:
487,281,215604,1,8,0:0:0:0:
487,281,215693,1,8,1:0:0:0:
426,78,215872,5,2,3:0:0:0:
418,62,215961,1,0,0:0:0:0:
410,48,216050,1,4,0:2:0:0:
319,196,216229,5,2,3:0:0:0:
286,189,216318,1,0,0:0:0:0:
252,180,216407,1,8,0:0:0:0:
59,51,216586,5,2,3:0:0:0:
72,104,216675,1,0,0:0:0:0:
84,157,216764,2,0,P|114:180|156:184,1,75.0000028610231,4|0,0:3|2:0,0:0:0:0:
209,333,216943,2,0,P|262:300|277:245,1,75.0000028610231,4|0,0:3|2:0,0:0:0:0:
472,320,217122,6,0,L|455:227,1,75.0000028610231,6|0,0:0|2:0,0:0:0:0:
432,204,217300,1,2,0:3:0:0:
442,154,217389,1,0,0:0:0:0:
477,121,217479,2,0,L|457:31,1,75.0000028610231,8|0,0:0|2:0,0:0:0:0:
415,64,217657,1,2,0:0:0:0:
362,58,217747,1,0,0:0:0:0:
312,32,217836,2,0,L|229:51,1,75.0000028610231,0|0,0:0|2:0,0:0:0:0:
196,80,218014,2,0,L|103:69,1,75.0000028610231,4|0,0:2|2:0,0:0:0:0:
76,103,218193,5,4,0:0:0:0:
40,145,218282,2,0,P|44:241|88:327,1,150.000005722046,0|4,0:0|2:3,0:0:0:0:
108,320,218550,1,8,0:3:0:0:
238,120,218729,5,10,0:0:0:0:
226,174,218818,1,8,0:0:0:0:
193,227,218907,1,8,0:0:0:0:
252,238,218997,1,8,0:0:0:0:
307,263,219086,1,10,0:0:0:0:
288,198,219175,1,8,0:0:0:0:
299,137,219264,1,4,0:0:0:0:
145,50,219443,5,0,0:0:0:0:
400,79,219622,1,8,0:0:0:0:
356,361,219800,1,0,0:0:0:0:
122,335,219979,1,0,0:0:0:0:
210,108,220157,1,0,0:0:0:0:
358,153,220336,5,2,0:1:0:0:
154,231,220514,1,0,3:0:0:0:
270,56,220693,1,10,0:1:0:0:
242,328,220872,1,2,0:3:0:0:
135,34,221050,1,2,0:0:0:0:
377,350,221229,1,8,0:3:0:0:
482,253,221407,5,6,0:0:0:0:
357,163,221586,1,8,0:3:0:0:
438,97,221764,1,10,0:1:0:0:
396,189,221943,1,0,0:0:0:0:
460,243,222122,1,8,0:3:0:0:
413,318,222300,1,2,0:0:0:0:
176,286,222479,6,0,L|164:227,10,50,6|0|0|0|0|0|8|0|6|0|0,0:0|3:0|3:0|3:0|1:0|3:0|3:0|3:0|1:1|3:0|3:0,3:0:0:0:
256,316,223014,6,0,L|428:340,1,150.000005722046,4|0,0:2|2:0,0:0:0:0:
143,344,223282,6,0,L|226:156,1,200,4|0,0:2|2:0,0:0:0:0:
56,40,223550,6,2,L|485:81,1,400,6|8,0:0|0:0,0:0:0:0:
453,155,224086,6,0,L|234:134,1,200,2|2,0:1|0:3,0:0:0:0:
174,129,224622,1,8,1:0:0:0:
164,216,224800,1,0,0:0:0:0:
156,306,224979,1,8,0:3:0:0:
280,342,225157,6,0,L|236:16,1,300.000011444092,4|4,0:2|0:2,0:0:0:0:
390,293,225693,5,8,1:0:0:0:
464,277,225872,1,0,2:0:0:0:
448,200,226050,1,8,0:3:0:0:
427,128,226229,1,4,1:2:0:0:
322,223,226407,6,0,L|102:206,1,150.000005722046,4|10,0:3|0:3,0:0:0:0:
95,213,226675,1,8,0:3:0:0:
23,181,226764,5,8,0:1:0:0:
99,161,226854,1,8,0:1:0:0:
171,190,226943,1,8,0:1:0:0:
243,169,227032,1,8,0:1:0:0:
317,191,227122,5,8,0:1:0:0:
334,181,227211,5,8,0:3:0:0:
350,186,227300,5,10,0:0:0:0:
368,183,227389,5,8,0:3:0:0:
363,105,227479,5,10,0:0:0:0:
263,72,227568,1,8,0:3:0:0:
150,104,227657,1,4,0:3:0:0:
42,71,227747,1,4,0:3:0:0:
74,158,227836,6,0,B|65:205|65:205|18:228,1,100,4|0,0:0|2:0,0:0:0:0:
178,257,228014,2,0,B|143:226|143:226|147:174,1,100,0|0,0:0|2:0,0:0:0:0:
39,302,228193,2,0,B|84:287|84:287|128:317,1,100,8|0,0:0|2:0,0:0:0:0:
124,349,228372,2,0,B|84:320|84:320|37:336,1,100,0|0,0:0|2:0,0:0:0:0:
231,344,228550,6,2,P|518:330|566:326,1,300,4|0,0:2|2:0,0:0:0:0:
457,297,228907,6,2,P|208:304|29:318,1,400,4|10,0:0|0:0,0:0:0:0:
55,87,229443,2,0,P|304:80|483:66,1,400,4|0,0:2|0:0,0:0:0:0:
256,191,229979,5,4,0:0:0:0:
178,166,230157,5,0,0:0:0:0:
279,115,230336,1,8,0:0:0:0:
334,218,230514,1,4,0:3:0:0:
234,270,230693,1,8,0:3:0:0:
256,191,230872,1,2,0:3:0:0:
305,285,231050,5,4,0:3:0:0:
256,191,231229,1,2,3:0:0:0:
177,232,231407,5,8,0:0:0:0:
256,191,231586,1,2,3:0:0:0:
211,108,231764,5,0,0:0:0:0:
256,191,231943,1,2,0:3:0:0:
333,154,232122,5,4,0:0:0:0:
374,294,232300,1,0,0:0:0:0:
238,334,232479,1,8,0:0:0:0:
263,345,232747,5,0,0:0:0:0:
263,345,232836,2,0,P|251:243|253:179,1,150.000005722046,0|2,0:0|0:3,0:0:0:0:
46,62,233193,1,4,0:3:0:0:
306,113,233372,5,2,0:3:0:0:
306,113,233461,1,0,0:0:0:0:
306,113,233550,1,8,0:0:0:0:
306,113,233639,2,0,P|388:99|457:94,1,150.000005722046,0|0,0:0|2:0,0:0:0:0:
489,97,233907,1,0,0:0:0:0:
512,298,234086,1,2,0:3:0:0:
492,219,234264,6,0,P|313:240|65:263,1,400,4|0,0:0|0:0,0:0:0:0:
20,165,234800,2,0,P|199:144|447:121,1,400,12|8,0:0|0:3,0:0:0:0:
479,40,235336,5,8,0:0:0:0:
402,26,235425,1,8,0:0:0:0:
303,62,235604,5,8,0:0:0:0:
227,69,235693,1,10,0:0:0:0:
98,56,235872,5,2,0:0:0:0:
83,113,235961,1,0,0:0:0:0:
114,169,236050,1,4,0:3:0:0:
94,220,236139,1,8,0:0:0:0:
103,277,236229,1,8,0:0:0:0:
94,334,236318,1,8,0:0:0:0:
103,359,236407,5,4,0:0:0:0:
257,335,236586,1,0,0:0:0:0:
453,339,236764,1,8,0:0:0:0:
501,283,236943,5,0,1:0:0:0:
491,279,237032,1,0,1:0:0:0:
481,275,237122,5,4,1:3:0:0:
416,227,237211,5,2,1:2:0:0:
440,150,237300,5,0,1:0:0:0:
506,193,237389,5,2,1:2:0:0:
506,193,237479,1,4,0:3:0:0:
350,168,237657,2,0,L|332:124,1,37.5000014305115,2|0,0:3|2:0,0:0:0:0:
309,231,237836,6,0,L|176:276,1,100,10|0,0:0|2:0,0:0:0:0:
53,214,238014,6,0,L|251:249,1,200,2|2,0:0|0:0,0:0:0:0:
119,147,238550,6,0,P|97:113|16:116,1,100,6|0,0:0|2:0,0:0:0:0:
3,275,238729,2,0,P|25:309|106:306,1,100,0|0,0:0|2:0,0:0:0:0:
157,311,238907,6,0,L|148:367,1,37.5000014305115,8|0,0:0|2:0,0:0:0:0:
371,254,239086,6,0,P|363:146|186:80,1,300.000011444092,6|0,0:0|2:0,0:0:0:0:
129,52,239443,2,0,L|130:172,1,100,2|0,0:3|2:0,0:0:0:0:
233,369,239622,2,0,L|229:170,2,200,2|2|8,0:0|3:0|0:0,0:0:0:0:
315,258,240157,1,2,0:0:0:0:
113,255,240336,2,0,P|9:216|46:104,1,200,4|8,0:2|0:0,0:0:0:0:
22,62,240604,5,8,0:0:0:0:
108,128,240693,5,4,0:0:0:0:
176,89,240872,1,0,0:0:0:0:
231,140,241050,1,8,0:0:0:0:
297,95,241229,6,0,L|334:93,1,25,4|0,0:2|2:0,0:0:0:0:
273,73,241407,2,0,L|342:90,1,50,0|0,0:0|2:0,0:0:0:0:
227,132,241586,2,0,L|350:97,1,100,2|0,0:3|2:0,0:0:0:0:
180,70,241764,6,0,L|347:96,1,150.000005722046,4|0,0:0|2:0,0:0:0:0:
133,132,241943,6,0,L|349:98,1,200,2|0,0:0|2:0,0:0:0:0:
378,132,242122,2,0,L|162:98,1,200,8|0,0:0|2:0,0:0:0:0:
261,4,242300,6,0,L|255:114,1,100,2|4,0:0|0:2,0:0:0:0:
127,199,242836,6,0,P|85:267|140:353,1,150.000005722046,6|0,0:0|2:0,0:0:0:0:
392,357,243014,2,0,P|411:287|370:227,1,150.000005722046,0|0,0:0|2:0,0:0:0:0:
265,208,243193,6,0,L|256:263,1,37.5000014305115,8|0,0:0|2:0,0:0:0:0:
244,320,243372,2,0,L|235:375,1,37.5000014305115,2|0,0:0|2:0,0:0:0:0:
187,268,243550,1,0,2:0:0:0:
318,292,243729,1,8,0:0:0:0:
146,69,243907,6,0,L|137:124,1,37.5000014305115,4|0,0:0|2:0,0:0:0:0:
394,106,244086,2,0,L|387:143,1,37.5000014305115,0|0,0:0|2:0,0:0:0:0:
457,43,244264,6,0,L|466:98,1,37.5000014305115,8|0,0:0|2:0,0:0:0:0:
76,135,244443,2,0,L|82:172,1,37.5000014305115,8|0,0:0|2:0,0:0:0:0:
74,26,244622,6,0,L|65:81,1,37.5000014305115,10|0,0:0|2:0,0:0:0:0:
474,150,244800,2,0,L|467:187,1,37.5000014305115,10|0,0:0|2:0,0:0:0:0:
284,373,244979,6,0,B|-10:373|-10:100|270:195|530:281|527:42|332:-14|186:56,1,839.999974365235,4|0,0:0|0:0,0:0:0:0:
