osu file format v14

[General]
AudioFilename: audio.mp3
AudioLeadIn: 0
PreviewTime: 54261
Countdown: 0
SampleSet: Normal
StackLeniency: 0.7
Mode: 0
LetterboxInBreaks: 0
WidescreenStoryboard: 1

[Editor]
DistanceSpacing: 1
BeatDivisor: 4
GridSize: 4
TimelineZoom: 1.7

[Metadata]
Title:lilac slumber -cosmic ver.-
TitleUnicode:lilac slumber -cosmic ver.-
Artist:Annabel
ArtistUnicode:Annabel
Creator:PandaHero
Version:normal
Source:
Tags:gibune delis shirohamymommy mirash gardener japanese pop jpop j-pop art dream jazz chamber アナベル あなべる cosmic gardener 田口囁一 shouichi taguchi fa featured artist
BeatmapID:3314160
BeatmapSetID:1593278

[Difficulty]
HPDrainRate:4
CircleSize:3.2
OverallDifficulty:4
ApproachRate:6
SliderMultiplier:0.9
SliderTickRate:1

[Events]
//Background and Video events
0,0,"EV3k8LrUMAAfrjV.jpg",0,0
//Break Periods
2,17867,25367
2,80188,87497
//Storyboard Layer 0 (Background)
//Storyboard Layer 1 (Fail)
//Storyboard Layer 2 (Pass)
//Storyboard Layer 3 (Foreground)
//Storyboard Layer 4 (Overlay)
//Storyboard Sound Samples

[TimingPoints]
703,357.142857142857,6,2,1,35,1,0
4975,-100,6,2,1,35,0,0
9261,-100,6,2,1,35,0,0
13547,-100,6,2,1,35,0,0
17832,-100,6,2,1,30,0,0
25689,-100,6,2,1,50,0,0
26404,-100,6,2,1,50,0,0
51047,-100,6,2,1,55,0,0
52118,-100,6,2,1,60,0,0
54261,-100,6,1,1,70,0,0
71404,-100,6,1,1,65,0,0
78814,-100,6,2,1,10,0,0
78904,-100,6,1,1,65,0,0
79082,-100,6,2,1,50,0,0
79261,-100,6,1,1,65,0,0
79439,-100,6,2,1,50,0,0
79618,-100,6,1,1,65,0,0
79975,-100,6,2,1,60,0,0
88547,365.853658536585,6,2,1,50,1,0
88547,-100,6,2,1,50,0,0
90724,352.941176470588,6,2,1,50,1,0
92135,357.142857142857,6,2,1,50,1,0
92849,357.142857142857,6,2,1,50,1,0
93563,361.44578313253,6,2,1,50,1,0
95008,352.941176470588,6,2,1,50,1,0
96419,357.142857142857,6,2,1,50,1,0
97133,357.142857142857,6,2,1,50,1,0
97847,352.941176470588,6,2,1,50,1,0
99258,357.142857142857,6,2,1,50,1,0
100686,365.853658536585,6,2,1,50,1,0
101417,357.142857142857,6,2,1,50,1,0
102489,361.44578313253,6,2,1,50,1,0
103573,363.636363636364,6,2,1,50,1,0
104663,340.909090909091,6,2,1,50,1,0
105684,363.636363636364,6,2,1,50,1,0
105689,-100,6,2,1,45,0,0
107138,348.837209302326,6,2,1,45,1,0
107835,361.44578313253,6,2,1,45,1,0
108557,357.142857142857,6,2,1,45,1,0
109985,357.142857142857,6,2,1,45,1,0
111414,352.941176470588,6,2,1,45,1,0
112119,352.941176470588,6,2,1,45,1,0
112825,361.44578313253,6,2,1,45,1,0
114261,-100,6,2,1,45,0,0
114270,357.142857142857,6,2,1,45,1,0
116404,-100,6,2,1,50,0,0
118547,-100,6,2,1,55,0,0
118555,361.44578313253,6,2,1,55,1,0
120362,352.941176470588,6,2,1,55,1,0
120689,-100,6,2,1,60,0,0
120714,352.941176470588,6,2,1,55,1,0
121420,356.083086053412,6,2,1,60,1,0
122832,-100,6,2,1,65,0,0
122844,356.083086053412,6,2,1,60,1,0
124975,-100,6,1,1,70,0,0
124980,357.142857142857,6,1,1,70,1,0
142118,-100,6,1,1,65,0,0
159261,-100,6,1,1,65,0,0
163547,-100,6,1,1,65,0,0
174980,361.44578313253,6,1,1,65,1,0
176404,-100,6,1,1,70,0,0
176425,357.142857142857,6,1,1,70,1,0
182139,352.941176470588,6,1,1,70,1,0
182844,352.941176470588,6,1,1,70,1,0
183550,357.142857142857,6,1,1,70,1,0
193547,-100,6,1,1,75,0,0
193550,359.281437125748,6,1,1,75,1,0
194987,357.142857142857,6,1,1,75,1,0
195701,357.142857142857,6,1,1,75,1,0
201058,352.941176470588,6,1,1,75,1,0
202116,357.142857142857,6,1,1,75,1,0
206401,361.44578313253,6,1,1,75,1,0
207846,357.142857142857,6,1,1,75,1,0
208560,357.142857142857,6,1,1,75,1,0
209274,352.941176470588,6,1,1,75,1,0
210685,359.281437125748,6,1,1,70,1,0
210689,-100,6,1,1,70,0,0
212122,357.142857142857,6,1,1,70,1,0
212836,357.142857142857,6,1,1,70,1,0
227832,-100,6,1,1,65,0,0
244975,-100,6,2,1,50,0,0

[Colours]
Combo1 : 225,225,225
Combo2 : 152,147,204
Combo3 : 154,199,152

[HitObjects]
40,333,703,6,0,P|107:323|106:202,1,180,4|0,1:0|0:0,0:0:0:0:
64,160,1774,2,0,L|79:51,2,90,2|0|0,1:3|0:0|0:0,0:0:0:0:
151,140,2845,6,0,B|250:119|236:181|357:156,1,180,4|0,1:2|3:0,0:0:0:0:
416,152,3917,2,0,L|406:251,1,90,2|0,0:3|3:0,0:0:0:0:
280,369,4988,6,0,P|264:283|251:218,1,135,4|0,1:0|3:0,0:0:0:0:
236,152,5881,1,0,1:0:0:0:
236,152,6060,2,0,L|137:169,2,90,2|2|0,1:3|0:0|0:0,0:0:0:0:
195,71,7131,6,0,L|85:91,1,90,2|0,1:3|3:0,0:0:0:0:
24,123,7845,1,0,1:0:0:0:
85,188,8202,2,0,P|165:172|254:164,1,135,4|8,1:2|1:3,0:0:0:0:
243,174,8917,1,4,0:3:0:0:
286,252,9274,6,0,P|342:269|413:277,1,90,4|0,1:0|0:0,0:0:0:0:
462,272,9988,1,2,0:0:0:0:
439,184,10345,2,0,P|447:121|455:40,1,135,8|8,1:0|0:1,0:0:0:0:
437,28,11060,1,2,0:0:0:0:
354,64,11417,6,0,P|299:69|250:65,2,90,2|8|0,1:3|1:0|0:0,0:0:0:0:
379,150,12488,1,8,1:0:0:0:
335,228,12845,1,2,0:0:0:0:
247,209,13202,1,4,1:3:0:0:
255,119,13560,5,4,1:0:0:0:
255,119,14631,2,0,L|233:291,2,135,8|8|0,0:0|0:0|1:0,0:0:0:0:
246,93,15881,1,0,0:0:0:0:
176,36,16238,1,0,1:0:0:0:
91,67,16595,1,0,1:0:0:0:
91,67,16774,2,0,L|71:188,1,90,8|0,0:0|0:0,0:0:0:0:
53,170,17310,2,0,L|72:245,2,45,0|2|0,0:0|0:0|0:0,0:0:0:0:
45,220,26417,5,4,1:2:0:0:
133,236,26774,1,0,0:0:0:0:
174,156,27131,1,2,0:0:0:0:
129,77,27488,2,0,P|62:95|16:104,1,90,8|0,1:2|0:0,0:0:0:0:
18,113,28024,2,0,P|28:161|37:209,1,90,8|0,0:0|1:0,0:0:0:0:
41,227,28560,5,0,1:0:0:0:
131,219,28917,1,0,0:0:0:0:
196,280,29274,1,2,0:3:0:0:
238,200,29631,2,0,L|213:83,2,90,8|0|0,1:2|0:0|0:0,0:0:0:0:
289,273,30702,6,0,L|368:257,1,45,0|0,1:0|0:0,0:0:0:0:
355,247,31060,2,0,P|405:287|468:297,1,90,2|0,0:0|1:0,0:0:0:0:
502,242,31774,1,8,1:2:0:0:
452,167,32131,1,0,0:0:0:0:
452,167,32310,2,0,P|383:174|328:184,1,90,8|0,0:0|0:0,0:0:0:0:
335,173,32845,5,0,1:0:0:0:
261,121,33202,1,2,1:3:0:0:
308,44,33560,1,0,0:0:0:0:
397,55,33917,2,0,P|433:64|521:69,2,90,8|2|4,1:2|1:3|1:3,0:0:0:0:
308,44,34988,6,0,P|241:106|258:171,1,135,4|2,1:0|0:3,0:0:0:0:
274,227,35881,1,0,1:0:0:0:
274,227,36060,2,0,L|246:288,2,45,8|0|0,1:0|0:0|3:1,0:0:0:0:
300,231,36595,2,0,P|365:245|411:253,1,90,2|0,0:3|0:0,0:0:0:0:
415,248,37131,5,0,1:0:0:0:
467,320,37488,1,2,0:0:0:0:
388,364,37845,1,0,0:0:0:0:
305,329,38202,2,0,P|270:273|276:186,1,135,8|0,1:0|1:0,0:0:0:0:
275,179,38917,1,0,1:0:0:0:
199,130,39274,6,0,L|59:146,1,135,4|0,0:0|0:0,0:0:0:0:
38,139,39988,1,2,0:0:0:0:
34,49,40345,1,8,1:0:0:0:
121,26,40702,1,0,0:0:0:0:
174,98,41060,2,0,L|155:151,1,45,2|0,0:0|0:0,0:0:0:0:
139,158,41417,6,0,L|150:206,2,45,2|0|0,0:0|1:0|1:0,0:0:0:0:
112,153,41952,2,0,P|53:175|10:195,1,90,8|8,0:0|0:0,0:0:0:0:
21,212,42488,1,4,1:2:0:0:
60,292,42845,1,0,0:0:0:0:
147,312,43202,1,0,1:0:0:0:
194,235,43560,6,0,L|177:174,2,45,0|0|0,1:0|0:0|1:0,0:0:0:0:
267,286,44274,1,8,0:3:0:0:
342,236,44631,1,8,1:0:0:0:
308,152,44988,1,0,3:0:0:0:
218,145,45345,2,0,L|219:93,1,45,0|0,1:0|1:0,0:0:0:0:
225,73,45702,6,0,P|264:61|311:39,2,90,0|0|0,1:0|1:0|1:0,0:0:0:0:
159,134,46774,2,0,P|120:122|73:100,2,90,8|0|2,1:0|3:0|1:3,0:0:0:0:
214,204,47845,6,0,P|253:192|300:170,1,90,4|0,1:2|0:0,0:0:0:0:
387,180,48560,1,2,1:2:0:0:
445,248,48917,2,0,L|430:347,2,90,8|2|4,1:0|0:0|1:3,0:0:0:0:
387,178,49988,6,0,L|406:36,1,135,4|0,1:0|0:0,0:0:0:0:
421,22,50702,1,0,1:0:0:0:
484,85,51060,1,8,1:0:0:0:
426,153,51417,1,0,1:0:0:0:
477,226,51774,1,8,1:3:0:0:
414,290,52131,6,0,P|319:272|274:269,1,135,4|8,1:0|1:0,0:0:0:0:
255,258,52845,2,0,L|196:276,1,45,0|0,1:0|3:0,0:0:0:0:
184,269,53202,1,4,1:3:0:0:
99,238,53560,1,8,1:0:0:0:
171,185,53917,1,4,1:2:0:0:
115,114,54274,6,0,P|65:129|10:167,1,90,4|8,0:0|0:0,0:0:0:0:
22,173,54810,1,0,0:0:0:0:
23,199,54988,2,0,L|32:268,1,45,0|2,0:0|0:3,0:0:0:0:
39,268,55345,1,2,0:0:0:0:
118,309,55702,1,10,0:0:0:0:
189,254,56060,1,2,0:0:0:0:
146,174,56417,6,0,L|141:118,2,45,2|0|8,0:0|0:0|0:0,0:0:0:0:
235,184,57131,2,0,P|240:123|246:81,1,90,0|2,0:0|0:3,0:0:0:0:
257,71,57667,1,0,0:0:0:0:
267,46,57845,2,0,L|346:56,2,45,8|2|0,0:0|0:0|0:0,0:0:0:0:
177,34,58560,6,0,B|108:28|113:62|30:54,1,135,4|2,0:2|0:0,0:0:0:0:
26,74,59274,1,0,0:0:0:0:
33,163,59631,1,2,0:0:0:0:
115,198,59988,2,0,L|127:135,1,45,8|2,0:0|0:0,0:0:0:0:
149,147,60345,2,0,L|159:88,1,45
166,77,60702,6,0,P|219:92|279:99,1,90,2|8,0:0|0:0,0:0:0:0:
331,51,61417,2,0,L|385:62,1,45,2|2,0:3|0:0,0:0:0:0:
399,71,61774,1,2,0:0:0:0:
471,124,62131,1,10,0:0:0:0:
427,201,62488,1,2,0:0:0:0:
400,205,62667,1,8,0:0:0:0:
373,209,62845,6,0,L|258:199,1,90,4|8,0:0|0:0,0:0:0:0:
198,231,63560,1,0,0:0:0:0:
265,290,63917,2,0,L|247:381,2,90,2|10|2,0:0|0:0|0:0,0:0:0:0:
241,276,64810,1,8,0:0:0:0:
214,271,64988,6,0,L|142:284,1,45,2|0,0:0|0:0,0:0:0:0:
144,287,65345,2,0,P|80:291|63:241,1,90,8|0,0:0|0:0,0:0:0:0:
19,199,66060,1,2,0:0:0:0:
106,177,66417,1,8,0:0:0:0:
46,109,66774,2,0,L|48:51,1,45,0|8,0:0|0:0,0:0:0:0:
58,39,67131,6,0,P|115:38|163:108,1,135,6|2,0:0|0:0,0:0:0:0:
164,121,67845,1,0,0:0:0:0:
225,186,68202,1,2,0:0:0:0:
309,154,68560,1,8,0:0:0:0:
301,64,68917,1,2,0:3:0:0:
214,37,69274,6,0,L|160:50,2,45,6|0|0,0:0|0:0|0:0,0:0:0:0:
301,64,69988,1,2,0:0:0:0:
237,128,70345,2,0,P|233:185|231:229,1,90,6|8,0:0|0:0,0:0:0:0:
253,233,70881,1,2,0:0:0:0:
274,249,71060,2,0,L|343:231,1,45,2|10,0:0|0:0,0:0:0:0:
344,242,71417,5,4,1:0:0:0:
426,278,71774,1,8,1:0:0:0:
382,356,72131,1,0,1:0:0:0:
297,326,72488,2,0,L|193:322,2,90,2|10|2,1:0|1:0|1:0,0:0:0:0:
310,236,73560,6,0,P|290:183|292:88,1,135,2|2,1:0|1:0,0:0:0:0:
297,80,74274,1,0,0:0:0:0:
377,39,74631,1,0,1:0:0:0:
459,74,74988,1,8,1:0:0:0:
474,162,75345,2,0,L|453:225,1,45,4|8,1:3|1:0,0:0:0:0:
436,218,75702,6,0,P|387:209|315:209,2,90,4|8|0,1:1|1:0|1:3,0:0:0:0:
393,297,76774,2,0,P|324:304|235:323,1,135,2|6,1:0|1:0,0:0:0:0:
235,328,77488,1,0,0:0:0:0:
154,287,77845,1,6,1:0:0:0:
159,197,78202,2,0,L|213:182,2,45,8|6|0,1:0|1:0|0:0,0:0:0:0:
68,191,78917,6,0,L|48:117,1,45,8|4,1:0|1:3,0:0:0:0:
69,123,79274,2,0,L|48:53,1,45,8|2,1:3|1:0,0:0:0:0:
34,63,79631,2,0,L|20:8,2,45,10|2|4,1:0|1:3|1:0,0:0:0:0:
55,54,88547,6,0,L|78:197,2,135,4|0|8,1:2|1:0|1:0,0:0:0:0:
187,29,90193,2,0,L|257:42,2,45,0|2|0,1:0|0:0|0:0,0:0:0:0:
176,53,90724,2,0,L|190:150,1,90,0|0,1:0|0:0,0:0:0:0:
201,166,91253,1,0,1:0:0:0:
214,189,91429,2,0,L|336:173,1,90,0|8,0:0|1:0,0:0:0:0:
387,208,92135,1,2,0:0:0:0:
424,289,92492,1,0,0:0:0:0:
354,346,92849,6,0,L|278:337,1,45,0|0,1:0|0:2,0:0:0:0:
289,322,93206,2,0,P|226:351|177:362,1,90,2|0,0:0|1:0,0:0:0:0:
124,318,93924,1,8,1:0:0:0:
147,231,94285,1,2,0:0:0:0:
236,242,94647,1,0,0:0:0:0:
223,152,95008,6,0,L|212:37,2,90,0|2|0,1:0|0:0|0:0,0:0:0:0:
300,197,96066,2,0,L|315:91,1,90,8|0,1:0|0:0,0:0:0:0:
322,82,96597,1,2,1:3:0:0:
334,58,96776,2,0,L|417:66,1,45,0|0,0:0|0:0,0:0:0:0:
405,59,97133,5,0,1:0:0:0:
464,126,97490,1,0,0:0:0:0:
410,198,97847,1,2,0:0:0:0:
320,185,98199,2,0,P|232:177|172:175,1,135,8|4,1:0|1:3,0:0:0:0:
158,179,98905,1,2,0:0:0:0:
71,203,99258,5,0,1:0:0:0:
19,276,99615,1,0,0:0:0:0:
19,276,99793,2,0,L|51:382,1,90,8|0,1:3|0:0,0:0:0:0:
71,363,100329,2,0,P|132:352|181:348,1,90,8|0,1:0|1:0,0:0:0:0:
181,354,100868,1,8,1:0:0:0:
274,353,101234,1,0,0:0:0:0:
274,353,101417,6,0,L|266:298,1,45,0|2,1:0|0:0,0:0:0:0:
250,287,101774,2,0,L|259:175,1,90,2|0,0:0|0:0,0:0:0:0:
314,127,102488,1,8,1:0:0:0:
407,145,102850,2,0,L|469:144,2,45,2|0|0,0:0|0:0|0:0,0:0:0:0:
317,153,103573,5,4,1:2:0:0:
255,87,103936,1,2,0:0:0:0:
165,98,104300,1,0,0:0:0:0:
122,177,104663,2,0,L|117:230,1,45,8|0,1:0|1:0,0:0:0:0:
100,242,105003,2,0,L|105:294,2,45,8|0|8,1:3|1:0|1:3,0:0:0:0:
30,185,105684,6,0,P|32:115|43:28,1,135,4|0,0:0|0:0,0:0:0:0:
124,20,106593,1,0,1:0:0:0:
124,20,106774,2,0,P|190:48|232:59,1,90,0|0,1:0|0:0,0:0:0:0:
222,75,107312,2,0,P|276:66|322:60,1,90,8|0,0:1|0:0,0:0:0:0:
334,74,107835,5,2,1:3:0:0:
408,124,108196,1,0,1:0:0:0:
384,211,108557,1,0,1:0:0:0:
294,205,108914,1,8,1:0:0:0:
209,234,109271,1,0,1:0:0:0:
216,323,109628,1,0,1:0:0:0:
295,365,109985,6,2,P|376:344|463:340,1,135,4|0,1:0|0:0,0:0:0:0:
451,350,110699,1,0,0:0:0:0:
469,261,111057,2,0,L|457:196,2,45,2|2|4,1:3|3:0|0:0,0:0:0:0:
380,247,111766,2,0,L|373:186,1,45,0|0,1:0|0:0,0:0:0:0:
364,177,112119,6,0,P|296:183|236:226,1,135,4|12,1:2|1:0,0:0:0:0:
115,267,113186,1,0,0:0:0:0:
60,194,113547,1,4,0:3:0:0:
133,141,113909,2,0,L|115:86,1,45,8|0,0:3|0:0,0:0:0:0:
106,74,114270,6,0,P|53:88|5:95,2,90,4|0|0,1:0|0:0|1:0,0:0:0:0:
186,34,115341,1,2,0:0:0:0:
268,69,115698,1,0,1:0:0:0:
219,145,116055,2,0,L|225:198,1,45,8|0,0:3|1:0,0:0:0:0:
236,213,116412,5,4,1:0:0:0:
308,266,116770,1,0,1:0:0:0:
383,216,117127,1,0,1:0:0:0:
459,263,117484,2,0,L|434:370,2,90,0|0|8,1:0|3:0|0:2,0:0:0:0:
471,173,118555,5,4,1:0:0:0:
398,120,118916,1,0,0:0:0:0:
313,150,119277,2,0,L|187:178,1,90,0|8,1:0|1:0,0:0:0:0:
137,149,120000,1,0,3:0:0:0:
152,60,120362,1,2,1:3:0:0:
239,39,120714,6,0,L|352:50,2,90,4|0|0,1:2|0:0|1:0,0:0:0:0:
195,118,121776,2,0,L|308:129,2,90,8|8|0,1:3|0:3|0:0,0:0:0:0:
145,193,122844,6,0,L|16:209,2,90,0|0|0,1:0|1:0|1:0,0:0:0:0:
197,266,123912,2,0,L|270:268,1,45,0|0,1:0|1:0,0:0:0:0:
260,286,124268,2,0,L|326:286,1,45,0|8,1:0|1:0,0:0:0:0:
329,298,124624,1,8,1:0:0:0:
405,345,124980,5,4,1:0:0:0:
478,293,125337,1,8,1:0:0:0:
421,222,125694,2,0,L|413:162,1,45,2|2,0:1|0:0,0:0:0:0:
398,155,126051,2,0,P|390:112|391:43,1,90,2|8,0:1|0:0,0:0:0:0:
478,67,126765,1,2,0:1:0:0:
507,152,127122,6,0,L|496:218,1,45,2|0,1:0|1:0,0:0:0:0:
475,208,127480,1,8,1:0:0:0:
452,215,127658,2,0,P|372:221|314:236,1,135,4|6,0:2|0:0,0:0:0:0:
247,179,128551,1,8,1:0:0:0:
199,102,128908,2,0,L|212:49,1,45,2|8,0:3|0:0,0:0:0:0:
193,36,129265,6,0,L|136:56,1,45,4|0,1:0|0:0,0:0:0:0:
124,58,129622,1,8,1:0:0:0:
40,92,129980,1,2,0:1:0:0:
57,180,130337,1,2,0:1:0:0:
145,166,130694,1,8,1:0:0:0:
213,223,131051,2,0,L|194:288,1,45,0|2,0:0|0:0,0:0:0:0:
181,285,131408,6,0,L|189:346,2,45,4|8|8,0:0|0:0|1:0,0:0:0:0:
104,237,132122,1,0,0:0:0:0:
44,304,132480,1,2,0:1:0:0:
111,363,132837,2,0,L|191:344,1,45,10|0,0:1|0:0,0:0:0:0:
177,338,133194,2,0,L|245:348,1,45,0|4,1:0|1:3,0:0:0:0:
247,351,133551,6,0,P|236:282|234:232,1,90,4|8,1:2|1:0,0:0:0:0:
230,235,134087,1,2,0:1:0:0:
233,208,134265,1,2,0:1:0:0:
293,141,134622,1,2,0:1:0:0:
377,171,134980,1,10,0:0:0:0:
400,257,135337,1,10,0:0:0:0:
319,296,135694,6,0,L|267:280,2,45,2|0|8,1:0|0:0|0:0,0:0:0:0:
334,318,136230,2,0,P|383:342|471:338,1,135,2|0,0:0|0:0,0:0:0:0:
497,258,137122,1,8,0:0:0:0:
416,218,137480,2,0,L|357:229,1,45,0|8,0:0|1:0,0:0:0:0:
344,223,137837,6,0,P|325:170|330:117,2,90,4|8|0,0:1|1:0|0:0,0:0:0:0:
284,291,138908,2,0,P|217:275|174:272,1,90,0|10,1:0|1:0,0:0:0:0:
172,286,139444,1,0,0:0:0:0:
151,303,139622,2,0,L|75:295,1,45,2|4,0:0|0:3,0:0:0:0:
79,294,139980,5,4,0:0:0:0:
34,215,140337,1,8,1:0:0:0:
98,151,140694,2,0,L|156:162,1,45,0|8,0:0|0:0,0:0:0:0:
168,165,141051,2,0,P|159:96|152:50,1,90,2|8,0:1|1:3,0:0:0:0:
162,49,141587,1,2,1:0:0:0:
173,24,141765,1,8,1:0:0:0:
258,52,142122,5,4,1:0:0:0:
313,123,142480,2,0,P|393:108|444:103,1,90,10|0,0:0|0:0,0:0:0:0:
424,121,143015,1,2,3:0:0:0:
446,136,143194,1,0,0:0:0:0:
451,226,143551,2,0,P|380:218|323:218,1,90,10|0,0:0|0:0,0:0:0:0:
336,227,144087,1,2,3:0:0:0:
311,238,144265,5,0,0:0:0:0:
221,280,144622,2,0,L|241:377,1,90,10|0,0:0|0:0,0:0:0:0:
140,367,145337,2,0,P|127:285|116:209,1,135,4|0,0:2|0:0,0:0:0:0:
115,206,146051,1,2,0:0:0:0:
103,116,146408,6,0,P|20:153|12:199,2,135,6|8|2,0:0|1:0|0:0,0:0:0:0:
128,123,147658,1,0,0:0:0:0:
152,133,147837,1,8,0:0:0:0:
230,89,148194,1,0,0:0:0:0:
175,17,148551,5,0,0:0:0:0:
230,89,148908,2,0,L|346:81,1,90,10|0,0:0|0:0,0:0:0:0:
368,158,149622,2,0,L|223:172,1,135,4|0,1:3|0:0,0:0:0:0:
211,187,150337,2,0,L|201:247,1,45,8|8,0:0|0:0,0:0:0:0:
187,253,150694,5,6,0:0:0:0:
231,331,151051,1,8,0:0:0:0:
319,315,151408,1,0,0:0:0:0:
313,225,151765,2,0,L|291:106,2,90,2|8|0,0:0|0:0|0:0,0:0:0:0:
389,272,152837,6,0,L|406:181,1,90,6|10,0:0|0:0,0:0:0:0:
426,166,153372,1,2,0:0:0:0:
449,153,153551,2,0,L|514:168,2,45,0|2|4,0:0|0:0|1:2,0:0:0:0:
359,143,154265,1,10,0:0:0:0:
340,54,154622,2,0,L|338:0,1,45,2|8,0:0|0:0,0:0:0:0:
312,16,154980,5,4,0:0:0:0:
230,53,155337,1,8,0:0:0:0:
201,138,155694,1,2,0:0:0:0:
256,208,156051,2,0,P|249:257|235:347,1,135,6|2,1:0|0:0,0:0:0:0:
213,357,156765,1,0,0:0:0:0:
129,323,157122,6,0,L|74:309,1,45,2|2,0:0|0:0,0:0:0:0:
69,290,157480,2,0,L|12:300,2,45,2|12|0,0:0|0:0|0:0,0:0:0:0:
132,225,158194,2,0,L|124:168,1,45,2|0,0:0|0:0,0:0:0:0:
137,156,158551,2,0,L|127:92,1,45,4|8,0:3|0:3,0:0:0:0:
115,88,158908,1,4,0:3:0:0:
98,66,159087,1,4,0:3:0:0:
72,56,159265,6,0,P|33:63|-13:86,2,90,4|12|0,1:0|0:0|0:0,0:0:0:0:
159,36,160337,1,4,0:3:0:0:
235,83,160694,1,8,0:0:0:0:
199,165,161051,2,0,L|173:208,1,45,2|8,0:3|0:0,0:0:0:0:
160,226,161408,6,0,L|83:209,2,45,0|4|8,0:0|0:3|0:3,0:0:0:0:
176,247,161944,2,0,P|263:231|310:229,1,135,8|8,0:0|0:0,0:0:0:0:
381,283,162837,1,8,0:3:0:0:
405,196,163194,2,0,L|417:126,1,45,8|8,0:0|0:0,0:0:0:0:
414,124,163551,5,4,0:0:0:0:
453,43,163908,1,8,0:0:0:0:
369,9,164265,1,2,0:3:0:0:
312,78,164622,2,0,L|318:125,2,45,4|2|4,0:2|0:2|0:3,0:0:0:0:
288,64,165158,2,0,P|229:67|169:84,1,90,4|0,0:0|0:0,0:0:0:0:
175,87,165694,5,8,0:0:0:0:
86,70,166051,1,4,0:3:0:0:
33,143,166408,1,0,0:0:0:0:
61,228,166765,2,0,L|124:211,1,45,4|4,0:2|0:3,0:0:0:0:
129,226,167122,2,0,L|140:280,1,45,8|0,0:0|0:0,0:0:0:0:
144,296,167480,2,0,L|197:298,1,45,0|8,1:0|1:0,0:0:0:0:
215,295,167837,5,4,1:0:0:0:
294,337,168194,1,8,1:0:0:0:
356,271,168551,1,0,0:0:0:0:
287,212,168908,2,0,P|290:160|299:106,1,90,2|2,1:0|0:1,0:0:0:0:
315,104,169444,1,6,1:0:0:0:
335,86,169622,2,0,L|395:70,1,45,0|0,0:0|0:0,0:0:0:0:
404,82,169979,6,0,P|459:140|467:219,2,135,8|4|4,1:0|0:0|0:3,0:0:0:0:
322,44,171408,2,0,L|241:51,1,45,4|8,0:3|0:0,0:0:0:0:
252,58,171765,2,0,L|232:103,1,45,10|10,0:0|0:0,0:0:0:0:
218,121,172122,5,4,0:0:0:0:
153,183,172479,2,0,L|170:240,2,45,8|0|4,0:0|0:0|0:3,0:0:0:0:
80,236,173194,1,4,0:3:0:0:
122,315,173551,2,0,L|100:376,2,45,8|4|8,0:0|0:2|1:3,0:0:0:0:
198,267,174265,6,0,P|270:278|339:309,1,135,4|4,0:0|0:2,0:0:0:0:
349,317,174979,1,0,0:0:0:0:
431,281,175341,2,0,L|421:227,1,45,4|8,0:3|0:3,0:0:0:0:
402,218,175702,2,0,L|406:170,1,45,8|8,1:0|1:0,0:0:0:0:
425,154,176064,1,8,0:0:0:0:
445,136,176245,1,8,0:0:0:0:
466,120,176425,6,0,P|453:67|407:28,1,90,4|8,0:0|0:0,0:0:0:0:
340,41,177139,1,0,0:0:0:0:
297,120,177496,2,0,P|296:181|316:231,2,90,2|10|2,0:0|0:0|0:0,0:0:0:0:
296,92,178389,1,0,0:0:0:0:
297,64,178567,6,0,L|234:78,1,45,2|0,0:0|0:0,0:0:0:0:
229,87,178925,2,0,P|177:98|133:87,1,90,8|0,0:0|0:0,0:0:0:0:
51,98,179639,1,0,0:0:0:0:
17,181,179996,1,8,0:0:0:0:
81,244,180353,2,0,L|149:228,1,45,2|2,0:0|3:0,0:0:0:0:
147,247,180710,6,0,L|125:351,2,90,2|8|4,0:0|0:0|0:3,0:0:0:0:
210,183,181782,1,6,0:0:0:0:
292,219,182139,1,8,0:0:0:0:
282,308,182491,1,0,0:0:0:0:
371,303,182844,6,0,L|442:299,1,45,4|0,0:0|0:0,0:0:0:0:
441,309,183197,2,0,P|460:255|445:195,1,90,10|0,0:0|0:0,0:0:0:0:
441,201,183728,1,2,3:0:0:0:
419,184,183907,1,6,0:0:0:0:
329,187,184264,2,0,L|279:182,1,45,8|8,0:0|0:0,0:0:0:0:
257,176,184621,2,0,L|270:119,1,45,2|8,0:0|0:0,0:0:0:0:
283,110,184978,6,0,L|271:7,2,90,4|8|0,0:0|0:0|0:0,0:0:0:0:
218,173,186050,1,2,0:0:0:0:
288,228,186407,1,10,0:0:0:0:
226,293,186764,2,0,L|237:355,1,45,2|0,0:0|0:0,0:0:0:0:
213,354,187121,6,0,L|168:352,2,45,2|0|8,0:0|0:0|0:0,0:0:0:0:
298,325,187835,1,0,0:0:0:0:
387,334,188192,1,0,0:0:0:0:
442,262,188550,1,10,0:0:0:0:
367,211,188907,2,0,L|300:206,1,45,10|10,0:0|0:0,0:0:0:0:
295,204,189264,6,0,P|290:160|288:106,2,90,2|8|0,0:0|0:0|0:0,0:0:0:0:
215,245,190335,2,0,P|198:198|176:155,1,90,2|8,0:0|0:0,0:0:0:0:
159,144,190871,1,2,0:0:0:0:
133,135,191050,2,0,L|59:148,1,45,0|2,0:0|3:0,0:0:0:0:
61,142,191407,5,6,0:0:0:0:
11,66,191764,2,0,L|18:14,1,45,8|0,0:0|0:0,0:0:0:0:
41,10,192121,2,0,L|111:21,1,45,4|4,0:3|0:3,0:0:0:0:
109,28,192478,1,4,0:0:0:0:
190,65,192835,1,8,0:0:0:0:
150,145,193192,2,0,L|166:207,1,45,8|8,0:0|0:2,0:0:0:0:
174,212,193550,6,0,P|252:192|283:189,1,90,4|8,0:0|0:0,0:0:0:0:
283,205,194088,1,0,0:0:0:0:
300,225,194268,1,2,0:1:0:0:
368,282,194627,1,2,0:1:0:0:
452,250,194987,1,10,0:0:0:0:
432,162,195344,2,0,L|426:108,1,45,0|8,1:0|0:0,0:0:0:0:
445,97,195701,6,0,L|439:35,2,45,8|2|8,0:1|0:1|0:0,0:0:0:0:
356,115,196415,2,0,L|261:103,1,90,0|2,0:0|0:3,0:0:0:0:
240,107,196951,1,2,0:1:0:0:
215,117,197129,2,0,L|173:152,1,45,10|0,0:0|0:0,0:0:0:0:
158,161,197487,2,0,L|170:228,1,45,0|10,0:0|0:0,0:0:0:0:
173,231,197844,5,6,0:0:0:0:
135,312,198201,1,8,1:0:0:0:
56,267,198558,2,0,L|50:213,1,45,0|2,0:0|0:0,0:0:0:0:
63,198,198915,2,0,L|43:99,1,90,6|8,0:0|0:0,0:0:0:0:
79,26,199629,1,0,0:0:0:0:
158,68,199987,6,0,L|222:53,2,45,4|0|8,0:0|0:0|0:0,0:0:0:0:
145,157,200701,2,0,L|215:136,1,45,0|8,0:0|0:0,0:0:0:0:
214,148,201058,1,10,0:0:0:0:
281,208,201410,2,0,L|280:268,1,45,10|0,0:0|0:0,0:0:0:0:
267,276,201763,2,0,L|277:348,1,45,0|0,0:0|0:0,0:0:0:0:
291,340,202116,6,0,P|373:336|422:340,1,90,4|8,1:0|0:0,0:0:0:0:
407,339,202651,1,0,0:0:0:0:
432,346,202830,1,2,0:1:0:0:
470,264,203187,1,2,0:0:0:0:
407,198,203544,1,8,0:0:0:0:
407,198,203723,2,0,P|361:214|308:237,1,90,6|8,0:1|0:0,0:0:0:0:
296,237,204258,5,6,0:1:0:0:
224,182,204616,1,8,0:0:0:0:
273,107,204973,2,0,L|269:47,2,45,8|0|4,0:3|0:0|1:3,0:0:0:0:
297,118,205508,1,2,0:3:0:0:
323,122,205687,2,0,L|372:111,1,45,8|4,0:0|0:2,0:0:0:0:
386,93,206044,2,0,L|460:105,1,45,0|8,0:0|0:0,0:0:0:0:
457,103,206401,5,4,0:0:0:0:
477,190,206762,1,8,0:0:0:0:
406,245,207123,2,0,L|324:228,1,45,0|2,0:0|0:3,0:0:0:0:
335,228,207485,2,0,P|285:266|237:288,1,90,8|10,0:3|0:0,0:0:0:0:
234,281,208024,1,4,0:3:0:0:
207,282,208203,1,2,0:0:0:0:
133,229,208560,6,0,L|134:163,2,45,6|0|4,0:0|0:0|0:3,0:0:0:0:
53,272,209274,2,0,L|46:208,1,45,0|8,0:0|0:0,0:0:0:0:
34,203,209626,1,8,0:0:0:0:
97,138,209979,1,8,0:0:0:0:
22,86,210332,2,0,L|26:26,1,45,8|8,0:0|0:0,0:0:0:0:
46,25,210685,5,4,0:0:0:0:
129,58,211044,1,8,0:0:0:0:
113,146,211403,2,0,L|98:206,2,45,0|2|2,0:0|3:0|0:0,0:0:0:0:
194,107,212122,2,0,P|272:115|313:128,1,90,10|0,0:0|0:0,0:0:0:0:
305,133,212657,1,0,0:0:0:0:
326,149,212836,5,0,0:0:0:0:
287,230,213193,2,2,P|274:293|272:335,1,90,10|0,0:0|0:0,0:0:0:0:
276,345,213729,1,2,3:0:0:0:
285,370,213907,2,0,P|358:344|403:336,1,90,4|8,0:2|0:0,0:0:0:0:
383,318,214443,2,0,P|455:335|486:340,1,90,4|2,0:0|0:0,0:0:0:0:
489,317,214979,5,4,0:0:0:0:
446,237,215336,1,8,0:0:0:0:
358,257,215693,2,0,L|294:276,1,45,0|2,1:0|3:0,0:0:0:0:
288,264,216050,2,0,P|274:203|278:153,2,90,4|8|4,0:2|0:0|0:3,0:0:0:0:
205,300,217122,2,0,P|190:237|165:164,1,135,6|2,0:0|0:0,0:0:0:0:
144,155,217836,1,0,0:0:0:0:
82,89,218193,2,0,L|30:108,1,45,4|0,0:0|0:0,0:0:0:0:
22,125,218550,2,0,L|39:172,1,45,8|10,0:3|0:0,0:0:0:0:
52,189,218907,1,8,0:0:0:0:
67,211,219086,1,10,0:0:0:0:
81,233,219264,6,0,L|55:338,1,90,4|8,0:0|0:0,0:0:0:0:
139,362,219979,2,0,L|157:300,1,45,0|0,0:0|0:0,0:0:0:0:
162,294,220336,2,0,P|240:301|284:310,2,90,2|10|2,0:1|0:1|0:0,0:0:0:0:
145,205,221407,2,0,L|202:183,1,45,6|8,0:0|0:3,0:0:0:0:
212,181,221764,1,10,0:1:0:0:
238,175,221943,2,0,P|291:197|377:215,1,135,0|6,0:0|0:0,3:3:0:0:
454,192,222836,1,6,1:1:0:0:
446,102,223193,1,8,1:0:0:0:
372,49,223550,6,0,P|285:62|208:88,1,135,6|2,0:0|0:1,0:0:0:0:
214,82,224264,1,0,0:0:0:0:
149,144,224622,2,0,P|252:197|285:220,1,135,8|4,1:0|0:2,0:0:0:0:
282,230,225336,1,0,0:0:0:0:
242,311,225693,6,0,P|154:345|86:288,1,180,8|4,1:0|0:3,0:0:0:0:
38,225,226764,1,8,0:1:0:0:
101,161,227122,2,0,L|167:172,1,45,8|10,0:1|0:0,0:0:0:0:
169,181,227479,2,0,L|159:113,1,45,10|4,0:0|0:3,0:0:0:0:
154,110,227836,6,0,L|169:8,2,90,4|8|4,0:0|0:0|0:2,0:0:0:0:
210,180,228907,2,0,L|316:151,1,90,4|10,0:0|0:0,0:0:0:0:
323,152,229443,1,4,0:2:0:0:
349,146,229622,1,0,0:0:0:0:
411,210,229979,6,0,L|390:322,2,90,4|8|8,0:0|0:0|0:3,0:0:0:0:
333,164,231050,1,4,0:3:0:0:
248,193,231407,1,8,0:0:0:0:
202,270,231764,2,0,L|219:339,1,45,0|2,0:0|0:3,0:0:0:0:
192,331,232122,6,0,P|126:356|33:317,1,135,4|8,0:0|1:0,0:0:0:0:
44,324,232836,1,0,0:0:0:0:
71,238,233193,2,0,L|130:251,2,45,4|2|8,0:3|0:3|0:0,0:0:0:0:
6,174,233907,2,0,L|10:118,1,45,0|2,0:0|0:3,0:0:0:0:
23,106,234264,6,0,L|132:120,1,90,4|0,0:0|0:0,0:0:0:0:
139,119,234800,1,12,0:0:0:0:
165,120,234979,1,0,0:0:0:0:
247,83,235336,1,8,0:0:0:0:
247,83,235514,2,0,L|337:106,1,90,0|2,0:0|0:0,0:0:0:0:
352,125,236050,2,0,L|437:115,1,45,4|8,0:3|0:0,0:0:0:0:
422,127,236407,5,4,0:0:0:0:
493,72,236764,1,8,0:0:0:0:
421,16,237122,2,0,L|368:13,2,45,2|0|4,0:0|0:0|0:3,0:0:0:0:
466,93,237836,1,10,0:0:0:0:
466,93,238014,2,0,P|461:165|434:206,1,90,2|2,0:0|0:0,0:0:0:0:
432,197,238550,6,0,L|331:182,1,90,6|8,0:0|0:0,0:0:0:0:
255,206,239264,1,8,1:0:0:0:
217,287,239622,2,0,L|230:343,2,45,2|0|8,0:0|0:0|0:0,0:0:0:0:
196,268,240157,2,0,P|113:268|67:284,1,90,2|8,0:0|0:0,0:0:0:0:
81,279,240693,5,4,0:0:0:0:
15,217,241050,1,8,0:0:0:0:
88,165,241407,2,0,L|83:95,1,45,0|2,0:0|0:3,0:0:0:0:
88,93,241764,1,4,0:0:0:0:
165,46,242122,1,8,0:0:0:0:
236,101,242479,2,0,L|224:169,1,45,0|4,0:0|0:2,0:0:0:0:
215,169,242836,6,0,L|231:278,2,90,6|8|0,0:0|0:0|1:0,0:0:0:0:
272,99,243907,2,0,L|349:108,1,45,4|0,0:0|0:0,0:0:0:0:
341,92,244264,2,0,L|413:109,1,45,8|8,0:0|0:0,0:0:0:0:
408,114,244622,1,10,0:0:0:0:
434,116,244800,1,10,0:0:0:0:
460,115,244979,5,4,0:0:0:0:
