osu file format v14

[General]
AudioFilename: audio.mp3
AudioLeadIn: 0
PreviewTime: 54261
Countdown: 0
SampleSet: Normal
StackLeniency: 0.7
Mode: 0
LetterboxInBreaks: 0
WidescreenStoryboard: 1

[Editor]
DistanceSpacing: 0.9
BeatDivisor: 4
GridSize: 4
TimelineZoom: 1.499999

[Metadata]
Title:lilac slumber -cosmic ver.-
TitleUnicode:lilac slumber -cosmic ver.-
Artist:Annabel
ArtistUnicode:Annabel
Creator:PandaHero
Version:hard
Source:
Tags:gibune delis shirohamymommy mirash gardener japanese pop jpop j-pop art dream jazz chamber アナベル あなべる cosmic gardener 田口囁一 shouichi taguchi fa featured artist
BeatmapID:3309170
BeatmapSetID:1593278

[Difficulty]
HPDrainRate:5
CircleSize:3.8
OverallDifficulty:7
ApproachRate:8
SliderMultiplier:1.4
SliderTickRate:1

[Events]
//Background and Video events
0,0,"EV3k8LrUMAAfrjV.jpg",0,0
//Break Periods
//Storyboard Layer 0 (Background)
//Storyboard Layer 1 (Fail)
//Storyboard Layer 2 (Pass)
//Storyboard Layer 3 (Foreground)
//Storyboard Layer 4 (Overlay)
//Storyboard Sound Samples

[TimingPoints]
703,357.142857142857,6,2,1,35,1,0
703,-200,6,2,1,35,0,0
4975,-200,6,2,1,35,0,0
9261,-133.333333333333,6,2,1,35,0,0
13547,-200,6,2,1,35,0,0
17832,-200,6,2,1,30,0,0
25689,-200,6,2,1,50,0,0
26404,-133.333333333333,6,2,1,50,0,0
51047,-133.333333333333,6,2,1,55,0,0
52118,-133.333333333333,6,2,1,60,0,0
54261,-100,6,1,1,70,0,0
71404,-100,6,1,1,65,0,0
78814,-100,6,2,1,10,0,0
78904,-100,6,1,1,65,0,0
79082,-100,6,2,1,50,0,0
79261,-100,6,1,1,65,0,0
79439,-100,6,2,1,50,0,0
79618,-100,6,1,1,65,0,0
79975,-133.333333333333,6,2,1,60,0,0
88547,365.853658536585,6,2,1,50,1,0
88547,-133.333333333333,6,2,1,50,0,0
90724,352.941176470588,6,2,1,50,1,0
90724,-133.333333333333,4,2,1,50,0,0
92135,357.142857142857,6,2,1,50,1,0
92135,-133.333333333333,4,2,1,50,0,0
92849,357.142857142857,6,2,1,50,1,0
92849,-133.333333333333,6,2,1,50,0,0
93563,361.44578313253,6,2,1,50,1,0
93563,-133.333333333333,4,2,1,50,0,0
95008,352.941176470588,6,2,1,50,1,0
95008,-133.333333333333,4,2,1,50,0,0
96419,357.142857142857,6,2,1,50,1,0
96419,-133.333333333333,4,2,1,50,0,0
97133,357.142857142857,6,2,1,50,1,0
97133,-133.333333333333,6,2,1,50,0,0
97847,352.941176470588,6,2,1,50,1,0
97847,-133.333333333333,4,2,1,50,0,0
99258,357.142857142857,6,2,1,50,1,0
99258,-133.333333333333,4,2,1,50,0,0
100686,365.853658536585,6,2,1,50,1,0
100686,-133.333333333333,4,2,1,50,0,0
101417,357.142857142857,6,2,1,50,1,0
101417,-133.333333333333,4,2,1,50,0,0
102489,361.44578313253,6,2,1,50,1,0
102489,-133.333333333333,4,2,1,50,0,0
103573,363.636363636364,6,2,1,50,1,0
103573,-133.333333333333,4,2,1,50,0,0
104663,340.909090909091,6,2,1,50,1,0
105684,363.636363636364,6,2,1,50,1,0
105684,-200,6,2,1,45,0,0
107138,348.837209302326,6,2,1,45,1,0
107138,-200,4,2,1,45,0,0
107835,361.44578313253,6,2,1,45,1,0
107835,-200,4,2,1,45,0,0
108557,357.142857142857,6,2,1,45,1,0
108557,-200,4,2,1,45,0,0
109985,357.142857142857,6,2,1,45,1,0
109985,-200,6,2,1,45,0,0
111414,352.941176470588,6,2,1,45,1,0
111414,-200,4,2,1,45,0,0
112119,352.941176470588,6,2,1,45,1,0
112119,-200,6,2,1,45,0,0
112825,361.44578313253,6,2,1,45,1,0
112825,-200,4,2,1,45,0,0
114270,357.142857142857,6,2,1,45,1,0
114270,-200,6,2,1,45,0,0
116404,-200,6,2,1,50,0,0
118555,361.44578313253,6,2,1,55,1,0
118555,-200,6,2,1,55,0,0
120362,352.941176470588,6,2,1,55,1,0
120362,-200,4,2,1,55,0,0
120714,352.941176470588,6,2,1,55,1,0
120714,-133.333333333333,6,2,1,60,0,0
121420,356.083086053412,6,2,1,60,1,0
121420,-133.333333333333,4,2,1,60,0,0
122844,356.083086053412,6,2,1,60,1,0
122844,-133.333333333333,6,2,1,65,0,0
124980,357.142857142857,6,1,1,70,1,0
124980,-100,6,1,1,70,0,0
142118,-100,6,1,1,65,0,0
159261,-100,6,1,1,65,0,0
163547,-100,6,1,1,65,0,0
174980,361.44578313253,6,1,1,65,1,0
176425,357.142857142857,6,1,1,70,1,0
176425,-100,6,1,1,70,0,0
182139,352.941176470588,6,1,1,70,1,0
182844,352.941176470588,6,1,1,70,1,0
183550,357.142857142857,6,1,1,70,1,0
193550,359.281437125748,6,1,1,75,1,0
193550,-90.9090909090909,6,1,1,75,0,0
194987,357.142857142857,6,1,1,75,1,0
194987,-90.9090909090909,4,1,1,75,0,0
195701,357.142857142857,6,1,1,75,1,0
195701,-90.9090909090909,4,1,1,75,0,0
201058,352.941176470588,6,1,1,75,1,0
201058,-90.9090909090909,4,1,1,75,0,0
202116,357.142857142857,6,1,1,75,1,0
202116,-90.9090909090909,4,1,1,75,0,0
206401,361.44578313253,6,1,1,75,1,0
206401,-90.9090909090909,4,1,1,75,0,0
207846,357.142857142857,6,1,1,75,1,0
207846,-90.9090909090909,4,1,1,75,0,0
208560,357.142857142857,6,1,1,75,1,0
208560,-90.9090909090909,4,1,1,75,0,0
209274,352.941176470588,6,1,1,75,1,0
209274,-90.9090909090909,4,1,1,75,0,0
210685,359.281437125748,6,1,1,70,1,0
210685,-90.9090909090909,6,1,1,70,0,0
212122,357.142857142857,6,1,1,70,1,0
212122,-90.9090909090909,4,1,1,70,0,0
212836,357.142857142857,6,1,1,70,1,0
212836,-90.9090909090909,4,1,1,70,0,0
227832,-90.9090909090909,6,1,1,65,0,0
244975,-100,6,2,1,50,0,0

[Colours]
Combo1 : 225,225,225
Combo2 : 152,147,204
Combo3 : 154,199,152

[HitObjects]
108,107,703,6,0,L|35:129,2,70,4|0|0,1:0|0:0|0:0,0:0:0:0:
206,108,1774,2,0,P|187:155|179:187,1,70,2|0,1:3|0:0,0:0:0:0:
163,262,2488,1,0,0:0:0:0:
241,342,2845,6,0,P|296:324|313:320,2,70,4|0|0,1:2|0:0|3:0,0:0:0:0:
314,236,3917,1,2,0:3:0:0:
408,269,4274,1,0,3:0:0:0:
415,362,4631,2,0,L|392:358,3,17.5,0|0|0|0,0:0|0:0|0:0|0:0,0:0:0:0:
449,349,4988,6,0,P|439:322|431:271,1,70,4|0,1:0|0:0,0:0:0:0:
452,205,5524,1,0,3:0:0:0:
292,26,5881,1,0,1:0:0:0:
230,71,6060,2,0,P|244:117|251:153,1,70,2|2,1:3|0:0,0:0:0:0:
196,197,6595,1,0,1:0:0:0:
18,66,6952,5,0,3:0:0:0:
18,66,7131,2,0,P|66:58|102:56,1,70,2|0,1:3|3:0,0:0:0:0:
148,107,7667,1,2,0:0:0:0:
148,107,7845,2,0,L|133:155,1,35,0|2,0:0|0:0,0:0:0:0:
85,195,8202,2,0,P|98:237|107:271,1,70,4|0,1:2|0:0,0:0:0:0:
172,301,8738,1,8,1:3:0:0:
172,301,8917,2,0,L|214:286,1,35,4|0,0:3|3:0,0:0:0:0:
271,241,9274,6,0,P|325:255|381:268,1,105.000004005432,4|0,1:0|0:0,0:0:0:0:
426,213,9810,1,0,3:0:0:0:
426,213,9988,2,0,P|398:196|374:189,1,52.5000020027161,2|0,0:0|0:0,0:0:0:0:
338,121,10345,2,0,P|310:138|286:145,2,52.5000020027161,8|0|0,1:0|0:0|0:0,0:0:0:0:
391,62,10881,2,0,P|419:79|443:86,2,52.5000020027161,8|2|0,0:1|0:0|1:0,0:0:0:0:
325,20,11417,6,0,P|270:37|221:75,1,105.000004005432,2|8,1:3|1:0,0:0:0:0:
182,125,11952,1,0,1:0:0:0:
244,173,12131,1,0,0:0:0:0:
212,245,12310,1,0,1:0:0:0:
135,226,12488,2,0,L|72:222,1,52.5000020027161,8|0,1:0|0:0,0:0:0:0:
23,275,12845,2,0,L|42:330,1,52.5000020027161,2|8,0:0|1:3,0:0:0:0:
102,372,13202,2,0,L|162:357,1,52.5000020027161,4|0,1:3|0:0,0:0:0:0:
208,294,13560,6,0,P|261:300|319:369,1,140,4|2,1:0|0:0,0:0:0:0:
372,264,14631,2,0,P|362:216|354:151,2,105,8|8|0,0:0|0:0|1:0,0:0:0:0:
435,311,15881,1,0,0:0:0:0:
486,220,16238,1,0,1:0:0:0:
486,220,16417,2,0,L|488:172,1,35,2|0,0:0|1:0,0:0:0:0:
464,112,16774,1,8,0:0:0:0:
464,112,16952,2,0,P|397:127|381:159,1,105,0|2,1:0|0:0,0:0:0:0:
287,227,17845,5,0,1:0:0:0:
287,227,18560,2,0,L|203:215,1,70,2|2,0:0|0:0,0:0:0:0:
17,26,19631,2,0,L|59:30,1,35,0|2,0:0|0:0,0:0:0:0:
106,89,19988,6,0,P|94:122|80:200,1,105,0|2,1:0|0:0,0:0:0:0:
75,283,20881,1,0,3:0:0:0:
75,283,21060,2,0,P|118:273|146:274,2,70,0|0|2,1:0|3:0|0:0,0:0:0:0:
10,320,21952,1,0,0:0:0:0:
5,237,22131,6,0,L|4:164,1,70,0|2,1:0|0:0,0:0:0:0:
67,49,22845,2,0,L|108:58,1,35,0|2,0:0|0:0,0:0:0:0:
191,40,23202,2,0,P|228:65|256:81,2,70,0|2|0,1:0|0:0|0:0,0:0:0:0:
159,164,24274,1,0,1:0:0:0:
269,236,24631,1,2,0:0:0:0:
354,140,24988,1,0,0:0:0:0:
288,47,25345,5,0,3:0:0:0:
288,47,25524,1,0,3:0:0:0:
288,47,25702,2,0,L|246:71,1,35,2|0,0:3|0:0,0:0:0:0:
299,130,26060,2,0,L|333:110,1,35,0|0,0:0|0:0,0:0:0:0:
401,76,26417,6,0,P|441:88|503:122,1,105.000004005432,4|0,1:2|0:0,0:0:0:0:
488,198,26952,1,0,0:0:0:0:
488,198,27131,2,0,L|427:189,1,52.5000020027161,2|0,0:0|0:0,0:0:0:0:
381,248,27488,2,0,P|306:237|263:237,1,105.000004005432,8|0,1:2|0:0,0:0:0:0:
238,304,28024,2,0,P|163:315|120:315,1,105.000004005432,8|0,0:0|1:0,0:0:0:0:
64,271,28560,6,0,P|96:233|139:193,2,105.000004005432,0|0|2,1:0|0:0|0:3,0:0:0:0:
70,125,29631,2,0,L|46:60,1,52.5000020027161,8|0,1:2|0:0,0:0:0:0:
118,31,29988,2,0,L|145:100,1,52.5000020027161,0|8,0:0|1:2,0:0:0:0:
194,132,30345,1,0,0:0:0:0:
269,108,30524,1,0,1:0:0:0:
251,31,30702,6,0,L|242:136,1,105.000004005432,0|0,1:0|0:0,0:0:0:0:
190,195,31238,1,0,0:0:0:0:
190,195,31417,2,0,L|190:263,1,52.5000020027161,0|0,1:0|3:0,0:0:0:0:
260,282,31774,2,0,L|268:222,2,52.5000020027161,8|0|0,1:2|0:0|0:0,0:0:0:0:
237,357,32310,1,8,0:0:0:0:
241,361,32488,2,0,L|297:358,1,52.5000020027161,0|0,0:0|0:0,0:0:0:0:
356,310,32845,6,0,P|427:329|465:333,1,105.000004005432,0|2,1:0|1:3,0:0:0:0:
498,264,33381,1,0,0:0:0:0:
458,195,33560,1,0,0:0:0:0:
379,196,33738,1,0,0:0:0:0:
324,253,33917,2,0,P|341:324|346:368,1,105.000004005432,8|2,1:2|1:3,0:0:0:0:
268,374,34452,1,0,1:0:0:0:
231,304,34631,2,0,P|228:248|227:209,1,78.7500030040742,4|0,1:3|0:0,0:0:0:0:
207,191,34988,6,0,P|153:218|85:232,1,105.000004005432,4|0,1:0|0:0,0:0:0:0:
44,185,35524,2,0,P|64:132|93:85,1,105.000004005432,2|0,0:3|1:0,0:0:0:0:
165,73,36060,2,0,L|209:137,2,52.5000020027161,8|0|0,1:0|0:0|3:1,0:0:0:0:
104,23,36595,2,0,P|57:40|41:110,1,105.000004005432,2|0,0:3|0:0,0:0:0:0:
43,167,37131,5,0,1:0:0:0:
101,219,37310,2,0,L|223:192,1,105.000004005432,0|0,0:0|1:0,0:0:0:0:
265,245,37845,2,0,L|338:255,1,52.5000020027161,0|0,0:0|0:0,0:0:0:0:
345,325,38202,2,0,L|286:329,2,52.5000020027161,8|0|0,1:0|1:0|0:0,0:0:0:0:
414,286,38738,2,0,L|473:290,2,52.5000020027161,0|0|0,1:0|1:0|0:0,0:0:0:0:
377,215,39274,6,0,P|385:161|408:96,1,105.000004005432,4|0,0:0|0:0,0:0:0:0:
471,79,39810,1,0,0:0:0:0:
471,79,39988,2,0,P|464:31|459:7,1,52.5000020027161,0|0,0:0|0:0,0:0:0:0:
385,35,40345,2,0,L|272:58,1,105.000004005432,8|0,1:0|0:0,0:0:0:0:
228,114,40881,1,0,0:0:0:0:
151,94,41060,1,2,0:0:0:0:
80,128,41238,1,0,0:0:0:0:
77,206,41417,6,0,L|127:192,2,52.5000020027161,2|0|0,0:0|1:0|1:0,0:0:0:0:
8,173,41952,2,0,P|10:138|25:64,1,105.000004005432,8|8,0:0|0:0,0:0:0:0:
90,28,42488,2,0,L|141:57,1,52.5000020027161,4|0,1:2|0:0,0:0:0:0:
210,78,42845,2,0,L|217:140,1,52.5000020027161,0|0,0:0|3:0,0:0:0:0:
165,191,43202,2,0,P|181:239|188:278,1,78.7500030040742,0|0,1:0|3:0,0:0:0:0:
193,306,43560,5,0,1:0:0:0:
261,344,43738,1,0,0:0:0:0:
312,284,43917,2,0,L|326:164,1,105.000004005432,0|8,1:0|0:3,0:0:0:0:
379,123,44452,1,0,0:0:0:0:
447,162,44631,2,0,L|508:173,1,52.5000020027161,8|0,1:0|0:0,0:0:0:0:
495,250,44988,2,0,L|430:237,1,52.5000020027161,0|0,3:0|0:0,0:0:0:0:
366,256,45345,5,0,1:0:0:0:
308,310,45524,1,0,1:0:0:0:
269,241,45702,2,0,L|272:182,1,52.5000020027161,0|0,0:0|1:0,0:0:0:0:
324,129,46060,2,0,L|327:70,1,52.5000020027161,0|0,1:0|3:0,0:0:0:0:
256,38,46417,2,0,L|177:57,1,78.7500030040742,0|0,1:0|0:0,0:0:0:0:
152,84,46774,6,0,L|81:78,1,52.5000020027161,8|2,1:0|0:0,0:0:0:0:
52,142,47131,2,0,L|-10:135,1,52.5000020027161,0|0,3:0|1:0,0:0:0:0:
55,228,47488,2,0,L|141:218,1,78.7500030040742,2|0,1:3|0:0,0:0:0:0:
166,239,47845,6,0,L|153:306,1,52.5000020027161,4|8,1:2|1:2,0:0:0:0:
229,319,48202,2,0,L|215:369,1,52.5000020027161,0|8,0:0|1:2,0:0:0:0:
308,319,48560,2,0,P|307:258|310:220,1,78.7500030040742,2|0,1:2|0:0,0:0:0:0:
317,201,48917,6,0,L|383:213,1,52.5000020027161,8|0,1:0|0:0,0:0:0:0:
453,135,49274,2,0,L|392:136,1,52.5000020027161,2|0,0:0|0:0,0:0:0:0:
316,46,49631,2,0,L|406:58,1,78.7500030040742,4|0,1:3|0:0,0:0:0:0:
433,48,49988,6,0,P|457:139|472:209,1,157.500006008148,4|0,1:0|0:0,0:0:0:0:
414,256,50702,2,0,L|382:200,1,52.5000020027161,0|0,0:0|1:0,0:0:0:0:
312,186,51060,2,0,L|257:202,2,52.5000020027161,8|2|0,1:0|0:0|1:0,0:0:0:0:
202,274,51595,2,0,L|257:290,2,52.5000020027161,8|8|0,1:0|1:3|3:0,0:0:0:0:
158,175,52131,6,0,L|103:191,2,52.5000020027161,4|0|0,1:0|0:0|1:0,0:0:0:0:
48,263,52667,2,0,L|103:279,2,52.5000020027161,8|0|0,1:0|0:0|3:0,0:0:0:0:
19,183,53202,5,4,1:3:0:0:
26,104,53381,1,0,1:0:0:0:
90,57,53560,1,8,1:0:0:0:
164,81,53738,1,8,1:0:0:0:
179,158,53917,1,4,1:2:0:0:
179,158,54274,6,0,P|155:257|154:308,1,140,4|8,0:0|0:0,0:0:0:0:
232,348,54810,2,0,P|237:316|244:247,2,70,0|0|2,2:0|0:0|0:3,0:0:0:0:
328,316,55345,2,2,P|317:266|304:189,1,105,2|0,0:0|2:0,0:0:0:0:
300,185,55702,2,0,P|363:220|388:227,1,70,10|0,0:0|2:0,0:0:0:0:
438,165,56060,2,0,P|375:130|350:123,1,70,2|8,0:0|0:0,0:0:0:0:
354,115,56327,1,0,0:0:0:0:
328,103,56417,5,2,0:0:0:0:
315,14,56595,1,0,0:0:0:0:
397,42,56774,1,8,0:0:0:0:
328,103,56952,1,0,0:0:0:0:
247,77,57131,2,0,L|155:65,1,70
105,141,57488,2,0,L|197:153,1,70,2|0,0:3|0:0,0:0:0:0:
251,180,57845,1,8,0:0:0:0:
180,231,58024,1,2,0:0:0:0:
254,274,58202,2,0,L|233:343,1,70,0|2,0:0|0:0,0:0:0:0:
145,360,58560,6,0,P|78:321|24:309,1,105,4|0,0:2|2:0,0:0:0:0:
25,304,58917,2,0,P|25:254|28:220,1,70,8|2,0:0|0:0,0:0:0:0:
103,147,59274,2,0,P|103:197|106:231,1,70,0|0,0:0|0:0,0:0:0:0:
12,138,59631,2,0,P|9:103|10:68,2,70,2|0|8,0:0|0:0|0:0,0:0:0:0:
103,147,60167,1,2,0:0:0:0:
163,95,60345,1,0,0:0:0:0:
111,33,60524,1,0,0:0:0:0:
111,33,60613,1,0,0:0:0:0:
111,33,60702,6,0,L|33:45,1,70,2|2,0:0|0:3,0:0:0:0:
134,115,61060,2,0,P|176:106|246:82,1,105,8|0,0:0|2:0,0:0:0:0:
263,87,61417,1,2,0:3:0:0:
324,144,61595,1,2,0:0:0:0:
264,204,61774,2,0,L|252:282,1,70,2|0,0:0|0:0,0:0:0:0:
331,342,62131,2,0,L|345:253,1,70,10|0,0:0|0:0,0:0:0:0:
421,217,62488,2,0,L|428:304,1,70,2|8,0:0|0:0,0:0:0:0:
438,312,62756,1,8,0:0:0:0:
454,334,62845,5,4,0:0:0:0:
503,263,63024,1,0,0:0:0:0:
451,199,63202,2,0,L|355:217,1,70,8|0,0:0|0:0,0:0:0:0:
325,155,63560,2,0,L|247:196,1,70,0|2,0:0|3:0,0:0:0:0:
198,240,63917,2,0,P|221:293|227:362,1,105,2|0,0:0|2:0,0:0:0:0:
209,361,64274,2,0,P|162:358|125:339,1,70,10|0,0:0|2:0,0:0:0:0:
59,316,64631,2,0,P|58:269|47:222,1,70,2|8,0:0|0:0,0:0:0:0:
52,217,64899,1,8,0:0:0:0:
48,189,64988,5,2,0:0:0:0:
7,103,65167,1,0,0:0:0:0:
60,35,65345,1,8,0:0:0:0:
142,62,65524,1,2,0:0:0:0:
151,149,65702,2,0,L|138:228,1,70
222,266,66060,2,0,L|234:186,1,70,2|2,0:0|0:3,0:0:0:0:
268,119,66417,2,0,L|353:139,2,70,8|0|0,0:0|0:0|0:0,0:0:0:0:
253,27,66952,1,8,0:0:0:0:
253,27,67042,1,8,0:0:0:0:
253,27,67131,6,0,P|313:42|399:24,1,140,6|0,0:0|0:0,0:0:0:0:
466,97,67667,2,0,P|457:135|454:169,2,70,2|0|0,0:0|0:0|0:0,0:0:0:0:
366,137,68202,2,0,P|375:203|381:259,1,105,2|0,0:0|2:0,0:0:0:0:
365,265,68560,1,8,0:0:0:0:
289,315,68738,1,0,0:0:0:0:
247,236,68917,2,0,P|242:191|239:156,1,70,2|2,0:3|3:0,0:0:0:0:
163,125,69274,5,6,0:0:0:0:
86,171,69452,1,0,0:0:0:0:
154,218,69631,2,0,L|147:292,1,70
69,349,69988,2,0,L|53:268,1,70,2|2,0:0|0:3,0:0:0:0:
36,189,70345,6,0,P|23:122|19:57,1,105,6|0,0:0|2:0,0:0:0:0:
25,58,70702,1,8,0:0:0:0:
102,19,70881,1,2,0:0:0:0:
113,105,71060,1,2,0:0:0:0:
193,165,71238,1,10,0:0:0:0:
193,165,71327,1,8,0:0:0:0:
193,165,71417,6,0,P|264:163|291:100,1,140,4|8,1:0|1:0,0:0:0:0:
345,34,71952,1,0,3:0:0:0:
345,34,72131,2,0,L|411:54,1,70,0|0,1:0|3:0,0:0:0:0:
476,117,72488,2,0,L|460:198,1,70,2|0,1:0|0:0,0:0:0:0:
387,240,72845,2,0,L|301:220,1,70,10|0,1:0|0:0,0:0:0:0:
246,165,73202,5,2,1:0:0:0:
315,110,73381,1,0,3:0:0:0:
315,110,73470,1,0,0:0:0:0:
315,110,73560,1,2,1:0:0:0:
236,61,73738,1,0,0:0:0:0:
246,165,73917,2,0,L|225:244,1,70,8|2,0:0|1:0,0:0:0:0:
140,250,74274,2,0,L|155:175,1,70,0|8,0:0|0:0,0:0:0:0:
61,318,74631,6,0,L|47:233,2,70,0|12|8,1:0|1:0|1:0,0:0:0:0:
133,363,75167,1,0,0:0:0:0:
215,335,75345,1,4,1:3:0:0:
193,253,75524,1,8,1:0:0:0:
193,253,75613,1,8,1:0:0:0:
193,253,75702,6,0,P|132:229|150:147,1,140,4|8,1:1|1:0,0:0:0:0:
220,130,76238,1,0,0:0:0:0:
220,130,76417,2,0,L|317:164,1,70,0|0,1:3|0:0,0:0:0:0:
296,64,76774,2,0,L|207:34,2,70,2|0|8,1:0|0:0|1:0,0:0:0:0:
376,104,77310,2,0,P|366:176|364:263,1,140,6|0,1:0|1:0,0:0:0:0:
289,314,77845,6,0,P|275:243|254:183,1,105,6|0,1:0|0:0,0:0:0:0:
245,191,78202,2,0,L|179:217,1,70,8|6,1:0|1:0,0:0:0:0:
151,216,78470,1,0,0:0:0:0:
122,212,78560,1,0,0:0:0:0:
46,182,78738,1,0,1:0:0:0:
120,129,78917,6,0,L|106:54,1,70,8|4,1:0|1:3,0:0:0:0:
14,30,79274,2,0,L|28:105,1,70,8|2,1:3|1:0,0:0:0:0:
46,182,79631,2,0,L|33:271,1,70,10|2,1:0|1:3,0:0:0:0:
68,340,79988,6,0,P|122:336|172:240,1,157.500006008148,4|4,1:0|0:2,0:0:0:0:
165,179,80702,1,0,0:0:0:0:
425,35,81060,6,0,P|371:39|321:135,1,157.500006008148,0|0,1:0|3:0,0:0:0:0:
331,197,81774,1,0,3:0:0:0:
408,233,81952,1,0,3:0:0:0:
408,233,82042,1,0,3:0:0:0:
408,233,82131,6,0,L|529:209,1,105.000004005432,4|0,1:2|0:0,0:0:0:0:
485,296,82667,2,0,L|359:318,1,105.000004005432,2|0,0:3|1:0,0:0:0:0:
302,358,83202,6,0,L|203:346,2,78.7500030040742,8|8|8,0:0|0:0|0:0,0:0:0:0:
312,282,83917,1,0,1:0:0:0:
263,220,84095,1,0,0:0:0:0:
263,220,84185,1,0,0:0:0:0:
263,220,84274,6,0,P|208:235|148:259,1,105.000004005432,4|0,1:0|0:0,0:0:0:0:
86,244,84810,1,2,0:0:0:0:
86,244,84988,2,0,L|75:173,1,52.5000020027161,0|0,0:0|3:0,0:0:0:0:
7,261,85345,2,0,L|19:333,1,52.5000020027161,0|8,0:0|0:0,0:0:0:0:
61,371,85702,1,0,0:0:0:0:
135,351,85881,1,0,1:0:0:0:
141,272,86060,1,0,0:0:0:0:
211,237,86238,1,0,1:0:0:0:
156,177,86417,6,0,L|164:108,2,52.5000020027161,0|0|0,1:0|1:0|0:0,0:0:0:0:
248,117,86952,2,0,L|242:45,2,52.5000020027161,2|0|0,0:0|3:0|3:0,0:0:0:0:
329,168,87488,1,2,0:3:0:0:
329,168,88547,6,0,P|405:151|488:147,2,157.500006008148,4|0|8,1:2|1:0|1:0,0:0:0:0:
329,168,90193,1,0,1:0:0:0:
253,140,90376,2,0,P|232:108|224:75,1,52.5000020027161,2|0,0:0|0:0,0:0:0:0:
284,33,90724,6,0,L|269:206,2,157.500006008148,0|0|8,1:0|1:0|1:0,0:0:0:0:
211,18,91959,1,2,1:2:0:0:
211,18,92135,2,0,L|148:38,1,52.5000020027161,0|0,0:0|1:0,0:0:0:0:
115,98,92492,2,0,L|50:97,1,52.5000020027161,2|2,0:0|0:0,0:0:0:0:
25,191,92849,5,0,1:0:0:0:
99,195,93027,1,0,0:2:0:0:
136,263,93206,2,0,L|117:367,1,105.000004005432,2|0,0:0|1:0,0:0:0:0:
42,348,93743,1,2,0:0:0:0:
44,270,93924,2,0,L|34:201,1,52.5000020027161,8|0,1:0|0:0,0:0:0:0:
93,163,94285,2,0,L|82:92,2,52.5000020027161,0|0|0,0:0|1:0|0:0,0:0:0:0:
242,357,95008,5,0,1:0:0:0:
315,327,95184,1,0,0:0:0:0:
308,252,95360,1,2,0:0:0:0:
239,214,95537,1,0,1:0:0:0:
172,262,95713,2,0,L|224:290,1,52.5000020027161,0|2,0:0|1:2,0:0:0:0:
239,214,96066,2,0,P|241:169|250:100,1,105.000004005432,8|0,1:0|0:0,0:0:0:0:
292,44,96597,2,0,L|361:64,2,52.5000020027161,2|0|0,1:3|0:0|0:0,0:0:0:0:
362,140,97133,6,0,P|424:136|476:54,1,157.500006008148,0|0,1:0|1:0,0:0:0:0:
418,10,97847,2,0,L|364:18,1,52.5000020027161,2|0,0:0|0:0,0:0:0:0:
292,44,98199,2,0,P|286:99|281:153,1,105.000004005432,8|2,1:0|0:0,0:0:0:0:
204,129,98729,1,4,1:3:0:0:
204,129,98905,2,0,L|202:65,1,52.5000020027161,2|0,0:0|0:0,0:0:0:0:
157,191,99258,6,0,L|134:349,2,157.500006008148,0|8|8,1:0|1:3|1:0,0:0:0:0:
129,117,100508,1,0,0:0:0:0:
51,108,100686,1,2,0:0:0:0:
19,181,100868,1,8,1:0:0:0:
66,240,101051,2,0,L|105:224,2,35.0000013351441,0|0|0,1:0|0:0|0:0,0:0:0:0:
33,233,101417,6,0,L|47:170,1,52.5000020027161,0|2,1:0|0:0,0:0:0:0:
100,132,101774,2,0,P|102:91|89:9,1,105.000004005432,2|0,0:0|0:0,0:0:0:0:
173,24,102309,1,0,0:0:0:0:
173,24,102489,2,0,L|239:33,1,52.5000020027161,8|0,1:0|0:0,0:0:0:0:
296,119,102850,2,0,P|246:113|185:108,1,105.000004005432,2|0,0:0|0:0,0:0:0:0:
146,169,103392,1,0,0:0:0:0:
185,247,103573,6,0,L|240:233,1,52.5000020027161,4|0,1:2|0:0,0:0:0:0:
296,187,103936,2,0,L|346:199,1,52.5000020027161,2|0,0:0|1:0,0:0:0:0:
406,251,104300,2,0,L|461:237,1,52.5000020027161,0|0,0:0|1:0,0:0:0:0:
503,304,104663,5,8,1:0:0:0:
443,346,104833,1,0,1:0:0:0:
371,330,105003,1,8,1:3:0:0:
329,269,105174,1,0,1:0:0:0:
342,196,105344,1,8,1:3:0:0:
395,144,105515,1,8,0:3:0:0:
356,77,105684,6,0,L|174:108,1,175,4|0,0:0|1:0,0:0:0:0:
125,51,106774,2,0,L|44:69,1,70,0|0,3:0|1:0,0:0:0:0:
25,150,107312,1,8,1:0:0:0:
25,150,107486,2,0,L|70:139,1,35
117,199,107835,6,0,L|192:184,2,70,2|0|0,1:3|1:0|1:0,0:0:0:0:
92,291,108914,2,0,L|8:309,2,70,8|0|0,1:0|1:0|1:0,0:0:0:0:
195,299,109985,6,2,B|277:293|254:362|367:359,1,175,4|0,1:0|0:0,0:0:0:0:
428,340,111057,2,0,L|415:293,2,35,2|2|4,1:3|3:0|0:0,0:0:0:0:
333,213,111766,6,0,L|327:264,2,35,0|0|4,1:0|0:0|1:2,0:0:0:0:
399,104,112472,1,0,1:0:0:0:
474,138,112649,1,12,1:0:0:0:
474,138,113005,1,2,0:0:0:0:
473,61,113186,1,0,1:0:0:0:
330,43,113547,1,4,0:3:0:0:
276,162,113909,2,0,L|296:182,2,23.3333333333333,8|8|8,0:3|0:3|0:3,0:0:0:0:
249,155,114270,6,0,L|106:157,1,140,4|0,1:0|1:0,0:0:0:0:
51,214,115162,1,8,0:3:0:0:
51,214,115341,2,0,L|61:261,2,35,2|8|0,0:0|1:0|1:0,0:0:0:0:
143,288,116055,1,8,0:3:0:0:
143,288,116234,1,0,1:0:0:0:
143,288,116412,6,0,L|115:362,2,70,4|0|0,1:0|1:0|1:0,0:0:0:0:
215,227,117484,2,0,L|234:298,2,70,0|0|8,1:0|3:0|0:2,0:0:0:0:
208,151,118377,1,8,1:2:0:0:
284,175,118555,6,0,L|364:183,2,70,4|0|0,1:0|0:0|1:0,0:0:0:0:
221,98,119639,2,0,L|143:113,2,70,8|0|2,1:0|3:0|1:3,0:0:0:0:
287,30,120714,6,0,L|446:50,1,157.500006008148,4|0,1:2|0:0,0:0:0:0:
495,110,121420,2,0,L|477:165,1,52.5000020027161,0|2,1:0|0:0,0:0:0:0:
408,196,121776,6,0,P|414:241|425:300,1,105.000004005432,8|8,1:3|0:3,0:0:0:0:
346,359,122310,2,0,P|340:314|329:255,1,105.000004005432,4|0,1:3|1:0,0:0:0:0:
261,195,122844,2,0,L|215:224,2,52.5000020027161,0|0|0,1:0|1:0|1:0,0:0:0:0:
140,181,123378,2,0,L|116:234,2,52.5000020027161,0|0|0,1:0|1:0|3:0,0:0:0:0:
54,280,123912,2,0,L|84:340,2,52.5000020027161,0|0|0,1:0|1:0|1:0,0:0:0:0:
20,210,124446,1,8,1:0:0:0:
65,144,124624,1,8,1:0:0:0:
67,67,124802,1,8,1:0:0:0:
67,67,124891,1,8,1:0:0:0:
67,67,124980,6,0,L|-5:104,1,70,4|0,1:0|1:0,0:0:0:0:
67,157,125337,2,0,L|140:122,1,70,8|0,1:0|0:0,0:0:0:0:
203,82,125694,1,2,0:1:0:0:
254,147,125872,1,2,0:0:0:0:
215,219,126051,6,0,L|145:213,1,70,2|0,0:1|0:0,0:0:0:0:
90,284,126408,2,0,L|178:292,1,70,8|0,0:0|0:0,0:0:0:0:
168,376,126765,2,0,L|98:370,1,70,2|8,0:1|1:0,0:0:0:0:
70,366,127033,1,8,1:0:0:0:
42,361,127122,5,2,1:0:0:0:
0,288,127301,1,0,1:0:0:0:
50,221,127480,2,0,L|46:136,1,70,8|0,1:0|0:0,0:0:0:0:
127,115,127837,2,0,L|133:197,2,70,0|8|6,0:0|0:0|0:0,0:0:0:0:
190,50,128372,1,0,0:0:0:0:
228,125,128551,1,8,1:0:0:0:
309,146,128730,1,2,0:0:0:0:
390,116,128908,2,0,L|463:78,1,70,2|8,0:3|0:0,0:0:0:0:
492,162,129265,6,0,P|448:206|432:297,1,140,4|8,1:0|1:0,0:0:0:0:
365,341,129801,1,2,0:3:0:0:
326,268,129980,2,0,L|310:198,1,70,2|0,0:1|0:0,0:0:0:0:
228,177,130337,2,0,L|221:264,2,70,2|0|8,0:1|0:0|1:0,0:0:0:0:
282,113,130872,1,2,1:0:0:0:
282,113,130962,1,0,0:0:0:0:
282,113,131051,2,0,L|273:24,1,70,0|2,0:0|0:0,0:0:0:0:
203,26,131408,5,4,0:0:0:0:
126,67,131587,1,8,0:0:0:0:
34,46,131765,2,0,L|48:173,1,105,8|0,1:0|2:0,0:0:0:0:
64,170,132122,2,0,L|44:243,1,70,0|8,0:0|0:0,0:0:0:0:
107,316,132480,2,0,P|136:242|150:211,1,105,2|0,0:1|2:0,0:0:0:0:
162,193,132837,1,10,0:1:0:0:
241,197,133015,1,0,0:0:0:0:
296,256,133194,1,0,1:0:0:0:
265,328,133372,1,4,1:3:0:0:
265,328,133462,1,0,1:0:0:0:
265,328,133551,6,0,L|192:303,2,70,4|0|8,1:2|0:0|1:0,0:0:0:0:
318,271,134087,1,2,0:1:0:0:
318,271,134265,2,0,L|407:297,1,70,2|0,0:1|0:0,0:0:0:0:
477,278,134622,2,0,P|436:218|423:155,1,105,2|0,0:1|2:0,0:0:0:0:
405,168,134980,2,0,L|434:94,1,70,10|0,0:0|0:0,0:0:0:0:
366,29,135337,2,0,L|339:103,1,70,10|2,0:0|0:3,0:0:0:0:
258,137,135694,5,2,1:0:0:0:
256,56,135872,1,0,0:0:0:0:
180,30,136051,1,8,0:0:0:0:
119,86,136230,2,0,P|148:149|161:225,1,140,2|0,0:0|0:0,0:0:0:0:
86,268,136765,2,0,P|67:231|47:184,2,70,0|0|8,0:0|0:0|0:0,0:0:0:0:
123,344,137301,2,0,P|202:344|248:285,1,140,2|8,0:1|1:0,0:0:0:0:
278,220,137837,6,0,L|242:145,2,70,4|0|8,0:1|0:0|1:0,0:0:0:0:
369,256,138372,1,4,0:2:0:0:
369,256,138551,2,0,L|371:165,1,70,0|8,0:0|1:0,0:0:0:0:
448,287,138908,2,0,L|419:365,1,70,0|2,1:0|0:0,0:0:0:0:
501,224,139265,1,10,1:0:0:0:
446,169,139444,1,0,0:0:0:0:
505,114,139622,1,2,0:0:0:0:
460,51,139801,1,4,0:3:0:0:
382,62,139980,6,0,L|301:83,1,70,4|0,0:0|0:0,0:0:0:0:
243,44,140337,1,8,1:0:0:0:
198,157,140515,6,0,L|292:151,1,70,0|0,0:0|0:0,0:0:0:0:
335,195,140872,1,8,0:0:0:0:
353,270,141051,6,0,L|272:285,1,70,2|0,0:1|0:0,0:0:0:0:
221,355,141408,2,0,L|307:370,1,70,8|2,1:3|1:0,0:0:0:0:
170,286,141765,1,8,1:0:0:0:
99,260,141944,1,8,1:0:0:0:
27,295,142122,6,0,L|48:366,1,70,4|0,1:0|0:0,0:0:0:0:
99,260,142480,2,0,P|78:195|54:135,1,105,10|0,0:0|2:0,0:0:0:0:
55,134,142837,1,0,0:0:0:0:
104,71,143015,1,2,3:0:0:0:
183,101,143194,6,0,L|257:92,1,70
313,146,143551,2,0,P|385:132|440:125,1,105,10|0,0:0|2:0,0:0:0:0:
441,140,143908,1,0,0:0:0:0:
483,209,144087,1,2,3:0:0:0:
430,262,144265,6,0,L|332:240,1,70
285,252,144622,2,0,P|242:312|205:351,1,105,10|0,0:0|2:0,0:0:0:0:
197,349,144980,1,0,0:0:0:0:
131,301,145158,1,2,3:0:0:0:
141,221,145337,6,0,P|125:120|123:83,1,140,4|8,0:2|0:0,0:0:0:0:
50,54,145872,1,0,0:0:0:0:
10,123,146051,2,0,P|20:154|29:198,1,70,2|0,0:0|0:0,0:0:0:0:
48,279,146408,6,0,P|131:265|136:207,1,140,6|8,0:0|0:0,0:0:0:0:
203,127,146944,2,0,P|229:187|295:185,1,140,8|2,1:0|0:0,0:0:0:0:
377,231,147480,2,0,P|339:266|329:302,2,70,2|0|8,0:0|0:0|0:0,0:0:0:0:
450,202,148015,1,0,0:0:0:0:
488,269,148194,1,0,0:0:0:0:
411,301,148372,1,0,0:0:0:0:
377,231,148551,6,0,L|375:162,1,70
456,115,148908,2,0,P|447:54|429:-10,1,105,10|0,0:0|2:0,0:0:0:0:
408,9,149265,1,0,0:0:0:0:
334,33,149444,1,0,0:0:0:0:
290,100,149622,2,0,P|249:99|195:94,1,70,4|4,1:3|0:3,0:0:0:0:
161,181,149980,2,0,P|201:181|256:187,1,70,8|0,0:0|0:0,0:0:0:0:
287,238,150337,1,8,0:0:0:0:
246,308,150515,1,8,0:0:0:0:
246,308,150605,1,8,0:0:0:0:
246,308,150694,6,0,B|168:288|175:332|93:309,1,140,6|8,0:0|0:0,0:0:0:0:
73,245,151230,2,0,P|114:212|116:127,1,140,0|2,0:0|0:3,0:0:0:0:
41,115,151765,2,0,L|19:199,2,70,2|0|8,0:0|0:0|0:0,0:0:0:0:
69,43,152301,1,2,0:0:0:0:
69,43,152480,2,0,L|152:70,1,70,0|0,0:0|0:0,0:0:0:0:
190,120,152837,6,0,P|250:116|260:25,1,140,6|10,0:0|0:0,0:0:0:0:
347,21,153372,2,0,L|431:36,1,70,2|0,0:0|2:0,0:0:0:0:
436,124,153730,2,0,L|361:105,2,70,2|4|0,0:0|1:2|0:0,0:0:0:0:
485,185,154265,1,10,0:0:0:0:
444,245,154444,1,0,0:0:0:0:
370,215,154622,1,2,0:0:0:0:
312,269,154801,1,8,0:0:0:0:
312,269,154980,6,0,P|332:318|344:349,1,70,4|0,0:0|0:0,0:0:0:0:
243,340,155337,2,0,P|231:270|218:183,1,140,8|2,0:0|0:0,0:0:0:0:
201,128,155872,1,2,0:0:0:0:
127,101,156051,2,0,L|45:91,2,70,6|0|8,1:0|0:0|0:0,0:0:0:0:
172,165,156587,2,0,L|254:155,2,70,2|0|8,0:0|0:0|0:0,0:0:0:0:
102,199,157122,5,2,0:0:0:0:
48,255,157301,1,2,0:0:0:0:
68,331,157480,1,2,0:0:0:0:
146,317,157658,1,12,0:0:0:0:
171,243,157837,2,0,L|79:218,1,70,0|2,0:0|0:0,0:0:0:0:
32,165,158194,5,2,0:0:0:0:
46,154,158283,1,8,0:3:0:0:
104,89,158462,1,8,0:3:0:0:
98,72,158551,1,4,0:3:0:0:
186,122,158730,2,0,L|192:168,2,35,8|8|4,0:3|0:3|0:3,0:0:0:0:
236,42,159087,1,4,0:3:0:0:
318,84,159265,6,0,L|305:167,1,70,4|0,1:0|1:0,0:0:0:0:
381,200,159622,2,0,P|395:141|409:84,1,105,12|0,0:0|2:0,0:0:0:0:
433,99,159980,1,0,0:0:0:0:
488,155,160158,1,8,0:3:0:0:
477,233,160337,6,0,L|454:314,2,70,4|8|8,0:3|0:3|0:0,0:0:0:0:
405,213,160872,1,0,3:0:0:0:
336,253,161051,2,0,L|239:256,1,70,2|8,0:3|0:0,0:0:0:0:
186,270,161408,5,0,0:0:0:0:
118,230,161587,1,4,0:3:0:0:
168,171,161765,1,8,0:3:0:0:
112,116,161944,2,0,L|116:37,2,70,8|4|0,0:0|0:3|0:0,0:0:0:0:
59,184,162480,2,0,L|78:270,2,70,8|0|8,0:0|0:0|0:3,0:0:0:0:
142,191,163015,1,8,0:0:0:0:
167,262,163194,1,8,0:0:0:0:
130,333,163372,1,8,0:0:0:0:
130,333,163462,1,8,0:0:0:0:
130,333,163551,6,0,B|183:328|183:328|278:367|278:367|345:361,1,210,4|4,0:0|0:3,0:0:0:0:
353,280,164265,2,0,L|271:281,1,70,2|0,0:3|0:0,0:0:0:0:
247,203,164622,2,0,L|325:204,2,70,4|2|4,0:2|0:2|0:3,0:0:0:0:
198,140,165158,2,0,P|205:89|248:24,1,105,4|0,0:0|2:0,0:0:0:0:
253,21,165515,1,0,0:0:0:0:
318,66,165694,2,0,L|409:52,1,70,8|0,0:0|0:0,0:0:0:0:
461,81,166051,1,4,0:3:0:0:
427,153,166230,2,0,P|418:210|419:293,1,140,4|0,0:0|0:0,0:0:0:0:
339,334,166765,6,0,L|329:261,1,70,4|4,0:2|0:3,0:0:0:0:
271,212,167122,1,8,0:0:0:0:
271,212,167212,2,0,P|230:224|177:226,1,70,8|8,0:0|0:0,0:0:0:0:
181,245,167480,2,0,P|148:240|108:239,1,70,0|8,1:0|1:0,0:0:0:0:
83,244,167747,1,8,1:0:0:0:
83,244,167837,6,0,L|73:331,2,70,4|0|8,1:0|1:0|1:0,0:0:0:0:
107,169,168372,2,0,L|97:23,1,140,2|4,1:0|1:3,0:0:0:0:
176,41,168908,2,0,L|254:31,1,70,2|0,1:0|0:0,0:0:0:0:
294,102,169265,2,0,L|199:116,2,70,2|6|0,0:1|1:0|0:0,0:0:0:0:
352,155,169801,1,0,0:0:0:0:
323,230,169979,5,8,1:0:0:0:
248,232,170158,1,8,0:0:0:0:
248,232,170247,1,8,0:0:0:0:
248,232,170337,2,0,L|195:217,3,35,4|0|4|0,0:0|0:0|0:0|0:0,0:0:0:0:
180,246,170694,2,0,L|125:231,3,35,4|4|8|8,0:3|0:3|0:3|0:3,0:0:0:0:
112,256,171051,6,0,L|88:353,1,70,4|8,0:3|0:0,0:0:0:0:
28,259,171408,2,0,L|51:182,2,70,4|8|10,0:3|0:0|0:0,0:0:0:0:
25,342,171944,1,10,0:0:0:0:
25,342,172033,1,8,0:0:0:0:
25,342,172122,6,0,P|116:361|156:326,1,140,4|8,0:0|0:0,0:0:0:0:
205,285,172658,1,0,0:0:0:0:
205,285,172837,2,0,L|291:303,1,70,4|0,0:3|0:0,0:0:0:0:
323,229,173194,2,0,L|237:208,2,70,4|8|8,0:3|0:3|0:0,0:0:0:0:
401,236,173729,1,4,0:2:0:0:
465,195,173908,1,8,1:3:0:0:
444,121,174087,1,8,0:0:0:0:
369,94,174265,6,0,P|294:98|256:26,1,140,4|8,0:0|0:0,0:0:0:0:
175,37,174801,1,4,0:2:0:0:
175,37,174980,2,0,L|88:56,1,70,0|0,0:0|0:0,0:0:0:0:
46,104,175341,2,0,L|59:153,3,35,4|4|8|8,0:3|0:3|0:3|0:3,0:0:0:0:
91,165,175702,2,0,L|75:224,3,35,8|8|8|8,1:0|1:0|1:0|1:0,0:0:0:0:
51,233,176064,1,8,0:0:0:0:
64,320,176245,1,8,0:0:0:0:
64,320,176335,1,8,0:0:0:0:
64,320,176425,6,0,B|132:302|123:362|205:344,1,140,4|8,0:0|0:0,0:0:0:0:
266,304,176960,1,0,0:0:0:0:
219,234,177139,2,0,L|230:152,1,70,0|2,0:0|0:3,0:0:0:0:
280,103,177496,2,0,P|324:129|381:149,1,105,2|0,0:0|2:0,0:0:0:0:
390,170,177853,2,0,P|435:157|482:150,1,70,10|0,0:0|0:0,0:0:0:0:
491,68,178210,2,0,P|453:77|406:80,1,70,2|0,0:0|0:0,0:0:0:0:
348,34,178567,5,2,0:0:0:0:
287,90,178746,1,0,0:0:0:0:
341,152,178925,2,0,L|318:243,1,70,8|2,0:0|0:0,0:0:0:0:
235,243,179282,2,0,L|259:149,2,70,0|2|0,0:0|0:0|0:0,0:0:0:0:
175,302,179817,1,0,0:0:0:0:
175,302,179996,2,0,P|103:278|72:269,1,105,8|0,0:0|2:0,0:0:0:0:
48,279,180353,2,0,L|72:198,1,70,2|2,0:0|3:0,0:0:0:0:
126,149,180710,6,0,P|108:85|94:29,1,105,2|0,0:0|2:0,0:0:0:0:
89,20,181067,1,8,0:0:0:0:
21,74,181246,1,6,0:0:0:0:
40,158,181425,2,0,L|25:241,1,70,4|0,0:3|0:0,0:0:0:0:
54,310,181782,2,0,P|95:316|138:224,1,140,6|8,0:0|0:0,0:0:0:0:
208,196,182315,1,2,0:0:0:0:
263,251,182491,2,0,L|347:246,1,70,0|8,0:0|1:0,0:0:0:0:
399,300,182844,5,4,0:0:0:0:
477,275,183021,1,0,0:0:0:0:
463,191,183197,2,0,P|471:133|485:79,1,105,10|0,0:0|2:0,0:0:0:0:
475,60,183550,2,0,P|436:73|401:79,1,70,0|2,0:0|3:0,0:0:0:0:
329,125,183907,2,0,P|271:112|264:25,1,140,6|8,0:0|0:0,0:0:0:0:
177,59,184442,1,8,0:0:0:0:
152,135,184621,1,2,0:0:0:0:
199,213,184800,1,8,0:0:0:0:
199,213,184889,1,8,0:0:0:0:
199,213,184978,6,0,L|282:199,1,70,4|0,0:0|0:0,0:0:0:0:
343,287,185335,2,0,L|267:284,1,70,8|2,0:0|3:0,0:0:0:0:
187,343,185692,2,0,L|261:355,1,70,0|0,0:0|0:0,0:0:0:0:
159,263,186050,2,0,P|115:282|67:322,1,105,2|0,0:0|2:0,0:0:0:0:
50,336,186407,2,0,L|41:251,1,70,10|0,0:0|0:0,0:0:0:0:
87,186,186764,2,0,L|81:109,1,70,2|0,0:0|0:0,0:0:0:0:
90,29,187121,5,2,0:0:0:0:
172,24,187300,1,0,0:0:0:0:
200,102,187478,1,8,0:0:0:0:
129,148,187657,2,0,L|50:131,2,70,2|0|0,0:0|0:0|0:0,0:0:0:0:
201,202,188192,2,0,L|285:188,1,70,0|2,0:0|3:0,0:0:0:0:
338,142,188550,2,0,L|419:153,1,70,10|0,0:0|0:0,0:0:0:0:
475,213,188907,2,0,L|462:282,1,70,10|10,0:0|0:0,0:0:0:0:
402,351,189264,5,2,0:0:0:0:
366,284,189442,1,0,0:0:0:0:
289,296,189621,1,8,0:0:0:0:
230,242,189800,2,0,P|253:185|281:106,1,140,2|0,0:0|0:0,0:0:0:0:
217,41,190335,2,0,L|187:118,1,70,2|0,0:0|0:0,0:0:0:0:
111,148,190692,2,0,L|102:63,1,70,8|2,0:0|0:0,0:0:0:0:
34,29,191050,2,0,L|9:109,1,70,0|2,0:0|3:0,0:0:0:0:
14,177,191407,5,6,0:0:0:0:
63,249,191585,1,0,0:0:0:0:
145,221,191764,2,0,P|201:198|267:175,1,105,8|8,0:0|0:0,0:0:0:0:
262,162,192121,2,0,P|320:179|349:181,1,70,4|4,0:3|0:3,0:0:0:0:
418,173,192478,1,4,0:0:0:0:
483,107,192657,1,4,0:3:0:0:
427,30,192835,2,0,L|340:31,1,70,8|4,0:0|0:3,0:0:0:0:
272,65,193192,1,8,0:0:0:0:
314,151,193371,1,8,0:2:0:0:
314,151,193460,1,8,0:2:0:0:
314,151,193550,6,0,L|293:262,1,77.0000023498536,4|0,0:0|0:0,0:0:0:0:
209,252,193909,2,0,L|230:141,1,77.0000023498536,8|0,0:0|0:0,0:0:0:0:
150,128,194268,1,2,0:1:0:0:
71,155,194448,1,0,0:0:0:0:
46,238,194627,6,0,P|75:305|86:351,1,115.50000352478,2|0,0:1|2:0,0:0:0:0:
112,349,194987,2,0,P|152:329|188:321,1,77.0000023498536,10|0,0:0|0:0,0:0:0:0:
228,251,195344,2,0,P|265:285|314:314,1,77.0000023498536,0|8,1:0|0:0,0:0:0:0:
366,330,195701,5,8,0:1:0:0:
436,274,195879,1,2,0:1:0:0:
399,193,196058,1,8,0:0:0:0:
317,183,196237,2,0,L|235:205,2,77.0000023498536,2|0|0,0:0|0:0|0:0,0:0:0:0:
235,121,196772,2,0,L|158:144,1,77.0000023498536,2|2,0:3|0:1,0:0:0:0:
93,92,197129,1,10,0:0:0:0:
141,17,197308,2,0,P|211:31|294:37,1,154.000004699707,0|10,0:0|0:0,0:0:0:0:
384,26,197844,5,6,0:0:0:0:
457,69,198022,1,0,0:0:0:0:
447,153,198201,1,8,1:0:0:0:
364,174,198379,2,0,P|277:166|206:161,1,154.000004699707,2|2,0:1|0:0,0:0:0:0:
154,234,198915,2,0,P|190:240|256:246,1,77.0000023498536,6|0,0:0|0:0,0:0:0:0:
264,330,199272,2,0,P|220:326|176:322,1,77.0000023498536,8|0,0:0|0:0,0:0:0:0:
104,340,199629,1,0,0:0:0:0:
39,281,199808,1,0,0:0:0:0:
76,205,199987,6,0,L|55:119,1,77.0000023498536,4|0,0:0|0:0,0:0:0:0:
128,70,200344,2,0,P|153:130|180:184,1,115.50000352478,8|0,0:0|2:0,0:0:0:0:
198,189,200701,1,0,0:0:0:0:
281,188,200879,1,8,0:0:0:0:
296,105,201058,2,0,P|313:38|317:13,1,77.0000023498536,10|0,0:0|0:0,0:0:0:0:
400,30,201410,2,0,P|392:108|385:155,1,115.50000352478,10|0,0:0|0:0,0:0:0:0:
389,171,201763,2,0,L|411:250,1,77.0000023498536
488,304,202116,6,0,L|499:210,2,77.0000023498536,4|0|8,1:0|0:0|0:0,0:0:0:0:
423,359,202651,1,0,0:0:0:0:
423,359,202830,2,0,P|376:342|329:331,1,77.0000023498536,2|0,0:1|0:0,0:0:0:0:
282,275,203187,2,0,P|226:330|186:355,1,115.50000352478,2|0,0:0|2:0,0:0:0:0:
168,354,203544,1,8,0:0:0:0:
87,318,203723,2,0,P|104:251|113:201,1,115.50000352478,6|0,0:1|2:0,0:0:0:0:
106,178,204080,1,8,0:0:0:0:
117,91,204258,5,6,0:1:0:0:
44,45,204437,1,0,0:0:0:0:
27,135,204616,1,8,0:0:0:0:
106,178,204794,2,0,L|189:147,2,77.0000023498536,2|8|0,2:0|0:3|0:0,0:0:0:0:
33,234,205330,1,4,1:3:0:0:
114,281,205508,1,2,0:3:0:0:
192,246,205687,2,0,L|270:216,1,77.0000023498536,8|4,0:0|0:2,0:0:0:0:
334,157,206044,2,0,L|404:187,1,77.0000023498536,0|8,0:0|0:0,0:0:0:0:
477,244,206401,6,0,P|447:328|445:336,2,77.0000023498536,4|0|8,0:0|0:0|0:0,0:0:0:0:
404,187,206943,1,2,0:3:0:0:
476,129,207123,2,0,P|474:87|467:41,1,77.0000023498536,0|2,0:0|0:3,0:0:0:0:
381,21,207485,2,0,P|337:31|235:59,1,115.50000352478,8|0,0:3|2:0,0:0:0:0:
242,53,207846,1,10,0:0:0:0:
167,94,208024,1,4,0:3:0:0:
233,147,208203,1,2,0:0:0:0:
158,187,208381,1,2,0:0:0:0:
208,256,208560,6,0,P|195:328|193:359,1,77.0000023498536,6|0,0:0|0:0,0:0:0:0:
102,344,208917,2,0,P|103:272|96:206,1,115.50000352478,4|0,0:3|2:0,0:0:0:0:
95,201,209274,1,0,0:0:0:0:
160,136,209450,1,8,0:0:0:0:
160,136,209538,1,0,0:0:0:0:
160,136,209626,6,0,L|137:89,3,38.5000011749268,0|8|0|0,0:0|0:0|0:0|0:0,0:0:0:0:
127,79,209979,2,0,L|71:94,3,38.5000011749268,8|8|0|0,0:0|0:0|0:0|0:0,0:0:0:0:
63,81,210332,1,8,0:0:0:0:
21,163,210509,1,8,0:0:0:0:
21,163,210597,1,8,0:0:0:0:
21,163,210685,6,0,P|32:204|39:249,1,77.0000023498536,4|0,0:0|0:0,0:0:0:0:
120,259,211044,2,0,P|113:292|105:350,1,77.0000023498536,8|0,0:0|0:0,0:0:0:0:
192,360,211403,1,0,0:0:0:0:
256,298,211583,1,2,3:0:0:0:
231,211,211762,2,0,P|238:153|248:120,1,77.0000023498536,2|0,0:0|0:0,0:0:0:0:
293,60,212122,2,0,P|357:80|431:87,1,115.50000352478,10|0,0:0|2:0,0:0:0:0:
432,86,212479,1,0,0:0:0:0:
491,156,212657,1,0,0:0:0:0:
406,192,212836,6,0,P|363:183|313:178,1,77.0000023498536,0|2,0:0|3:0,0:0:0:0:
242,207,213193,2,2,P|257:274|265:341,1,115.50000352478,10|0,0:0|2:0,0:0:0:0:
251,345,213550,1,0,0:0:0:0:
160,330,213729,1,2,3:0:0:0:
131,241,213907,2,0,P|138:166|140:82,1,154.000004699707,4|8,0:2|0:0,0:0:0:0:
61,49,214443,1,4,0:0:0:0:
61,49,214622,2,0,P|54:91|48:145,1,77.0000023498536,0|2,0:0|0:0,0:0:0:0:
23,213,214979,5,4,0:0:0:0:
113,233,215157,1,0,0:0:0:0:
46,297,215336,1,8,0:0:0:0:
140,334,215514,1,4,3:2:0:0:
140,334,215693,2,0,P|183:323|226:314,1,77.0000023498536,0|2,1:0|3:0,0:0:0:0:
276,251,216050,6,0,P|337:276|353:283,1,77.0000023498536,4|0,0:2|0:0,0:0:0:0:
421,324,216407,1,8,0:0:0:0:
491,294,216586,1,2,3:0:0:0:
488,218,216764,1,4,0:3:0:0:
414,196,216943,1,4,0:3:0:0:
457,127,217122,6,0,L|463:31,2,77.0000023498536,6|2|8,0:0|0:3|0:0,0:0:0:0:
414,196,217657,2,0,P|377:144|316:67,1,154.000004699707,2|4,0:0|0:2,0:0:0:0:
243,65,218193,2,0,L|250:162,1,77.0000023498536,4|0,0:0|0:0,0:0:0:0:
228,160,218461,1,4,2:3:0:0:
209,179,218550,2,0,L|119:171,1,77.0000023498536,8|10,0:3|0:0,0:0:0:0:
107,181,218818,1,8,0:0:0:0:
81,191,218907,2,0,L|30:190,3,38.5000011749268,8|8|10|8,0:0|0:0|0:0|0:0,0:0:0:0:
24,211,219264,6,0,P|48:282|56:316,1,77.0000023498536,4|0,0:0|0:0,0:0:0:0:
115,347,219622,2,0,P|128:274|135:246,1,77.0000023498536,8|0,0:0|0:0,0:0:0:0:
190,202,219979,1,0,0:0:0:0:
276,235,220157,1,0,0:0:0:0:
343,172,220336,2,0,P|326:112|323:46,1,115.50000352478,2|0,0:1|2:0,0:0:0:0:
336,35,220693,2,0,P|399:60|430:65,1,77.0000023498536,10|2,0:1|0:3,0:0:0:0:
486,171,221050,2,0,P|425:146|392:141,1,77.0000023498536,2|8,0:0|0:3,0:0:0:0:
328,180,221407,6,0,P|282:173|222:153,2,77.0000023498536,6|8|10,0:0|0:3|0:1,0:0:0:0:
385,252,221943,2,0,P|293:271|221:304,1,154.000004699707,0|2,0:0|0:0,0:0:0:0:
149,322,222479,2,0,L|82:339,3,38.5000011749268,6|0|0|8,0:0|3:0|1:0|3:0,3:3:0:0:
95,309,222836,2,0,L|30:322,3,38.5000011749268,6|0|4|0,1:1|3:0|0:2|0:0,0:0:0:0:
35,300,223193,2,0,P|46:232|38:168,1,115.50000352478,8|0,1:0|2:0,0:0:0:0:
41,158,223550,6,0,P|88:144|168:216,1,154.000004699707,6|8,0:0|0:0,0:0:0:0:
215,125,224086,2,0,L|203:38,2,77.0000023498536,2|0|2,0:1|0:0|0:3,0:0:0:0:
293,174,224622,6,0,P|366:183|417:128,1,154.000004699707,8|8,1:0|0:3,0:0:0:0:
457,45,225157,2,0,P|383:35|332:90,1,154.000004699707,4|4,0:2|0:2,0:0:0:0:
365,174,225693,6,0,P|415:228|489:219,1,154.000004699707,8|8,1:0|0:3,0:0:0:0:
487,311,226229,1,4,1:2:0:0:
401,347,226407,2,0,P|374:333|327:324,1,77.0000023498536,4|10,0:3|0:3,0:0:0:0:
251,272,226764,6,0,L|261:219,3,38.5000011749268,8|8|8|8,0:1|0:1|0:1|0:1,0:0:0:0:
252,207,227122,2,0,L|242:154,3,38.5000011749268,8|8|10|8,0:1|0:3|0:0|0:3,0:0:0:0:
249,142,227479,1,10,0:0:0:0:
245,62,227657,1,4,0:3:0:0:
245,62,227747,1,4,0:3:0:0:
245,62,227836,6,0,P|156:75|75:80,1,154.000004699707,4|8,0:0|0:0,0:0:0:0:
12,32,228372,1,0,0:0:0:0:
15,124,228550,2,0,P|39:205|48:259,1,115.50000352478,4|0,0:2|2:0,0:0:0:0:
63,255,228907,2,0,P|49:333|49:340,1,77.0000023498536,4|0,0:0|0:0,0:0:0:0:
134,366,229264,1,10,0:0:0:0:
209,313,229443,1,4,0:2:0:0:
176,226,229622,2,0,P|197:151|219:96,1,115.50000352478,0|0,0:0|2:0,0:0:0:0:
212,88,229979,6,0,L|308:111,1,77.0000023498536,4|0,0:0|0:0,0:0:0:0:
356,44,230336,2,0,P|426:57|474:64,1,115.50000352478,8|0,0:0|2:0,0:0:0:0:
491,79,230693,1,8,0:3:0:0:
426,145,230872,1,2,0:3:0:0:
497,204,231050,2,0,P|473:285|473:291,1,77.0000023498536,4|0,0:3|0:0,0:0:0:0:
392,321,231407,2,0,P|377:254|363:198,1,115.50000352478,8|0,0:0|2:0,0:0:0:0:
347,188,231764,1,0,0:0:0:0:
257,210,231943,1,2,0:3:0:0:
262,117,232122,6,0,L|265:15,2,77.0000023498536,4|0|8,0:0|0:0|0:0,0:0:0:0:
174,147,232657,2,0,P|93:121|10:101,1,154.000004699707,8|2,1:0|0:3,0:0:0:0:
23,196,233193,2,0,L|121:202,2,77.0000023498536,4|2|8,0:3|0:3|0:0,0:0:0:0:
28,288,233729,2,0,P|112:272|185:256,1,154.000004699707,0|2,0:0|0:3,0:0:0:0:
270,247,234264,6,0,P|275:282|281:343,1,77.0000023498536,4|0,0:0|0:0,0:0:0:0:
363,361,234622,1,0,0:0:0:0:
442,313,234800,1,12,0:0:0:0:
414,225,234979,2,0,L|431:135,1,77.0000023498536,0|8,0:0|0:3,0:0:0:0:
397,66,235336,1,8,0:0:0:0:
397,66,235425,2,0,P|320:98|309:103,1,77.0000023498536,8|8,0:0|0:0,0:0:0:0:
299,94,235693,2,0,L|206:76,1,77.0000023498536,10|2,0:0|0:0,0:0:0:0:
148,41,236050,1,4,0:3:0:0:
65,74,236229,1,8,0:0:0:0:
65,74,236318,1,8,0:0:0:0:
65,74,236407,6,0,L|80:158,1,77.0000023498536,4|0,0:0|0:0,0:0:0:0:
110,233,236764,2,0,P|87:316|78:356,1,115.50000352478,8|0,0:0|2:0,0:0:0:0:
60,363,237122,2,0,L|-4:350,2,51.3333348999024,2|0|0,0:0|0:0|0:0,0:0:0:0:
88,340,237479,2,0,L|182:357,1,77.0000023498536,4|0,0:3|0:0,0:0:0:0:
232,292,237836,1,10,0:0:0:0:
193,207,238014,2,0,L|188:102,1,77.0000023498536,2|0,0:0|0:0,0:0:0:0:
240,53,238372,1,2,0:0:0:0:
316,105,238550,6,0,P|385:108|483:88,1,154.000004699707,6|8,0:0|0:0,0:0:0:0:
495,180,239086,2,0,L|473:264,2,77.0000023498536,6|8|2,0:0|1:0|0:3,0:0:0:0:
402,188,239622,2,0,P|381:267|386:347,1,154.000004699707,2|8,0:0|0:0,0:0:0:0:
292,353,240157,2,0,L|296:256,1,77.0000023498536,2|4,0:0|0:2,0:0:0:0:
299,190,240514,1,8,0:0:0:0:
299,190,240604,1,8,0:0:0:0:
299,190,240693,6,0,L|312:104,2,77.0000023498536,4|0|8,0:0|0:0|0:0,0:0:0:0:
206,185,241229,2,0,P|199:103|185:25,1,154.000004699707,4|2,0:2|0:3,0:0:0:0:
94,27,241764,2,0,L|117:112,2,77.0000023498536,4|2|8,0:0|0:0|0:0,0:0:0:0:
27,91,242300,2,0,P|50:180|62:258,1,154.000004699707,2|4,0:0|0:2,0:0:0:0:
88,328,242836,6,0,P|138:296|231:276,1,154.000004699707,6|8,0:0|0:0,0:0:0:0:
321,263,243372,1,2,0:0:0:0:
376,336,243550,1,0,1:0:0:0:
285,352,243729,1,8,0:0:0:0:
321,263,243907,2,0,L|284:172,1,77.0000023498536,4|0,0:0|0:0,0:0:0:0:
349,119,244264,2,0,L|385:208,1,77.0000023498536,8|8,0:0|0:0,0:0:0:0:
463,166,244622,1,10,0:0:0:0:
474,78,244800,1,10,0:0:0:0:
401,34,244979,5,4,0:0:0:0:
