osu file format v14

[General]
AudioFilename: audio.mp3
AudioLeadIn: 0
PreviewTime: 350011
Countdown: 0
SampleSet: Soft
StackLeniency: 0.9
Mode: 0
LetterboxInBreaks: 0
WidescreenStoryboard: 1

[Editor]
Bookmarks: 503398
DistanceSpacing: 1.2
BeatDivisor: 4
GridSize: 32
TimelineZoom: 2

[Metadata]
Title:glimmer
TitleUnicode:glimmer
Artist:Annabel
ArtistUnicode:Annabel
Creator:Keqing
Version:of hope
Source:
Tags:iljaaz caracol Q flavor japanese pop female vocals
BeatmapID:3121152
BeatmapSetID:1525495

[Difficulty]
HPDrainRate:5
CircleSize:4.4
OverallDifficulty:8
ApproachRate:9
SliderMultiplier:1.74
SliderTickRate:1

[Events]
//Background and Video events
0,0,"annabel.png",0,0
//Break Periods
2,243519,267319
2,350357,361945
//Storyboard Layer 0 (Background)
//Storyboard Layer 1 (Fail)
//Storyboard Layer 2 (Pass)
//Storyboard Layer 3 (Foreground)
//Storyboard Layer 4 (Overlay)
//Storyboard Sound Samples

[TimingPoints]
223,387.096774193548,4,2,4,40,1,0
997,-135.135135135135,4,2,4,40,0,0
2545,-416.666666666665,4,2,4,40,0,0
3610,-156.25,4,2,4,40,0,0
8481,-74.6268656716418,4,2,4,40,0,0
9900,-416.666666666665,4,2,4,40,0,0
41932,-416.666666666665,4,2,4,5,0,0
42029,-135.135135135135,4,2,4,60,0,0
46964,-135.135135135135,4,2,4,50,0,0
47110,-227.272727272727,4,2,4,50,0,0
47739,-1000,4,2,4,50,0,0
54222,-1000,4,2,4,5,0,0
55964,-1000,4,2,4,50,0,0
57513,-100,4,2,4,50,0,0
58093,-400,4,2,4,50,0,0
59061,-100,4,2,4,50,0,0
59641,-400,4,2,4,50,0,0
60610,-100,4,2,4,50,0,0
61190,-400,4,2,4,50,0,0
62158,-100,4,2,4,50,0,0
63706,-100,4,2,4,50,0,0
64286,-400,4,2,4,50,0,0
65255,-100,4,2,4,50,0,0
65835,-400,4,2,4,50,0,0
66803,-100,4,2,4,50,0,0
68352,-400,4,2,4,50,0,0
69900,-100,4,2,4,50,0,0
70480,-400,4,2,4,50,0,0
71448,-100,4,2,4,50,0,0
72028,-400,4,2,4,50,0,0
72997,-100,4,2,4,50,0,0
73577,-400,4,2,4,50,0,0
74545,-100,4,2,4,50,0,0
76093,-100,4,2,4,50,0,0
76673,-400,4,2,4,50,0,0
77642,-100,4,2,4,50,0,0
82287,-100,4,2,4,60,0,0
82868,-400,4,2,4,60,0,0
83835,-100,4,2,4,60,0,0
84416,-400,4,2,4,60,0,0
85384,-100,4,2,4,60,0,0
86932,-400,4,2,4,60,0,0
88093,-100,4,2,4,60,0,0
94674,-100,4,2,4,60,0,0
95255,-400,4,2,4,60,0,0
96222,-100,4,2,4,60,0,0
96803,-400,4,2,4,60,0,0
97771,-100,4,2,4,60,0,0
98352,-400,4,2,4,60,0,0
99319,-100,4,2,4,60,0,0
107061,-71.4285714285714,4,2,4,80,0,1
108610,-55.5555555555556,4,2,4,80,0,1
109674,-71.4285714285714,4,2,4,80,0,1
117900,-55.5555555555556,4,2,4,80,0,1
119448,-71.4285714285714,4,2,4,80,0,1
130287,-135.135135135135,4,2,4,40,0,0
131835,-227.272727272727,4,2,4,40,0,0
142287,-119.047619047619,4,2,4,40,0,0
145577,-227.272727272727,4,2,4,40,0,0
149835,-156.25,4,2,4,50,0,0
156610,-119.047619047619,4,2,4,60,0,0
181384,-96.1538461538461,4,2,4,60,0,0
188739,-64.9350649350649,4,2,4,60,0,0
189126,-96.1538461538461,4,2,4,60,0,0
203061,-156.25,4,2,4,60,0,0
205771,-106.382978723404,4,2,4,60,0,0
206158,-106.382978723404,4,2,4,60,0,0
268093,-156.25,4,2,4,50,0,0
268674,-227.272727272726,4,2,4,50,0,0
273513,-156.25,4,2,4,50,0,0
274868,-227.272727272726,4,2,4,50,0,0
279706,-156.25,4,2,4,50,0,0
281061,-227.272727272726,4,2,4,50,0,0
285900,-156.25,4,2,4,50,0,0
287255,-227.272727272726,4,2,4,50,0,0
291319,-156.25,4,2,4,50,0,0
292868,-156.25,4,2,4,60,0,0
315997,-156.25,4,2,4,5,0,0
316093,-156.25,4,2,4,60,0,0
316384,-156.25,4,2,4,5,0,0
316480,-156.25,4,2,4,60,0,0
316771,-156.25,4,2,4,5,0,0
316867,-156.25,4,2,4,60,0,0
317158,-156.25,4,2,4,5,0,0
317254,-156.25,4,2,4,60,0,0
317545,-156.25,4,2,4,5,0,0
317642,-106.382978723404,4,2,4,70,0,0
343964,-454.545454545455,4,2,4,60,0,0
362545,-156.25,4,2,4,40,0,0
374932,-100,4,2,4,50,0,0
375512,-400,4,2,4,50,0,0
376480,-100,4,2,4,50,0,0
377060,-400,4,2,4,50,0,0
378029,-100,4,2,4,50,0,0
378609,-400,4,2,4,50,0,0
379577,-100,4,2,4,50,0,0
381125,-100,4,2,4,50,0,0
381705,-400,4,2,4,50,0,0
382674,-100,4,2,4,50,0,0
383254,-400,4,2,4,50,0,0
384222,-100,4,2,4,50,0,0
385771,-400,4,2,4,50,0,0
387319,-100,4,2,4,50,0,0
387899,-400,4,2,4,50,0,0
388867,-100,4,2,4,50,0,0
389447,-400,4,2,4,50,0,0
390416,-100,4,2,4,50,0,0
391964,-400,4,2,4,50,0,0
393513,-100,4,2,4,50,0,0
394093,-400,4,2,4,50,0,0
395061,-100,4,2,4,50,0,0
404352,-400,4,2,4,50,0,0
406481,-400,4,2,4,70,0,0
406674,-71.4285714285714,4,2,4,70,0,0
407448,-71.4285714285714,4,2,4,80,0,1
416352,-52.6315789473684,4,2,4,80,0,1
416739,-166.666666666667,4,2,4,80,0,1
417319,-71.4285714285714,4,2,4,80,0,1
425448,-55.5555555555556,4,2,4,80,0,1
426029,-71.4285714285714,4,2,4,80,0,1
428545,-200,4,2,4,80,0,1
429126,-43.4782608695652,4,2,4,80,0,1
430093,-200,4,2,4,80,0,1
430674,-71.4285714285714,4,2,4,80,0,1
439964,-55.5555555555556,4,2,4,80,0,1
442093,-71.4285714285714,4,2,4,80,0,1
450222,-55.5555555555556,4,2,4,80,0,1
453126,-142.857142857143,4,2,4,80,0,1
453610,-55.5555555555556,4,2,4,80,0,1
454093,-125,4,2,4,80,0,1
454481,-100,4,2,4,50,0,0
460093,-166.666666666667,4,2,4,50,0,0
460674,-250.000000000001,4,2,4,50,0,0
461642,-166.666666666667,4,2,4,50,0,0
462220,-250.000000000001,4,2,4,50,0,0
463188,-166.666666666667,4,2,4,50,0,0

[Colours]
Combo1 : 147,117,251
Combo2 : 220,185,255
Combo3 : 199,172,204

[HitObjects]
223,82,1061,6,0,P|217:53|222:15,1,64.3800015717774,2|0,0:2|0:0,0:0:0:0:
301,90,1835,6,0,B|312:48|298:3,1,85.8400020957032,2|0,0:0|0:0,0:0:0:0:
245,167,2545,6,0,P|246:183|251:271,1,104.400002548828,2|0,0:1|0:0,0:0:0:0:
279,339,3610,6,0,P|275:318|276:292,9,41.76,2|0|0|0|0|0|0|0|0|0,0:0|0:0|0:0|0:0|0:0|0:0|0:0|0:0|0:0|0:0,0:0:0:0:
320,243,4964,5,2,0:1:0:0:
166,99,5545,5,2,0:0:0:0:
219,45,5739,2,0,L|225:9,1,27.84,2|0,0:0|0:0,0:0:0:0:
301,90,5932,6,0,L|298:114,1,13.92,0|0,3:3|3:0,0:0:0:0:
227,6,6222,5,2,0:1:0:0:
16,234,6513,6,0,B|57:224|57:224|108:220,1,83.52,2|0,0:0|0:0,0:0:0:0:
160,178,6900,2,0,P|186:187|217:192,1,55.68,2|0,0:0|0:0,0:0:0:0:
260,249,7190,1,0,0:0:0:0:
317,206,7287,2,0,B|338:199|338:199|367:194,1,41.76,2|0,0:0|0:0,0:0:0:0:
425,170,7481,6,0,B|429:180|428:196|431:200,3,27.84,2|2|2|2,0:0|0:0|0:0|0:0,0:0:0:0:
369,125,7964,5,2,0:0:0:0:
194,351,8481,6,0,B|192:360|138:324|203:248|229:298|271:216|211:190,1,194.299990809174,14|0,3:3|0:0,0:0:0:0:
216,193,9900,6,0,L|222:269,1,73.0800017841797,2|0,3:3|0:0,0:0:0:0:
377,105,10771,6,0,L|382:155,1,41.7600010195313,2|0,3:3|0:0,0:0:0:0:
484,343,11787,5,0,3:0:0:0:
479,334,11884,2,0,L|482:312,1,20.8800005097656,2|0,0:1|0:0,0:0:0:0:
484,343,12416,5,2,0:0:0:0:
419,384,13190,5,2,0:0:0:0:
484,343,13335,5,0,3:0:0:0:
479,334,13432,2,0,L|482:312,1,20.8800005097656,2|0,0:1|0:0,0:0:0:0:
419,384,13964,5,2,0:0:0:0:
484,343,14739,5,2,0:0:0:0:
419,384,14884,5,0,3:0:0:0:
414,375,14981,2,0,L|417:353,1,20.8800005097656,2|0,0:1|0:0,0:0:0:0:
419,384,15513,5,2,0:0:0:0:
480,320,15900,1,2,0:0:0:0:
419,384,16287,5,2,0:0:0:0:
483,342,16432,5,0,3:0:0:0:
479,334,16529,2,0,L|482:312,1,20.8800005097656,2|0,0:1|0:0,0:0:0:0:
353,218,17061,5,2,0:0:0:0:
512,84,17835,5,2,0:0:0:0:
462,31,17981,5,0,3:0:0:0:
458,23,18078,2,0,L|461:1,1,20.8800005097656,2|0,0:1|0:0,0:0:0:0:
512,84,18658,5,2,0:0:0:0:
272,186,19239,5,2,0:3:0:0:
237,124,19529,6,0,L|243:87,1,36.5400008920899,0|0,3:0|0:0,0:0:0:0:
282,28,20013,1,2,0:0:0:0:
284,22,20400,1,2,0:0:0:0:
125,135,20932,5,2,0:0:0:0:
131,143,21029,2,0,L|138:193,1,46.9800011469727,0|0,3:0|0:0,0:0:0:0:
100,251,21706,1,2,0:0:0:0:
266,306,22432,5,2,0:0:0:0:
263,296,22529,2,0,L|266:284,1,10.4400002548828,0|0,3:2|3:2,3:2:0:0:
330,246,22722,1,2,0:0:0:0:
168,357,23255,5,2,0:0:0:0:
100,251,23706,5,2,0:0:0:0:
97,263,23835,1,0,3:0:0:0:
167,224,23964,6,0,L|197:230,1,27.8400006796875,2|2,0:1|0:0,0:0:0:0:
72,161,24416,1,0,3:0:0:0:
251,62,24868,5,2,0:0:0:0:
256,192,24932,12,0,41932,0:0:0:0:
432,286,42029,6,0,B|405:268|405:268|365:306|365:306|384:318,1,96.5700023576661,2|2,0:1|0:0,0:0:0:0:
428,307,47013,5,2,0:0:0:0:
432,297,47110,2,0,P|428:265|430:218,1,76.5600023364259,2|2,0:0|0:0,0:0:0:0:
441,384,47739,6,0,P|443:253|468:93,1,291.45,2|0,0:0|0:0,0:0:0:0:
434,53,55964,5,2,0:0:0:0:
474,115,56158,1,2,0:0:0:0:
412,162,56352,1,2,0:0:0:0:
450,226,56545,1,2,0:0:0:0:
399,291,56739,5,2,0:0:0:0:
396,285,56932,1,2,0:0:0:0:
402,284,57126,1,2,0:0:0:0:
405,289,57319,1,2,0:0:0:0:
399,291,57513,6,0,P|359:286|320:237,1,87,2|0,0:0|0:0,0:0:0:0:
260,164,57900,1,2,0:0:0:0:
450,226,58093,2,0,P|421:245|370:256,1,87,2|0,0:0|0:0,0:0:0:0:
260,164,59061,6,0,P|270:128|279:78,1,87,2|0,0:0|0:0,0:0:0:0:
154,209,59448,1,2,0:0:0:0:
304,118,59642,2,0,P|303:76|293:23,1,87,2|0,0:0|0:0,0:0:0:0:
154,209,60610,6,0,P|179:246|232:263,1,87,2|0,0:0|0:0,0:0:0:0:
74,116,60997,1,2,0:0:0:0:
200,225,61190,2,0,P|230:221|270:179,1,87,2|0,0:0|0:0,0:0:0:0:
74,116,62158,6,0,P|56:159|54:219,1,87,2|0,0:0|0:0,0:0:0:0:
154,73,62545,1,2,0:0:0:0:
30,153,62739,2,0,P|33:219|53:292,1,130.5,2|0,0:0|0:0,0:0:0:0:
56,290,63126,5,2,0:0:0:0:
200,225,63319,1,2,0:0:0:0:
102,164,63513,1,0,0:0:0:0:
212,339,63706,6,0,P|283:297|393:277,1,174,2|0,0:0|0:0,0:0:0:0:
200,225,64287,2,0,P|236:234|277:265,1,87,2|0,0:0|0:0,0:0:0:0:
480,327,65255,6,0,P|434:307|398:188,1,174,2|0,0:0|0:0,0:0:0:0:
347,355,65835,2,0,P|345:318|373:274,1,87,2|0,0:0|0:0,0:0:0:0:
232,102,66803,6,0,P|272:117|325:126,1,87,2|0,0:0|0:0,0:0:0:0:
189,181,67190,1,2,0:0:0:0:
370,63,67384,6,0,P|327:75|271:102,1,87,2|0,0:0|0:0,0:0:0:0:
452,227,67771,2,0,P|433:183|423:138,1,87,2|0,0:0|0:0,0:0:0:0:
487,70,68158,1,0,0:0:0:0:
354,210,68352,6,0,P|339:275|329:340,1,130.5,2|0,0:0|0:0,0:0:0:0:
329,338,69900,6,0,P|295:308|239:296,1,87,2|0,0:0|0:0,0:0:0:0:
123,204,70287,1,2,0:0:0:0:
278,261,70481,2,0,P|239:269|212:311,1,87,2|0,0:0|0:0,0:0:0:0:
11,378,71448,6,0,P|22:337|22:282,1,87,2|0,0:0|0:0,0:0:0:0:
123,204,71835,1,2,0:0:0:0:
46,334,72029,2,0,P|44:290|33:245,1,87,2|0,0:0|0:0,0:0:0:0:
178,77,72997,6,0,P|124:79|73:143,1,130.5,2|0,0:0|0:0,0:0:0:0:
72,147,73384,1,0,0:0:0:0:
230,98,73577,2,0,P|219:66|168:33,1,87,2|0,0:0|0:0,0:0:0:0:
221,189,74545,6,0,P|263:207|314:210,1,87,2|0,0:0|0:0,0:0:0:0:
176,251,74932,1,2,0:0:0:0:
291,296,75126,6,0,P|336:285|388:253,1,87,2|0,0:0|0:0,0:0:0:0:
494,157,75513,1,2,0:0:0:0:
376,186,75706,2,0,P|418:199|456:229,1,87,2|0,0:0|0:0,0:0:0:0:
402,366,76093,6,0,P|393:277|369:185,1,174,2|0,0:0|0:0,0:0:0:0:
199,326,76674,2,0,P|209:283|217:234,1,87,2|0,0:0|0:0,0:0:0:0:
72,92,77642,6,0,P|86:134|95:188,1,87,2|0,0:0|0:0,0:0:0:0:
72,244,78029,1,2,0:0:0:0:
273,83,78222,2,0,P|266:123|248:173,1,87,2|0,0:0|0:0,0:0:0:0:
295,225,78610,1,2,0:0:0:0:
174,120,78803,1,2,0:0:0:0:
290,245,78997,1,2,0:0:0:0:
356,168,79190,6,0,P|401:152|451:145,1,87,2|0,0:0|0:0,0:0:0:0:
350,64,79577,1,2,0:0:0:0:
488,215,79771,2,0,P|450:195|406:184,1,87,2|0,0:0|0:0,0:0:0:0:
512,100,80158,1,2,0:0:0:0:
435,220,80352,2,0,P|439:285|460:353,1,130.5,2|0,0:0|0:0,0:0:0:0:
458,357,80739,6,0,P|422:337|360:324,1,87,2|0,0:0|0:0,0:0:0:0:
330,270,81126,1,2,0:0:0:0:
364,164,81319,6,0,P|276:190|203:243,2,174,2|2|2,0:0|0:0|0:0,0:0:0:0:
134,46,82287,6,0,P|199:47|216:121,1,130.5,10|0,3:0|0:0,0:0:0:0:
231,112,82674,1,2,0:0:0:0:
94,178,82868,2,0,P|97:151|151:126,1,87,2|0,0:0|0:0,0:0:0:0:
283,284,83835,6,0,P|242:283|206:246,1,87,2|0,0:0|0:0,0:0:0:0:
334,349,84222,1,2,0:0:0:0:
316,199,84416,2,0,P|298:230|248:254,1,87,2|0,0:0|0:0,0:0:0:0:
81,367,85384,6,0,P|70:322|172:288,1,174,2|0,0:0|0:0,0:0:0:0:
257,118,85964,2,0,P|309:121|326:232,1,174,2|0,0:0|0:0,0:0:0:0:
465,332,86545,2,0,P|432:360|382:350,1,87,2|0,0:0|0:0,0:0:0:0:
306,253,86932,6,0,P|311:221|321:185,1,65.25,2|0,0:0|0:0,0:0:0:0:
297,262,87900,5,2,0:0:0:0:
415,200,88093,1,2,0:0:0:0:
498,296,88287,1,2,0:0:0:0:
396,377,88481,6,0,P|385:337|382:279,1,87,10|0,3:0|0:0,0:0:0:0:
435,186,88868,1,2,0:0:0:0:
272,288,89061,2,0,P|309:242|436:206,1,174,2|0,0:0|0:0,0:0:0:0:
284,70,89642,2,0,P|326:82|367:118,1,87,2|0,0:0|0:0,0:0:0:0:
226,176,90029,6,0,P|184:183|128:209,1,87,2|0,0:0|0:0,0:0:0:0:
64,302,90416,1,2,0:0:0:0:
287,378,90610,2,0,P|252:323|149:280,1,174,2|0,0:0|0:0,0:0:0:0:
25,126,91190,2,0,P|31:171|48:217,1,87,2|0,0:0|0:0,0:0:0:0:
201,357,91577,6,0,P|224:216|258:73,1,261,2|2,0:0|0:0,0:0:0:0:
250,100,92545,6,0,P|214:125|152:135,1,87,2|0,0:0|0:0,0:0:0:0:
114,92,92932,1,0,0:0:0:0:
338,202,93126,2,0,P|285:194|209:15,1,261,2|0,0:0|0:0,0:0:0:0:
338,202,94674,6,0,P|343:251|352:305,1,87,2|0,0:0|0:0,0:0:0:0:
268,155,95061,1,2,0:0:0:0:
378,253,95255,2,0,P|370:296|354:342,1,87,2|0,0:0|0:0,0:0:0:0:
466,178,96222,6,0,P|461:132|451:89,1,87,2|0,0:0|0:0,0:0:0:0:
352,181,96610,1,2,0:0:0:0:
495,125,96803,2,0,P|479:77|456:45,1,87,2|0,0:0|0:0,0:0:0:0:
292,260,97771,6,0,P|366:197|451:234,1,174,2|0,0:0|0:0,0:0:0:0:
271,154,98352,2,0,P|240:146|209:136,1,65.25,2|0,0:0|0:0,0:0:0:0:
376,272,99319,6,0,P|386:318|396:358,1,87,2|0,0:0|0:0,0:0:0:0:
487,235,99706,1,2,0:0:0:0:
355,324,99900,2,0,P|354:243|386:133,1,174,2|0,0:0|0:0,0:0:0:0:
468,7,100481,2,0,P|465:53|475:103,1,87,2|0,0:0|0:0,0:0:0:0:
429,195,100868,6,0,P|353:205|295:127,1,174,2|0,0:0|0:0,0:0:0:0:
135,254,101448,2,0,P|138:296|147:346,1,87
41,206,101835,1,2,0:0:0:0:
165,290,102029,2,0,P|153:336|149:378,1,87,2|0,0:0|0:0,0:0:0:0:
276,243,102416,6,0,P|266:174|177:104,1,174,2|0,0:0|0:0,0:0:0:0:
274,0,102997,2,0,P|231:6|186:35,1,87,2|0,0:0|0:0,0:0:0:0:
109,141,103384,1,2,0:0:0:0:
342,148,103577,2,0,P|324:103|275:63,1,87,2|0,0:0|0:0,0:0:0:0:
410,299,103964,6,0,P|436:259|437:106,1,174,2|0,0:0|0:0,0:0:0:0:
253,280,104545,2,0,P|298:275|351:245,1,87,2|0,0:0|0:0,0:0:0:0:
205,180,104932,1,2,0:0:0:0:
92,270,105126,2,0,P|115:306|162:332,1,87,2|0,0:0|0:0,0:0:0:0:
77,102,105513,2,0,P|36:130|0:244,1,174,2|0,0:0|0:0,0:0:0:0:
239,130,106093,5,0,3:2:0:0:
243,125,106190,1,0,3:2:0:0:
231,123,106287,2,0,B|237:140|237:140|236:153|236:153|243:181,1,43.5,8|0,0:0|0:0,0:0:0:0:
410,299,106481,6,0,B|459:211|337:236|408:124,1,174,6|0,3:2|3:2,0:0:0:0:
442,84,106964,1,0,3:2:0:0:
512,134,107061,6,0,B|516:147|516:147|450:165,1,60.8999981414796,8|0,0:0|0:0,0:0:0:0:
335,270,107255,2,0,B|328:282|328:282|274:265,1,60.8999981414796,0|0,3:0|0:0,0:0:0:0:
492,325,107448,6,0,B|505:354|505:354|386:383,1,121.799996282959,8|0,0:0|0:0,0:0:0:0:
499,192,107835,6,0,B|506:172|506:172|505:150|505:150|515:124,1,60.8999981414796,4|0,3:2|0:0,0:0:0:0:
336,24,108029,1,0,3:2:0:0:
346,16,108126,1,0,3:2:0:0:
348,30,108222,2,0,B|364:63|364:63|343:113|343:113|367:179,1,121.799996282959,2|0,3:2|0:0,0:0:0:0:
415,182,108513,1,2,0:0:0:0:
444,104,108610,6,0,B|420:90|420:90|353:117,1,78.2999976104737,2|0,3:1|0:0,0:0:0:0:
180,238,108803,1,8,0:0:0:0:
225,230,108900,1,8,0:0:0:0:
250,179,108997,1,8,0:0:0:0:
207,127,109093,1,8,0:0:0:0:
163,71,109190,2,0,B|159:32|159:32|195:4,1,78.2999976104737,2|0,0:0|0:0,0:0:0:0:
315,132,109384,6,0,L|119:182,1,156.599995220947,2|0,0:1|0:0,0:0:0:0:
61,279,109674,1,0,0:0:0:0:
1,186,109771,2,0,L|68:209,1,60.8999981414796,0|0,3:2|3:2,0:0:0:0:
281,368,110061,6,0,B|299:368|299:368|282:361,1,30.4499990707398,2|0,0:1|0:0,0:0:0:0:
222,332,110158,2,0,B|202:275|202:275|273:235|273:235|305:303,1,182.699994424439,6|0,3:1|0:0,0:0:0:0:
295,287,110545,1,0,0:0:0:0:
182,162,110739,1,0,3:0:0:0:
176,150,110835,2,0,B|183:129|183:129|181:108|181:108|198:67,1,60.8999981414796,2|0,0:1|0:0,0:0:0:0:
418,200,111126,6,0,B|439:188|439:188|390:196,1,60.8999981414796,2|0,0:1|0:0,0:0:0:0:
295,287,111319,2,0,B|366:272|366:272|227:240,1,182.699994424439,2|0,1:1|0:0,0:0:0:0:
189,281,111706,6,0,B|168:312|168:312|169:350,1,60.8999981414796,8|0,0:0|0:0,0:0:0:0:
297,172,111900,2,0,L|276:85,1,60.8999981414796,8|0,0:0|0:0,0:0:0:0:
140,18,112093,1,0,3:2:0:0:
94,74,112190,1,0,3:2:0:0:
141,134,112287,2,0,B|170:127|170:127|206:94,1,60.8999981414796,0|0,3:0|0:0,0:0:0:0:
351,31,112481,6,0,B|385:39|385:39|395:47|395:47|441:63,2,81.1999975219727,2|2|2,1:1|0:1|0:1,0:0:0:0:
267,11,112868,5,8,0:0:0:0:
255,20,112964,2,0,B|250:52|250:52|270:89,1,60.8999981414796,2|8,0:1|0:0,0:0:0:0:
491,219,113255,6,0,B|464:187|464:187|397:198|397:198|418:222,1,121.799996282959,4|0,3:2|0:0,0:0:0:0:
299,298,113642,1,2,0:1:0:0:
414,338,113835,6,0,B|397:356|397:356|337:341,1,60.8999981414796,8|0,0:0|0:0,0:0:0:0:
237,214,114029,2,0,B|236:183|236:183|254:150,1,60.8999981414796,2|0,0:1|0:0,0:0:0:0:
57,300,114222,1,0,3:0:0:0:
116,331,114319,1,0,3:0:0:0:
154,269,114416,6,0,B|166:232|166:232|149:199|149:199|105:178|105:178|84:132|84:132|105:109,1,182.699994424439,12|0,0:0|0:0,0:0:0:0:
89,125,114803,6,0,L|170:161,1,60.8999981414796,12|0,0:0|0:0,0:0:0:0:
326,229,114997,1,0,3:2:0:0:
172,375,115190,6,0,L|250:348,1,60.8999981414796,2|0,0:0|0:0,0:0:0:0:
452,258,115384,2,0,B|396:231|396:231|297:281|297:281|219:238,1,243.599992565918,14|8,3:0|0:0,0:0:0:0:
211,269,115868,2,0,B|200:247|200:247|228:209,1,60.8999981414796,8|8,0:0|0:0,0:0:0:0:
370,110,116158,6,0,B|383:85|383:85|360:38,1,60.8999981414796,0|0,3:2|0:0,0:0:0:0:
240,0,116352,2,0,B|252:25|252:25|244:64|244:64|271:135,1,121.799996282959,4|0,3:2|0:0,0:0:0:0:
295,178,116642,1,2,0:0:0:0:
285,183,116739,1,0,3:2:0:0:
373,142,116932,6,0,B|393:131|393:131|449:154,1,60.8999981414796,0|0,3:2|0:0,0:0:0:0:
277,296,117126,1,0,3:2:0:0:
316,235,117222,2,0,L|291:167,1,60.8999981414796,2|0,0:1|3:2,0:0:0:0:
453,258,117416,1,2,0:1:0:0:
391,298,117513,2,0,B|377:303|377:303|188:248,1,182.699994424439,2|0,3:1|0:0,0:0:0:0:
76,337,117900,6,0,B|122:257|122:257|433:177,1,391.499988052369,12|0,3:2|0:0,0:0:0:0:
394,143,118481,2,0,B|409:167|409:167|469:182,1,78.2999976104737,0|0,3:2|0:0,0:0:0:0:
200,10,118868,6,0,B|172:39|172:39|181:82,1,78.2999976104737,2|0,0:0|0:0,0:0:0:0:
328,324,119061,2,0,L|299:145,1,156.599995220947,8|0,0:0|0:0,0:0:0:0:
293,99,119352,1,2,0:1:0:0:
165,194,119448,6,0,B|158:183|158:183|234:209,1,60.8999981414796,4|0,3:2|0:0,0:0:0:0:
356,246,119642,1,2,0:0:0:0:
198,355,119835,6,0,B|179:352|179:352|246:329,1,60.8999981414796,2|0,0:0|0:0,0:0:0:0:
356,246,120029,2,0,B|413:281|413:281|366:333|366:333|308:300,1,182.699994424439,2|0,3:1|0:0,0:0:0:0:
267,246,120416,5,0,3:2:0:0:
309,184,120513,2,0,B|307:157|307:157|330:118,1,60.8999981414796,4|0,3:2|0:0,0:0:0:0:
258,21,120706,2,0,B|187:4|187:4|232:36,1,121.799996282959,0|0,3:0|0:0,0:0:0:0:
110,109,120997,5,8,0:0:0:0:
69,169,121093,1,8,0:0:0:0:
81,192,121190,2,0,B|85:201|85:201|147:214,1,60.8999981414796,0|0,3:0|0:0,0:0:0:0:
227,352,121384,2,0,B|218:312|218:312|193:295,1,60.8999981414796,0|0,3:2|0:0,0:0:0:0:
91,297,121577,6,0,L|300:235,1,182.699994424439,0|0,3:2|0:0,0:0:0:0:
419,129,121964,1,8,0:0:0:0:
445,166,122061,1,8,0:0:0:0:
401,219,122158,2,0,B|370:220|370:220|343:192,1,60.8999981414796,0|0,3:2|0:0,0:0:0:0:
219,41,122352,1,0,3:2:0:0:
237,23,122448,1,0,3:2:0:0:
284,73,122545,6,0,L|236:405,1,304.499990707398,4|0,3:2|0:0,0:0:0:0:
239,384,123126,1,2,3:2:0:0:
137,106,123513,6,0,B|129:96|129:96|196:110,1,60.8999981414796,0|0,3:0|0:0,0:0:0:0:
347,214,123706,2,0,B|355:231|355:231|347:255|347:255|363:301,2,81.1999975219727,6|2|2,1:1|0:1|0:1,0:0:0:0:
453,140,124093,6,0,B|420:124|420:124|382:140,1,60.8999981414796,0|0,3:2|0:0,0:0:0:0:
226,224,124287,1,0,3:2:0:0:
425,347,124481,6,0,B|418:327|418:327|367:312,1,60.8999981414796,0|0,3:2|0:0,0:0:0:0:
154,261,124674,2,0,L|408:234,1,243.599992565918,6|0,3:2|0:0,0:0:0:0:
334,204,125158,1,2,0:0:0:0:
417,111,125255,6,0,B|520:98|520:98|433:152,1,182.699994424439,8|0,0:0|0:0,0:0:0:0:
348,76,125642,6,0,B|330:51|330:51|337:7,1,60.8999981414796,2|0,3:2|0:2,3:2:0:0:
411,34,125835,1,2,0:0:0:0:
179,172,126029,6,0,B|179:141|179:141|203:108,1,60.8999981414796,0|0,3:0|0:0,0:0:0:0:
262,177,126222,2,0,L|214:379,1,182.699994424439,4|0,3:2|0:0,0:0:0:0:
240,374,126610,2,0,B|249:352|249:352|222:307,1,60.8999981414796,0|8,0:0|0:0,0:0:0:0:
0,199,126900,5,2,0:1:0:0:
15,210,126997,2,0,L|30:277,1,60.8999981414796,0|0,3:0|3:0,0:0:0:0:
175,104,127190,6,0,B|196:88|196:88|245:99,1,60.8999981414796,8|0,0:0|0:0,0:0:0:0:
304,20,127384,2,0,B|334:24|334:24|353:67,1,60.8999981414796,0|0,3:2|0:0,0:0:0:0:
434,217,127577,6,0,B|401:216|401:216|370:178,1,60.8999981414796,0|0,3:2|0:0,0:0:0:0:
322,134,127771,2,0,B|350:198|350:198|290:243,1,121.799996282959,0|0,3:2|0:0,0:0:0:0:
161,383,128158,6,2,B|146:320|149:319|146:324|144:318|188:235|190:230|192:235|194:231|166:151,1,243.599992565918,2|0,0:1|0:0,0:0:0:0:
285,0,128739,6,0,B|225:53|225:53|260:124,1,121.799996282959,4|0,3:2|0:0,0:0:0:0:
419,241,129126,2,0,L|394:162,1,60.8999981414796,2|0,0:1|0:0,0:0:0:0:
495,56,129319,6,0,B|510:91|510:91|469:125|469:125|329:91,1,182.699994424439,2|0,3:1|0:0,0:0:0:0:
188,196,129706,6,0,B|164:197|164:197|228:157|228:157|307:190,1,182.699994424439,0|0,3:2|0:1,0:1:0:0:
407,268,130093,6,0,L|393:327,1,60.8999981414796,0|0,3:0|0:0,0:0:0:0:
337,384,130287,5,6,0:3:0:0:
337,384,130868,1,2,0:0:0:0:
337,384,131448,1,2,0:0:0:0:
289,326,131835,6,0,P|258:300|208:288,2,76.5600023364259,2|0|0,0:0|0:0|0:0,0:0:0:0:
119,330,133190,5,2,0:0:0:0:
179,292,133384,2,0,P|202:266|254:251,2,76.5600023364259,2|0|0,0:0|0:0|0:0,0:0:0:0:
336,240,134739,5,2,0:0:0:0:
274,283,134932,2,0,P|262:249|259:201,2,76.5600023364259,2|0|0,0:0|0:0|0:0,0:0:0:0:
153,202,137255,5,2,0:0:0:0:
219,239,137448,2,0,P|225:207|244:163,1,76.5600023364259,2|0,0:0|0:0,0:0:0:0:
233,250,138416,6,0,B|208:134|110:195|152:46|152:46|202:243|285:130|342:317|260:323,1,574.200017523194,2|0,0:0|0:0,0:0:0:0:
269,321,141513,2,0,L|260:272,1,38.2800011682129,2|0,0:0|0:0,0:0:0:0:
420,121,142093,6,0,L|416:145,2,12.7600003894043,0|0|0,3:0|3:0|3:0,0:0:0:0:
423,108,142287,1,2,0:0:0:0:
319,203,142481,1,2,3:2:0:0:
319,229,142577,1,2,0:0:0:0:
346,200,142674,1,2,0:0:0:0:
276,64,142868,1,8,3:0:0:0:
501,192,143255,5,2,0:0:0:0:
492,208,143352,2,0,L|481:259,1,36.5399988848877,2|0,0:0|3:0,0:0:0:0:
427,288,143545,1,0,3:0:0:0:
439,304,143642,2,0,L|449:357,1,36.5399988848877,2|0,0:0|3:0,0:0:0:0:
216,152,144029,5,2,0:0:0:0:
401,72,144319,1,2,0:1:0:0:
173,0,144610,1,2,0:1:0:0:
411,94,144900,1,2,0:1:0:0:
146,241,145577,6,0,P|196:271|258:293,1,114.840003504639,2|0,0:1|0:0,0:0:0:0:
107,336,146352,1,2,0:0:0:0:
107,336,146448,1,2,0:0:0:0:
179,309,146642,1,2,0:0:0:0:
179,309,146739,1,2,0:0:0:0:
69,92,147319,6,0,L|74:120,1,19.1400005841065,2|0,0:0|0:0,0:0:0:0:
19,179,147513,2,0,L|11:207,2,19.1400005841065,2|0|0,0:0|0:0|0:0,0:0:0:0:
169,86,147900,5,2,0:0:0:0:
51,19,148093,2,0,P|79:20|141:83,1,114.840003504639,2|0,0:0|0:0,0:0:0:0:
249,179,148868,6,0,P|267:171|292:157,1,38.2800011682129,2|0,0:0|0:0,0:0:0:0:
321,97,149255,1,0,0:0:0:0:
138,201,149448,2,0,P|155:215|176:226,1,38.2800011682129,2|0,0:0|0:0,0:0:0:0:
325,353,149835,6,0,L|314:292,1,55.68,0|0,3:2|0:2,0:2:0:0:
502,121,150319,5,0,3:0:0:0:
509,129,150416,2,0,P|471:137|424:81,1,111.36,0|0,3:0|3:0,3:0:0:0:
417,103,151190,6,0,P|380:126|310:145,1,111.36,8|0,0:0|0:0,0:0:0:0:
281,25,151771,6,0,L|271:1,2,13.92
339,59,151964,1,0,0:0:0:0:
228,151,152158,1,0,0:0:0:0:
373,258,152352,2,0,P|369:287|363:318,1,55.68,0|0,3:0|0:0,0:0:0:0:
280,384,152739,6,0,P|272:339|271:257,1,111.36,8|0,0:0|0:0,0:0:0:0:
400,179,153319,1,2,0:0:0:0:
215,117,153513,6,0,P|239:132|278:141,1,55.68,0|0,3:0|0:0,0:0:0:0:
407,289,153900,2,0,P|437:274|454:256,1,55.68,0|0,3:0|0:0,0:0:0:0:
326,218,154287,6,0,L|187:245,1,139.2,8|0,0:0|0:0,0:0:0:0:
164,232,154868,2,0,P|168:248|173:284,1,27.84,2|0,0:0|0:0,0:0:0:0:
320,133,155255,5,2,3:2:0:0:
147,28,155448,2,0,B|219:49|178:64|256:84,1,111.36,2|8,0:0|0:0,0:0:0:0:
131,137,156029,1,2,0:0:0:0:
269,48,156222,2,0,P|240:59|211:63,1,55.68,2|0,0:0|0:0,0:0:0:0:
422,231,156610,6,0,P|394:193|396:136,1,73.0799977697755,0|0,3:0|0:0,0:0:0:0:
221,336,156997,2,0,P|223:287|254:253,1,73.0799977697755,0|0,3:0|0:0,0:0:0:0:
295,229,157287,1,2,0:0:0:0:
308,237,157384,1,8,0:0:0:0:
392,342,157577,6,0,P|376:335|348:325,1,36.5399988848877,2|0,0:0|0:0,0:0:0:0:
202,192,157771,1,2,0:0:0:0:
320,129,157964,6,0,P|298:136|273:141,1,36.5399988848877,8|0,0:0|0:0,0:0:0:0:
173,307,158158,2,0,P|205:287|250:279,1,73.0799977697755,2|0,0:0|3:2,0:0:0:0:
81,102,158545,2,0,P|127:112|152:137,1,73.0799977697755,0|0,3:0|0:0,0:0:0:0:
1,257,158932,6,0,L|53:247,1,36.5399988848877,8|0,0:0|0:0,0:0:0:0:
102,228,159126,2,0,P|138:219|106:243,1,109.619996654663,2|0,3:0|0:0,0:0:0:0:
39,259,159513,6,0,L|3:249,1,36.5399988848877,0|0,3:2|3:2,0:0:0:0:
142,351,159706,2,0,P|185:345|269:319,1,109.619996654663,2|0,3:2|0:0,0:0:0:0:
325,374,160093,2,0,P|347:347|360:293,1,73.0799977697755,0|0,3:0|0:0,0:0:0:0:
420,262,160384,1,0,3:0:0:0:
423,255,160481,2,0,P|416:235|402:212,1,36.5399988848877,8|0,0:0|0:0,0:0:0:0:
481,330,160674,2,0,P|499:343|528:353,1,36.5399988848877,2|0,0:0|0:0,0:0:0:0:
359,311,160868,6,0,L|220:331,1,109.619996654663,2|0,0:1|0:0,0:0:0:0:
238,330,161255,1,2,0:0:0:0:
402,193,161448,6,0,P|421:203|448:205,1,36.5399988848877,2|0,0:0|0:0,0:0:0:0:
386,208,161642,1,0,3:2:0:0:
226,8,161932,5,2,0:0:0:0:
238,19,162029,2,0,L|250:77,1,36.5399988848877,8|0,0:0|0:0,0:0:0:0:
104,179,162222,2,0,B|117:117|149:158|163:65,1,109.619996654663,2|0,0:1|0:0,0:0:0:0:
38,70,162610,5,2,0:0:0:0:
53,61,162706,2,0,P|72:68|95:80,1,36.5399988848877,2|2,3:2|3:2,0:0:0:0:
287,175,163190,6,0,P|209:189|172:213,1,109.619996654663,0|0,3:0|0:0,0:0:0:0:
174,217,163577,1,8,0:0:0:0:
290,354,163771,1,2,0:0:0:0:
186,310,163964,1,2,0:0:0:0:
368,222,164158,1,8,0:0:0:0:
395,236,164255,1,2,0:0:0:0:
350,256,164352,5,2,0:0:0:0:
455,314,164545,1,0,3:2:0:0:
286,175,164739,2,0,P|240:176|157:253,1,146.159995539551,0|8,3:0|0:0,0:0:0:0:
387,121,165319,2,0,P|367:85|327:59,1,73.0799977697755,2|0,0:0|0:0,0:0:0:0:
463,201,165706,1,2,0:0:0:0:
458,213,165803,1,2,0:0:0:0:
470,208,165900,6,0,P|499:169|490:91,1,109.619996654663,0|0,3:0|0:0,0:0:0:0:
450,50,166287,1,0,3:0:0:0:
281,273,166577,5,2,0:0:0:0:
290,265,166674,2,0,P|335:272|367:305,1,73.0799977697755,8|2,0:0|0:0,0:0:0:0:
479,384,167061,2,0,P|467:327|447:271,1,109.619996654663,2|0,0:1|0:0,0:0:0:0:
467,209,167448,6,0,P|470:228|478:252,1,36.5399988848877,2|2,0:0|0:0,0:0:0:0:
281,368,167642,2,0,B|288:344|288:344|284:314|284:314|295:281,1,73.0799977697755,2|0,0:1|3:2,0:0:0:0:
81,83,168126,5,2,0:0:0:0:
90,94,168222,2,0,L|102:145,1,36.5399988848877,8|0,0:0|0:0,0:0:0:0:
28,228,168416,1,0,3:2:0:0:
40,384,168610,6,0,P|70:345|58:270,1,109.619996654663,2|0,0:0|0:0,0:0:0:0:
28,228,168997,6,0,P|62:259|178:272,1,146.159995539551,0|0,3:2|3:2,0:0:0:0:
313,157,169577,1,2,0:0:0:0:
188,37,169771,6,0,P|187:78|213:124,1,73.0799977697755,8|0,0:0|0:0,0:0:0:0:
369,231,170158,1,2,0:0:0:0:
484,90,170352,6,0,P|466:101|442:132,1,36.5399988848877,2|0,0:0|0:0,0:0:0:0:
292,241,170545,2,0,P|353:271|443:295,1,146.159995539551,2|0,3:2|3:2,0:0:0:0:
313,157,171126,1,2,0:0:0:0:
491,206,171319,6,0,L|440:215,1,36.5399988848877,8|0,0:0|0:0,0:0:0:0:
291,330,171513,2,0,L|170:355,1,109.619996654663,0|0,3:2|0:0,0:0:0:0:
162,340,171900,2,0,P|166:357|171:386,1,36.5399988848877,2|0,3:2|0:0,0:0:0:0:
300,228,172093,6,0,P|319:183|309:133,1,73.0799977697755,2|0,3:2|0:0,0:0:0:0:
466,356,172481,2,0,P|459:320|433:277,1,73.0799977697755,0|0,3:2|0:0,0:0:0:0:
512,147,172771,5,2,0:0:0:0:
502,159,172868,2,0,P|466:169|412:180,1,73.0799977697755,8|0,0:0|0:0,0:0:0:0:
258,331,173255,5,2,0:1:0:0:
263,319,173352,1,2,0:0:0:0:
367,222,173545,5,2,0:0:0:0:
361,217,173642,2,0,B|356:205|356:205|356:187|356:187|350:174,2,36.5399988848877,2|2|2,3:2|0:0|0:0,0:0:0:0:
182,68,174029,6,0,P|208:93|266:108,1,73.0799977697755,0|0,3:2|0:2,0:2:0:0:
110,193,174416,1,8,0:0:0:0:
306,57,174610,2,0,P|241:91|156:99,1,146.159995539551,2|0,3:2|3:2,0:2:0:0:
340,204,175190,6,0,P|394:220|463:236,1,109.619996654663,0|0,3:2|0:0,0:0:0:0:
463,229,175577,1,0,3:2:0:0:
308,288,175771,1,0,3:2:0:0:
416,384,175964,6,0,B|442:317|343:333|394:230,1,146.159995539551,8|2,0:0|0:0,0:0:0:0:
259,89,176545,5,8,0:0:0:0:
291,69,176642,1,2,0:0:0:0:
237,81,176739,1,2,0:0:0:0:
344,138,176932,6,0,L|360:181,1,36.5399988848877,2|0,0:0|0:0,0:0:0:0:
159,63,177126,2,0,L|134:156,1,73.0799977697755,0|0,3:2|0:0,0:0:0:0:
243,296,177513,6,0,B|231:258|231:258|256:199|256:199|244:150,1,146.159995539551,8|0,0:0|0:0,0:0:0:0:
259,302,178093,1,2,0:0:0:0:
105,170,178287,6,0,P|141:175|179:199,1,73.0799977697755,0|0,3:2|0:0,0:0:0:0:
37,340,178674,2,0,P|65:316|110:304,1,73.0799977697755,0|0,3:2|0:0,0:0:0:0:
320,256,179061,6,0,L|444:286,1,109.619996654663,8|0,0:0|0:0,0:0:0:0:
446,287,179448,1,2,0:0:0:0:
283,376,179642,6,0,L|276:325,1,36.5399988848877,2|0,0:1|0:0,0:0:0:0:
403,167,179835,1,2,0:0:0:0:
418,129,179932,1,2,0:0:0:0:
389,156,180029,1,2,0:0:0:0:
446,287,180222,6,0,P|500:268|522:240,1,73.0799977697755,0|0,3:0|0:0,0:0:0:0:
305,174,180610,2,0,P|261:156|225:68,1,146.159995539551,8|0,0:0|0:0,0:0:0:0:
377,0,181190,1,8,0:0:0:0:
320,187,181384,6,0,P|274:215|171:228,1,135.719999171631,4|0,3:2|0:0,0:0:0:0:
143,286,181771,2,0,P|98:256|87:210,1,90.4799994477539,0|0,3:0|0:0,0:0:0:0:
40,163,182061,1,0,3:0:0:0:
56,142,182158,1,8,0:0:0:0:
184,237,182352,6,0,P|176:261|170:287,1,45.239999723877,2|0,0:0|0:0,0:0:0:0:
58,383,182545,2,0,P|26:353|49:309,1,90.4799994477539,2|0,0:0|0:0,0:0:0:0:
98,266,182835,1,2,0:0:0:0:
108,283,182932,6,0,B|146:295|146:295|166:314|202:319,1,90.4799994477539,2|0,0:0|3:2,0:0:0:0:
416,185,183319,2,0,B|334:202|334:202|401:242,1,135.719999171631,0|0,3:2|0:0,0:0:0:0:
398,239,183706,1,8,0:0:0:0:
306,115,183900,6,0,P|270:76|174:72,1,135.719999171631,2|0,3:2|0:0,0:0:0:0:
112,60,184287,2,0,P|116:86|143:121,1,45.239999723877,0|0,3:2|0:0,0:0:0:0:
241,293,184481,6,0,P|265:256|260:208,1,90.4799994477539,2|0,3:2|0:0,0:0:0:0:
444,366,184868,2,0,P|439:319|396:280,1,90.4799994477539,0|0,3:2|0:0,0:0:0:0:
319,350,185158,1,0,3:2:0:0:
319,350,185255,2,0,P|277:369|216:377,2,90.4799994477539,10|2|2,0:0|0:0|0:0,0:0:0:0:
471,209,185835,5,2,0:0:0:0:
483,185,185932,1,2,0:0:0:0:
464,193,186029,2,0,L|400:205,1,45.239999723877,2|0,0:0|0:0,0:0:0:0:
209,112,186222,1,2,0:0:0:0:
194,84,186319,1,2,0:0:0:0:
218,101,186416,2,0,L|362:135,1,135.719999171631,0|0,3:2|0:0,0:0:0:0:
391,201,186803,6,0,P|382:223|378:249,1,45.239999723877,8|0,0:0|0:0,0:0:0:0:
225,112,186997,2,0,P|190:65|221:22,1,90.4799994477539,2|0,0:0|0:0,0:0:0:0:
322,0,187384,6,0,P|333:24|340:63,1,45.239999723877,2|0,0:0|0:0,0:0:0:0:
189,194,187577,2,0,P|116:228|33:213,1,135.719999171631,0|0,3:2|0:0,0:0:0:0:
29,157,187964,2,0,P|81:172|99:231,1,90.4799994477539,0|0,3:2|0:0,0:0:0:0:
152,258,188255,1,2,0:0:0:0:
150,274,188352,1,8,0:0:0:0:
286,367,188545,6,0,L|274:310,1,45.239999723877,2|0,0:0|0:0,0:0:0:0:
160,142,188739,6,0,B|104:149|104:149|198:180,1,133.979997342316,2|0,0:1|0:0,0:0:0:0:
248,190,189029,1,2,0:0:0:0:
260,193,189126,1,2,3:2:0:0:
150,327,189319,6,0,L|165:262,1,45.239999723877,2|0,0:0|0:0,0:0:0:0:
343,167,189513,2,0,P|393:183|407:272,1,135.719999171631,0|0,3:2|0:0,0:0:0:0:
464,305,189900,6,0,P|443:322|403:329,1,45.239999723877,8|0,0:0|0:0,0:0:0:0:
250,223,190093,2,0,P|220:168|235:68,1,135.719999171631,2|0,0:0|0:0,0:0:0:0:
276,45,190481,2,0,P|288:63|299:97,1,45.239999723877,0|0,3:2|0:0,0:0:0:0:
138,178,190674,6,0,P|96:190|27:198,1,90.4799994477539,0|0,3:2|0:0,0:0:0:0:
250,235,191061,2,0,P|266:280|289:322,1,90.4799994477539,0|0,3:0|0:0,0:0:0:0:
91,375,191448,6,0,P|95:296|132:173,1,180.959998895508,8|0,0:0|0:0,0:0:0:0:
308,62,192029,1,2,0:0:0:0:
130,11,192222,5,10,0:0:0:0:
126,51,192319,1,2,0:0:0:0:
171,81,192416,1,2,0:0:0:0:
361,7,192610,6,0,P|309:10|233:50,1,135.719999171631,0|0,3:0|0:0,0:0:0:0:
185,104,192997,2,0,L|171:164,1,45.239999723877,8|0,0:0|0:0,0:0:0:0:
372,292,193190,6,0,B|345:243|387:270|341:186,1,90.4799994477539,0|2,3:2|0:0,0:0:0:0:
261,363,193577,1,8,0:0:0:0:
354,132,193771,6,0,B|339:218|298:168|288:259,1,135.719999171631,6|0,3:2|0:0,0:0:0:0:
224,279,194158,2,0,P|245:328|299:353,1,90.4799994477539,2|0,3:2|0:0,0:0:0:0:
345,384,194448,1,0,3:2:0:0:
349,369,194545,1,8,0:0:0:0:
183,195,194739,5,2,0:0:0:0:
174,173,194835,1,2,0:0:0:0:
200,195,194932,2,0,P|161:228|59:235,1,135.719999171631,2|0,0:0|0:0,0:0:0:0:
67,235,195319,1,2,0:0:0:0:
145,317,195513,6,0,P|150:338|160:367,1,45.239999723877,2|0,0:1|0:0,0:0:0:0:
360,216,195706,2,0,P|334:250|315:298,1,90.4799994477539,0|0,3:2|0:0,0:0:0:0:
209,116,196093,6,0,L|199:60,1,45.239999723877,8|0,0:0|0:0,0:0:0:0:
114,20,196287,2,0,B|171:43|171:43|83:77,1,135.719999171631,2|0,0:0|0:0,0:0:0:0:
90,47,196674,2,0,L|34:33,1,45.239999723877,2|0,0:0|0:0,0:0:0:0:
209,193,196868,6,0,B|294:208|288:129|384:144,1,180.959998895508,2|0,3:2|3:2,0:0:0:0:
257,27,197545,5,2,3:2:0:0:
270,37,197642,2,0,P|292:78|302:121,1,90.4799994477539,8|0,0:0|0:0,0:0:0:0:
450,300,198029,2,0,P|479:258|488:152,1,135.719999171631,2|0,0:0|0:0,0:0:0:0:
508,143,198416,6,0,L|447:160,1,45.239999723877,2|0,0:1|0:0,0:0:0:0:
264,273,198610,1,2,0:0:0:0:
239,252,198706,1,2,0:0:0:0:
264,258,198803,2,0,B|292:269|292:269|315:267|315:267|359:282,1,90.4799994477539,0|2,3:2|0:0,0:0:0:0:
421,303,199093,1,2,0:0:0:0:
423,286,199190,6,0,B|373:299|373:299|352:322|352:322|281:326,1,135.719999171631,8|0,0:0|0:0,0:0:0:0:
287,338,199577,1,2,0:0:0:0:
340,182,199771,6,0,B|344:170|344:170|347:145|347:145|355:129,2,45.239999723877,2|2|2,3:2|0:0|3:2,0:0:0:0:
340,182,200352,6,0,P|380:210|434:222,1,90.4799994477539,0|0,3:2|0:0,0:0:0:0:
163,306,200739,2,0,P|203:281|240:143,1,180.959998895508,8|0,0:0|0:0,0:0:0:0:
376,374,201319,1,8,0:0:0:0:
327,307,201513,5,2,0:0:0:0:
309,319,201610,2,0,L|292:370,1,45.239999723877,2|0,0:1|0:0,0:0:0:0:
427,245,201803,5,2,0:1:0:0:
441,259,201900,2,0,L|465:360,1,90.4799994477539,0|0,3:2|0:0,0:0:0:0:
300,226,202287,6,0,B|231:212|257:163|168:151,1,135.719999171631,8|0,0:0|0:0,0:0:0:0:
155,131,202674,2,0,P|162:151|168:200,1,45.239999723877,2|0,0:0|0:0,0:0:0:0:
302,41,202868,2,0,P|296:64|284:90,1,45.239999723877,2|0,3:2|0:0,0:0:0:0:
474,148,203061,6,0,P|424:169|359:183,1,111.36,6|0,3:2|0:0,0:0:0:0:
478,169,203835,6,0,P|428:163|352:145,1,111.36,2|0,3:2|0:2,0:2:0:0:
462,207,204610,6,0,P|421:165|384:107,1,111.36,2|0,3:2|0:0,0:0:0:0:
259,291,205384,5,10,0:0:0:0:
259,305,205481,1,2,0:0:0:0:
275,285,205577,1,2,3:2:0:0:
173,201,205771,6,0,L|157:142,1,40.8899993760681,2|0,0:1|0:0,0:0:0:0:
321,231,206061,5,2,0:1:0:0:
275,285,206158,2,0,B|241:278|241:278|163:327|163:327|112:314,1,163.559997504273,8|0,0:0|0:0,0:0:0:0:
352,384,206739,1,8,3:0:0:0:
93,289,206932,6,0,B|156:274|156:274|260:330|260:330|321:313,1,245.339996256409,4|0,3:2|0:0,0:0:0:0:
469,163,207706,5,2,0:0:0:0:
401,194,207900,1,2,0:3:0:0:
491,238,208093,1,2,3:2:0:0:
384,176,208287,1,0,3:0:0:0:
475,360,208481,5,8,0:0:0:0:
402,336,208674,2,0,P|353:339|314:359,1,81.7799987521363,2|0,0:0|0:0,0:0:0:0:
256,311,208964,1,2,0:0:0:0:
242,319,209061,2,0,P|220:313|181:295,1,40.8899993760681,2|0,0:0|0:0,0:0:0:0:
85,190,209255,5,8,0:0:0:0:
0,248,209448,2,0,P|50:244|82:191,1,81.7799987521363,8|0,3:0|0:0,0:0:0:0:
190,139,209835,5,0,3:2:0:0:
34,88,210029,2,0,P|108:115|176:222,1,204.449996880341,4|0,3:2|0:0,0:0:0:0:
240,269,210610,6,0,L|218:340,1,40.8899993760681,2|0,0:0|0:0,0:0:0:0:
297,224,210803,2,0,P|229:226|150:280,1,163.559997504273,2|0,0:0|0:0,0:0:0:0:
360,371,211384,1,0,3:2:0:0:
186,209,211577,5,8,0:0:0:0:
324,140,211771,1,2,0:0:0:0:
244,142,211964,5,2,3:2:0:0:
364,268,212158,1,0,3:0:0:0:
254,384,212352,6,0,P|243:346|241:288,2,81.7799987521363,12|0|0,0:0|3:0|3:0,0:0:0:0:
157,284,212932,1,8,3:0:0:0:
318,330,213126,6,0,P|357:304|349:106,1,245.339996256409,4|0,3:2|0:0,0:0:0:0:
454,6,213900,2,0,P|406:22|369:59,1,81.7799987521363,2|0,0:0|0:0,0:0:0:0:
252,123,214287,5,2,3:3:0:0:
442,227,214481,1,0,3:2:0:0:
297,220,214674,6,0,B|207:205|221:284|106:257,1,163.559997504273,12|0,0:0|0:0,0:0:0:0:
23,147,215255,5,2,0:0:0:0:
49,125,215352,1,2,0:0:0:0:
1,142,215448,1,8,0:0:0:0:
116,195,215642,5,0,3:2:0:0:
50,220,215835,1,2,0:0:0:0:
0,309,216029,5,8,3:0:0:0:
176,362,216222,6,0,P|234:342|281:228,1,163.559997504273,4|0,3:2|0:0,0:0:0:0:
132,89,216803,2,0,P|180:107|201:148,1,81.7799987521363,2|0,0:0|0:0,0:0:0:0:
265,166,217190,1,2,0:0:0:0:
89,261,217384,5,2,3:0:0:0:
164,235,217577,1,0,3:2:0:0:
6,221,217771,6,0,L|247:286,1,245.339996256409,12|0,0:0|3:2,0:0:0:0:
455,117,218545,5,8,0:0:0:0:
341,156,218739,1,0,3:2:0:0:
408,184,218932,1,2,0:0:0:0:
330,65,219126,5,8,3:0:0:0:
495,215,219319,2,0,P|427:211|333:280,1,163.559997504273,4|0,3:2|0:0,0:0:0:0:
484,130,219900,1,2,0:3:0:0:
283,206,220093,6,0,P|241:186|214:143,1,81.7799987521363,2|0,0:0|0:0,0:0:0:0:
449,323,220481,2,0,P|430:287|426:232,1,81.7799987521363,2|0,0:3|3:0,0:0:0:0:
258,384,220868,5,8,0:0:0:0:
315,286,221061,2,0,P|293:321|284:374,1,81.7799987521363,2|0,0:0|0:0,0:0:0:0:
112,216,221448,1,2,0:0:0:0:
87,190,221545,1,2,0:0:0:0:
132,204,221642,5,8,0:0:0:0:
54,265,221835,1,0,3:0:0:0:
192,248,222029,5,0,3:2:0:0:
161,352,222222,1,8,3:0:0:0:
125,293,222416,6,0,P|116:230|118:104,1,163.559997504273,4|0,3:2|0:0,0:0:0:0:
268,39,222997,1,2,0:0:0:0:
208,0,223190,2,0,P|195:41|191:86,1,81.7799987521363,2|0,0:0|0:0,0:0:0:0:
337,200,223577,1,2,0:3:0:0:
268,234,223771,1,0,3:2:0:0:
426,53,223964,5,8,0:0:0:0:
338,14,224158,1,2,0:0:0:0:
446,42,224352,1,2,0:0:0:0:
328,95,224545,1,2,3:2:0:0:
494,214,224739,6,0,P|469:186|424:160,1,81.7799987521363,8|0,0:0|3:0,3:0:0:0:
239,45,225126,2,0,P|196:60|156:88,1,81.7799987521363,2|0,0:0|3:2,0:0:0:0:
30,242,225513,6,0,P|102:244|236:142,1,245.339996256409,4|0,3:2|0:0,0:0:0:0:
371,3,226287,2,0,P|357:46|350:91,1,81.7799987521363,2|0,0:0|0:0,0:0:0:0:
480,207,226674,1,2,0:3:0:0:
408,235,226868,1,8,3:0:0:0:
499,291,227061,6,0,P|469:242|326:209,1,204.449996880341,12|0,0:0|0:0,0:0:0:0:
314,182,227642,2,0,P|305:207|304:243,1,40.8899993760681,2|2,0:0|0:0,0:0:0:0:
108,372,227835,5,8,0:0:0:0:
224,288,228029,1,2,0:0:0:0:
110,271,228222,5,2,3:2:0:0:
272,377,228416,1,8,3:0:0:0:
178,350,228610,6,0,P|194:266|216:167,1,163.559997504273,4|0,3:2|0:0,0:0:0:0:
70,50,229190,2,0,P|56:90|32:128,1,81.7799987521363,2|0,0:1|0:0,0:0:0:0:
185,34,229577,1,2,0:0:0:0:
115,176,229771,2,0,P|86:144|66:100,1,81.7799987521363,2|0,0:0|0:0,0:0:0:0:
210,189,230158,1,2,0:0:0:0:
45,265,230352,6,0,P|65:252|97:248,1,40.8899993760681,10|0,0:0|0:0,0:0:0:0:
229,178,230545,2,0,L|369:206,1,122.669998128204,0|0,3:2|0:0,0:0:0:0:
415,164,230932,5,8,0:0:0:0:
426,171,231029,2,0,B|435:190|435:190|425:226|425:226|443:261,1,81.7799987521363,2|0,3:1|0:0,0:0:0:0:
502,276,231319,2,0,B|522:274|522:274|500:260,1,40.8899993760681,8|0,0:0|0:0,0:0:0:0:
352,218,231513,6,0,P|268:237|186:287,1,163.559997504273,4|0,3:2|0:0,0:0:0:0:
144,321,231997,1,2,0:0:0:0:
140,332,232093,1,2,0:0:0:0:
226,384,232287,1,2,0:0:0:0:
84,281,232481,6,0,P|66:243|57:189,1,81.7799987521363,2|0,0:0|0:0,0:0:0:0:
197,270,232868,1,2,3:2:0:0:
25,384,233061,2,0,P|57:362|113:348,1,81.7799987521363,2|8,0:0|0:0,0:0:0:0:
21,143,233448,6,0,P|83:168|148:217,1,122.669998128204,2|0,0:1|0:0,0:0:0:0:
139,211,233835,1,2,0:0:0:0:
294,369,234029,6,0,P|274:363|249:349,1,40.8899993760681,8|0,0:0|0:0,0:0:0:0:
186,277,234222,1,0,3:2:0:0:
321,378,234416,6,0,P|310:363|298:332,1,40.8899993760681,8|0,0:0|0:0,0:0:0:0:
174,362,234610,2,0,P|194:310|340:273,1,204.449996880341,4|0,3:2|0:0,0:0:0:0:
345,260,235190,1,2,0:0:0:0:
256,353,235384,1,2,0:1:0:0:
209,171,235577,5,2,0:0:0:0:
224,157,235771,1,2,0:0:0:0:
254,176,235964,1,2,3:2:0:0:
229,191,236158,1,2,0:0:0:0:
363,248,236352,6,0,P|421:257|487:322,1,122.669998128204,8|0,0:0|0:0,0:0:0:0:
483,307,236739,1,0,3:2:0:0:
226,173,237126,6,0,P|215:135|212:86,1,81.7799987521363,8|0,0:0|0:0,0:0:0:0:
315,0,237513,1,8,0:0:0:0:
83,105,237706,6,0,P|119:39|227:0,1,163.559997504273,4|0,3:2|0:0,0:0:0:0:
400,182,238287,2,0,P|340:173|222:119,1,163.559997504273,2|0,0:0|0:0,0:0:0:0:
394,50,238868,1,2,0:0:0:0:
492,141,239061,2,0,P|454:156|403:165,1,81.7799987521363,0|0,3:0|0:0,0:0:0:0:
110,365,239448,6,0,P|108:308|174:274,1,122.669998128204,10|0,0:0|0:0,0:0:0:0:
212,224,239835,2,0,P|254:226|274:308,1,122.669998128204,2|0,0:1|0:0,0:0:0:0:
342,351,240222,6,0,P|320:357|292:369,1,40.8899993760681,8|0,0:0|0:0,0:0:0:0:
185,291,240416,1,0,3:2:0:0:
361,384,240610,6,0,P|347:375|323:367,1,40.8899993760681,8|0,0:0|0:0,0:0:0:0:
114,332,240803,2,0,L|313:292,1,163.559997504273,4|0,3:2|0:0,0:0:0:0:
480,163,241384,6,0,P|450:139|401:144,1,81.7799987521363,2|0,0:0|0:0,0:0:0:0:
496,259,241771,2,0,P|419:246|329:202,1,163.559997504273,8|0,0:0|0:0,0:0:0:0:
171,59,242448,5,8,0:0:0:0:
157,47,242545,2,0,P|103:72|83:129,1,122.669998128204,2|0,0:0|0:0,0:0:0:0:
11,201,242932,6,0,P|32:205|64:216,1,40.8899993760681,2|0,0:0|0:0,0:0:0:0:
50,201,243126,2,0,P|29:209|4:214,1,40.8899993760681,2|0,0:0|0:0,0:0:0:0:
135,293,243319,5,0,3:2:0:0:
411,302,268093,6,0,P|370:257|311:224,1,111.36,4|0,3:2|0:0,0:0:0:0:
491,188,268674,2,0,P|406:183|133:361,1,421.080012850342,2|0,0:1|0:0,0:0:0:0:
0,160,270997,2,0,L|155:207,1,153.120004672852,2|0,0:0|3:0,0:0:0:0:
10,152,273513,6,0,P|33:136|75:123,1,55.68,2|0,3:0|0:0,0:0:0:0:
189,34,273900,2,0,P|174:64|150:92,1,55.68,2|0,0:0|0:0,0:0:0:0:
288,217,274287,6,0,P|250:205|218:126,1,111.36,0|0,3:0|0:0,0:0:0:0:
0,66,274868,2,0,P|194:108|351:266,1,421.080012850342,2|0,0:0|0:0,0:0:0:0:
100,384,277190,5,8,0:0:0:0:
123,313,277384,2,0,P|184:266|234:255,1,114.840003504639,2|0,0:0|3:2,0:0:0:0:
441,39,279706,6,0,P|422:65|411:107,1,55.68,2|0,3:2|0:0,0:0:0:0:
371,262,280093,2,0,P|401:251|428:237,1,55.68,2|0,0:2|0:0,0:0:0:0:
411,170,280384,1,2,0:0:0:0:
411,170,280481,6,0,P|359:152|285:138,1,111.36,2|0,3:2|0:0,0:0:0:0:
512,273,281061,2,0,P|418:278|211:352,1,306.240009345703,2|0,0:1|0:0,0:0:0:0:
203,264,282803,2,0,P|242:271|284:292,1,76.5600023364259,0|0,3:2|0:0,0:0:0:0:
147,319,283384,1,2,0:0:0:0:
258,147,283577,6,0,L|268:192,2,38.2800011682129,2|0|0,0:0|0:0|0:0,0:0:0:0:
201,255,284158,2,0,P|223:149|360:70,1,267.96000817749,0|0,3:0|0:0,0:0:0:0:
359,85,285900,6,0,P|332:81|295:64,1,55.68,2|0,3:2|0:0,0:0:0:0:
175,193,286287,2,0,P|163:175|151:141,1,55.68,2|0,0:0|0:0,0:0:0:0:
16,4,286674,6,0,P|52:10|111:59,1,111.36,0|0,3:0|0:0,0:0:0:0:
3,288,287255,2,0,P|29:234|256:182,1,306.240009345703,2|0,0:1|0:0,0:0:0:0:
400,53,288997,6,0,P|385:91|378:133,1,76.5600023364259,0|2,3:0|0:0,0:0:0:0:
425,185,289577,1,2,0:0:0:0:
330,231,289771,6,0,P|320:176|300:110,1,114.840003504639,0|0,3:0|3:0,0:0:0:0:
338,235,291126,5,2,0:0:0:0:
177,370,291319,2,0,P|223:362|283:315,1,111.36,0|0,3:2|0:0,0:0:0:0:
133,218,291900,5,8,0:0:0:0:
73,265,292093,2,0,P|97:283|126:295,1,55.68,0|0,3:0|0:0,0:0:0:0:
48,133,292481,2,0,P|36:162|31:190,1,55.68,2|0,0:0|0:0,0:0:0:0:
158,383,292868,6,0,P|147:293|129:194,1,167.04,4|0,3:2|0:0,0:0:0:0:
253,57,293642,2,0,P|226:79|207:108,1,55.68,0|0,3:0|0:0,0:0:0:0:
98,78,294029,2,0,P|109:109|128:138,1,55.68,2|0,0:0|0:0,0:0:0:0:
247,204,294416,6,0,P|292:187|353:144,1,111.36,0|0,3:2|0:0,0:0:0:0:
239,222,294997,1,0,0:0:0:0:
458,376,295190,6,0,P|436:325|389:298,1,111.36,0|0,3:0|0:0,0:0:0:0:
316,228,295771,5,2,0:0:0:0:
322,222,295868,1,2,0:0:0:0:
329,232,295964,2,0,P|245:206|172:167,1,167.04,2|0,3:0|0:0,0:0:0:0:
92,369,296739,2,0,P|72:330|54:251,1,111.36,0|0,3:2|0:0,0:0:0:0:
300,338,297513,6,0,P|244:351|179:381,1,111.36,0|0,3:2|0:0,0:0:0:0:
372,264,298093,1,0,0:0:0:0:
324,203,298287,2,0,P|276:175|202:153,1,111.36,0|0,3:2|0:0,0:0:0:0:
38,0,298964,5,8,0:0:0:0:
48,8,299061,2,0,P|68:57|81:125,1,111.36,0|0,3:0|0:0,0:0:0:0:
47,174,299642,1,0,0:0:0:0:
210,63,299835,2,0,P|201:94|187:125,1,55.68,0|0,3:2|0:0,0:0:0:0:
222,185,300222,2,0,P|209:215|184:241,1,55.68
225,354,300610,6,0,P|176:341|123:280,1,111.36,0|0,3:2|0:0,0:0:0:0:
328,151,301190,1,0,0:0:0:0:
377,213,301384,2,0,P|358:250|298:291,1,111.36,0|0,3:2|0:0,0:0:0:0:
512,384,302158,6,0,P|493:338|427:294,1,111.36,2|0,3:2|0:0,0:0:0:0:
512,145,302739,1,0,0:0:0:0:
439,71,302932,2,0,P|410:82|386:103,1,55.68,0|0,3:2|0:0,0:0:0:0:
321,114,303319,2,0,P|303:137|292:170,1,55.68,2|0,0:0|0:0,0:0:0:0:
151,339,303706,6,0,P|193:346|309:281,1,167.04,2|0,3:2|0:0,0:0:0:0:
510,179,304481,6,0,P|485:167|446:159,1,55.68,2|0,3:2|0:0,0:0:0:0:
177,249,304868,2,0,P|206:238|232:231,1,55.68,2|0,0:0|0:0,0:0:0:0:
282,178,305158,1,2,0:0:0:0:
282,178,305255,6,0,P|317:204|346:326,1,167.04,10|0,0:0|0:0,0:0:0:0:
502,241,306029,2,0,P|496:269|481:300,1,55.68,0|0,3:2|0:0,0:0:0:0:
402,145,306416,2,0,P|416:169|425:206,1,55.68,2|0,0:0|0:0,0:0:0:0:
217,339,306803,6,0,P|228:282|330:229,1,167.04,0|0,3:2|0:0,0:0:0:0:
428,127,307577,5,2,3:2:0:0:
408,138,307771,1,2,0:1:0:0:
370,109,307964,1,2,0:1:0:0:
426,57,308158,1,2,0:1:0:0:
485,162,308352,6,0,P|495:189|501:226,1,55.68,2|0,3:2|0:0,0:0:0:0:
338,69,308739,2,0,P|332:104|321:130,1,55.68,2|0,0:0|0:0,0:0:0:0:
512,289,309126,6,0,P|474:243|363:211,1,167.04,2|0,3:2|0:0,0:0:0:0:
197,90,309900,2,0,P|143:102|62:115,1,111.36,2|0,3:2|0:0,0:0:0:0:
188,182,310481,1,0,0:0:0:0:
130,228,310674,2,0,P|103:213|85:189,1,55.68,0|0,3:2|0:0,0:0:0:0:
24,66,311061,2,0,P|7:94|-5:140,1,55.68,2|0,0:0|0:0,0:0:0:0:
10,188,311352,5,2,0:0:0:0:
10,188,311448,2,0,P|65:166|163:17,1,222.72,2|0,0:1|3:2,0:0:0:0:
155,8,312610,6,0,P|147:35|141:68,1,55.68,2|0,0:0|0:0,0:0:0:0:
316,287,312997,2,0,P|284:233|187:186,1,167.04,2|0,3:2|0:0,0:0:0:0:
329,69,313771,2,0,P|298:78|264:102,1,55.68,2|0,3:2|0:0,0:0:0:0:
424,165,314158,2,0,P|401:145|367:135,1,55.68,2|0,0:0|0:0,0:0:0:0:
187,291,314545,6,0,P|286:268|421:247,1,222.72,2|0,3:2|3:2,0:0:0:0:
188,301,315706,6,0,P|155:287|154:225,1,83.52,2|0,0:1|0:0,0:0:0:0:
102,182,316093,2,0,P|125:146|178:139,1,83.52,2|0,0:1|0:0,0:0:0:0:
279,186,316481,6,0,P|278:231|240:268,1,83.52,2|0,0:1|0:0,0:0:0:0:
188,301,316868,2,0,P|160:293|137:232,1,83.52,2|0,0:1|0:0,0:0:0:0:
288,172,317255,6,0,L|389:155,1,83.52,2|0,0:1|0:0,0:0:0:0:
432,114,317642,6,0,B|460:123|484:249|358:198|365:308|404:338,1,245.339996256409,6|0,3:2|0:0,0:0:0:0:
512,347,318416,6,0,B|501:304|451:288,1,81.7799987521363,0|0,3:2|0:0,0:0:0:0:
273,186,318803,2,0,B|206:208|185:284|185:284,1,122.669998128204,2|0,0:1|0:0,0:0:0:0:
94,332,319190,6,0,B|138:332|184:367,1,81.7799987521363,0|0,3:2|0:0,0:0:0:0:
3,199,319577,2,0,B|30:227|35:278,1,81.7799987521363,0|0,3:2|0:0,0:0:0:0:
217,108,319964,2,0,B|181:156|99:143|99:143,1,122.669998128204,2|0,3:2|0:0,0:0:0:0:
104,143,320352,2,0,B|97:95|126:67,1,81.7799987521363,2|2,0:0|0:0,0:0:0:0:
295,218,320739,6,0,B|387:255|426:150,1,163.559997504273,2|0,3:2|3:2,0:0:0:0:
488,111,321319,1,0,0:0:0:0:
360,35,321513,2,0,B|326:62|275:57|275:57,1,81.7799987521363,2|0,3:2|0:0,0:0:0:0:
427,160,321900,2,0,B|423:206|450:244,1,81.7799987521363,2|0,3:2|0:0,0:0:0:0:
224,368,322287,6,0,B|179:274|293:230,1,163.559997504273,2|0,3:2|3:2,0:0:0:0:
348,273,322868,1,0,0:0:0:0:
152,98,323061,2,0,B|198:101|225:147,1,81.7799987521363,0|0,3:2|0:0,0:0:0:0:
24,259,323448,2,0,B|48:223|105:221,1,81.7799987521363,2|0,3:2|0:0,0:0:0:0:
164,205,323739,1,2,0:0:0:0:
165,216,323835,6,0,B|73:279|34:164,1,163.559997504273,4|0,3:2|0:0,0:0:0:0:
181,298,324416,1,2,0:0:0:0:
107,384,324610,6,0,B|68:352|99:311,1,81.7799987521363,2|0,3:2|0:0,0:0:0:0:
317,171,324997,2,0,B|346:210|307:242,1,81.7799987521363,0|0,3:2|0:0,0:0:0:0:
224,371,325384,6,0,B|223:296|190:185,1,163.559997504273,2|0,3:2|3:2,0:0:0:0:
60,105,325964,1,0,0:0:0:0:
282,0,326158,6,0,B|254:71|183:45,1,122.669998128204,0|0,3:2|0:0,0:0:0:0:
184,45,326545,2,0,B|193:94|159:124|159:124,1,81.7799987521363,2|0,3:2|0:0,0:0:0:0:
29,249,326932,2,0,B|68:219|122:239,1,81.7799987521363,2|0,3:2|0:0,0:0:0:0:
306,217,327319,6,0,P|386:248|488:270,1,163.559997504273,2|0,3:2|3:2,0:0:0:0:
298,314,327900,1,2,0:0:0:0:
472,257,328093,6,0,B|490:214|443:184,1,81.7799987521363,2|0,3:2|0:0,0:0:0:0:
231,352,328481,2,0,B|292:313|272:239,1,122.669998128204,2|0,3:2|0:0,0:0:0:0:
273,246,328868,2,0,B|230:254|188:218,1,81.7799987521363,2|0,3:2|0:0,0:0:0:0:
382,311,329255,2,0,B|413:346|415:384,1,81.7799987521363,2|0,3:2|0:0,0:0:0:0:
363,215,329642,5,2,3:2:0:0:
418,81,329835,1,2,3:2:0:0:
363,215,330029,6,0,B|357:130|282:69,1,163.559997504273,6|0,3:2|3:2,0:0:0:0:
430,163,330610,1,2,0:0:0:0:
202,281,330803,6,0,B|230:245|279:246|279:246,1,81.7799987521363,2|0,3:2|0:0,0:0:0:0:
103,107,331190,2,0,B|148:108|179:152,1,81.7799987521363,2|0,3:2|0:0,0:0:0:0:
111,373,331577,6,0,B|23:327|82:225,1,163.559997504273,6|0,3:2|3:2,0:0:0:0:
146,214,332158,1,0,0:0:0:0:
285,334,332352,6,0,B|242:348|212:305,1,81.7799987521363,2|0,3:2|0:0,0:0:0:0:
22,145,332739,2,0,B|53:109|98:119,1,81.7799987521363,2|0,3:2|0:0,0:0:0:0:
299,17,333126,6,0,B|309:113|245:169|245:169,1,163.559997504273,2|0,3:2|3:2,0:0:0:0:
180,197,333706,1,0,0:0:0:0:
409,353,333900,2,0,B|370:306|299:312,1,122.669998128204,0|0,3:2|0:0,0:0:0:0:
298,312,334287,2,0,B|275:347|217:347,1,81.7799987521363,2|0,0:0|0:0,0:0:0:0:
391,233,334674,6,0,B|385:167|462:114,1,122.669998128204,2|0,3:2|0:0,0:0:0:0:
459,124,335061,1,0,0:0:0:0:
275,12,335255,5,2,0:0:0:0:
386,35,335448,2,0,B|370:79|314:82|314:82,1,81.7799987521363,2|0,3:2|3:2,0:2:0:0:
122,181,335835,2,0,B|165:182|201:150,1,81.7799987521363,2|0,3:2|0:0,0:0:0:0:
317,244,336126,1,8,0:0:0:0:
317,244,336222,6,0,B|322:199|280:161|280:161,1,81.7799987521363,2|0,3:2|0:0,0:0:0:0:
174,7,336610,2,0,B|137:32|144:77,1,81.7799987521363,2|0,3:2|0:0,0:0:0:0:
0,250,336997,2,0,B|34:157|141:202,1,163.559997504273,2|0,3:2|3:2,0:0:0:0:
152,194,337771,6,0,B|147:239|166:278|166:278,1,81.7799987521363,2|0,3:2|0:0,0:0:0:0:
14,377,338158,2,0,B|19:335|64:312,1,81.7799987521363,2|0,3:2|0:0,0:0:0:0:
319,284,338545,6,0,B|284:204|172:234,1,163.559997504273,6|0,3:2|0:0,0:0:0:0:
178,249,339319,6,0,B|270:323|364:236|328:159,1,245.339996256409,4|0,3:2|0:0,0:0:0:0:
382,104,340093,1,0,3:2:0:0:
382,104,340868,6,0,B|384:62|416:29|416:29,1,81.7799987521363,2|0,3:2|0:0,0:0:0:0:
203,177,341255,2,0,B|173:144|177:90,1,81.7799987521363,2|0,3:2|0:0,0:0:0:0:
433,253,341642,2,0,B|464:217|519:214,1,81.7799987521363,2|0,3:2|0:0,0:0:0:0:
265,379,342029,2,0,B|249:339|275:300|275:300,1,81.7799987521363,2|0,3:2|0:0,0:0:0:0:
314,232,342319,1,8,0:0:0:0:
325,244,342416,6,0,B|260:320|157:275,1,163.559997504273,4|0,3:2|3:2,0:0:0:0:
352,343,342997,1,2,0:0:0:0:
197,210,343190,2,0,B|157:180|174:131,1,81.7799987521363,2|0,3:2|0:0,0:0:0:0:
28,328,343577,2,0,B|25:283|68:259,1,81.7799987521363,2|0,3:2|0:0,0:0:0:0:
302,175,343964,6,0,B|373:158|583:227|526:451|290:401|253:278|399:166|410:251|470:86|347:53,1,612.480018691407,4|2,3:2|0:0,0:0:0:0:
462,103,362545,6,0,P|435:111|400:133,1,55.68,2|0,0:0|0:0,0:0:0:0:
365,188,362932,1,0,0:0:0:0:
247,64,363126,2,0,P|238:92|276:240,1,167.04,2|0,0:0|0:0,0:0:0:0:
265,222,364093,6,0,P|276:193|285:146,1,55.68,2|0,0:0|0:0,0:0:0:0:
329,110,364481,1,2,0:0:0:0:
483,303,364674,2,0,P|459:257|362:200,1,167.04,2|0,0:0|0:0,0:0:0:0:
353,191,365642,6,0,P|339:248|317:316,1,111.36,2|0,0:0|0:0,0:0:0:0:
141,377,366222,2,0,P|132:350|127:316,1,55.68,2|0,0:0|0:0,0:0:0:0:
176,266,366610,1,0,0:0:0:0:
42,201,366803,2,0,P|67:185|100:177,1,55.68,2|0,0:0|0:0,0:0:0:0:
237,324,367190,6,0,P|137:296|6:271,1,222.72,2|0,0:0|0:0,0:0:0:0:
264,178,368158,2,0,P|254:211|239:238,1,55.68,2|2,0:0|0:0,0:0:0:0:
185,187,368545,1,2,0:0:0:0:
390,342,368739,6,0,P|351:301|343:234,1,111.36,2|0,0:0|0:0,0:0:0:0:
208,86,369319,2,0,P|246:80|315:125,1,111.36,2|0,0:0|0:0,0:0:0:0:
447,13,369900,2,0,P|439:44|420:75,1,55.68,2|0,0:0|0:0,0:0:0:0:
512,169,370287,6,0,P|493:151|462:129,1,55.68,2|0,0:0|0:0,0:0:0:0:
331,36,370674,1,0,0:0:0:0:
512,131,370868,6,0,P|454:165|394:183,1,111.36,2|0,0:0|0:0,0:0:0:0:
229,291,371448,2,0,P|237:266|246:228,1,55.68,2|0,0:0|0:0,0:0:0:0:
316,260,371835,6,0,P|340:343|343:384,1,111.36,2|0,0:0|0:0,0:0:0:0:
142,176,372416,2,0,P|134:209|114:247,1,55.68,2|0,0:0|0:0,0:0:0:0:
66,266,372803,1,2,0:0:0:0:
253,143,372997,2,0,P|282:128|319:119,1,55.68,2|0,0:0|0:0,0:0:0:0:
241,217,373384,6,0,P|192:206|146:94,1,167.04,2|2,0:0|0:0,0:0:0:0:
142,108,374352,1,2,0:0:0:0:
78,152,374545,2,0,P|52:161|15:168,1,55.68,2|0,0:0|0:0,0:0:0:0:
229,8,374932,6,0,P|238:51|252:95,1,87,2|0,0:0|0:0,0:0:0:0:
358,178,375319,1,2,0:0:0:0:
289,52,375513,2,0,P|274:93|263:143,1,87,2|0,0:0|0:0,0:0:0:0:
109,300,376481,6,0,P|144:272|198:255,1,87,2|0,0:0|0:0,0:0:0:0:
60,205,376868,1,2,0:0:0:0:
157,299,377061,2,0,P|200:306|236:331,1,87,2|0,0:0|0:0,0:0:0:0:
425,252,378029,6,0,P|431:209|448:161,1,87,2|0,0:0|0:0,0:0:0:0:
356,303,378416,1,2,0:0:0:0:
459,209,378610,2,0,P|470:242|474:276,1,65.25,2|0,0:0|0:0,0:0:0:0:
321,105,379577,6,0,P|278:94|231:72,1,87,2|0,0:0|0:0,0:0:0:0:
346,228,379964,1,2,0:0:0:0:
197,192,380158,2,0,P|241:178|288:172,1,87,2|0,0:0|0:0,0:0:0:0:
405,63,380545,1,2,0:0:0:0:
509,171,380739,2,0,P|472:150|424:137,1,87,2|0,0:0|0:0,0:0:0:0:
289,10,381126,6,0,P|247:33|249:96,1,87,2|0,0:0|0:0,0:0:0:0:
348,205,381513,1,2,0:0:0:0:
210,32,381706,2,0,P|209:78|229:116,1,87,2|0,0:0|0:0,0:0:0:0:
146,256,382674,6,0,P|106:246|62:229,1,87,2|0,0:0|0:0,0:0:0:0:
243,311,383061,1,2,0:0:0:0:
191,192,383255,2,0,P|151:211|100:223,1,87,2|0,0:0|0:0,0:0:0:0:
315,259,384222,6,0,P|380:280|448:358,1,174,2|0,0:0|0:0,0:0:0:0:
275,186,384803,2,0,P|293:143|323:105,1,87,2|0,0:0|0:0,0:0:0:0:
185,250,385190,1,2,0:0:0:0:
122,210,385384,2,0,P|99:173|86:119,1,87,2|0,0:0|0:0,0:0:0:0:
237,323,385771,6,0,P|201:344|154:357,1,87,2|0,0:0|0:0,0:0:0:0:
370,67,387319,6,0,P|390:106|399:166,1,87,2|0,0:0|0:0,0:0:0:0:
273,188,387706,1,0,0:0:0:0:
435,110,387900,2,0,P|427:157|408:195,1,87,2|0,0:0|0:0,0:0:0:0:
273,190,388868,6,0,P|253:229|244:289,1,87,2|0,0:0|0:0,0:0:0:0:
370,311,389255,1,0,0:0:0:0:
208,233,389449,2,0,P|216:280|235:318,1,87,2|0,0:0|0:0,0:0:0:0:
448,338,390416,6,0,P|416:307|366:295,1,87,2|0,0:0|0:0,0:0:0:0:
512,238,390803,1,0,0:0:0:0:
401,331,390997,2,0,P|361:357|306:366,1,87,2|0,0:0|0:0,0:0:0:0:
168,247,391384,1,2,0:0:0:0:
228,203,391577,2,0,P|245:242|250:298,1,87,2|0,0:0|0:0,0:0:0:0:
18,369,391964,6,0,L|30:298,1,65.25,2|0,0:0|0:0,0:0:0:0:
32,294,392932,5,2,0:0:0:0:
132,187,393126,1,2,0:0:0:0:
37,216,393319,1,2,0:0:0:0:
186,300,393513,6,0,P|240:274|273:150,1,174,2|0,0:0|0:0,0:0:0:0:
116,19,394093,2,0,P|130:49|133:85,1,65.25,2|0,0:0|0:0,0:0:0:0:
163,116,395061,6,0,P|105:102|90:51,1,87,2|0,0:0|0:0,0:0:0:0:
34,37,395448,1,2,0:0:0:0:
206,86,395642,2,0,P|184:166|89:195,1,174,2|0,0:0|0:0,0:0:0:0:
45,331,396222,2,0,P|29:294|21:246,1,87,2|0,0:0|0:0,0:0:0:0:
259,300,396610,6,0,P|246:340|237:396,1,87,2|0,0:0|0:0,0:0:0:0:
188,186,396997,1,2,0:0:0:0:
329,255,397190,2,0,P|337:293|344:345,1,87,2|0,0:0|0:0,0:0:0:0:
411,162,397577,1,2,0:0:0:0:
303,239,397771,2,0,P|259:235|225:192,1,87,2|0,0:0|0:0,0:0:0:0:
374,356,398158,5,2,0:0:0:0:
373,364,398739,5,2,0:0:0:0:
384,358,399319,5,2,0:0:0:0:
221,245,399706,6,0,P|181:257|128:267,1,87,2|0,0:0|0:0,0:0:0:0:
91,318,400093,1,0,0:0:0:0:
290,183,400287,6,0,P|262:152|239:103,1,87,2|0,0:0|0:0,0:0:0:0:
178,78,400674,1,0,0:0:0:0:
375,228,400868,6,0,P|402:187|441:157,1,87,2|0,0:0|0:0,0:0:0:0:
382,95,401255,6,0,P|445:132|483:281,1,217.5,2|0,0:0|0:0,0:0:0:0:
480,272,401835,2,0,P|458:311|448:360,1,87,2|0,0:0|0:0,0:0:0:0:
290,183,402222,1,2,0:0:0:0:
247,241,402416,2,0,P|255:290|277:334,1,87,2|0,0:0|0:0,0:0:0:0:
380,183,402803,6,0,P|283:146|154:119,1,217.5,2|0,0:0|0:0,0:0:0:0:
132,58,403384,2,0,P|101:91|80:141,1,87,2|0,0:0|0:0,0:0:0:0:
217,50,403771,1,2,0:0:0:0:
45,100,403964,2,0,P|51:147|72:186,1,87,2|0,0:0|0:0,0:0:0:0:
132,331,404352,6,0,P|140:312|183:284,1,65.25,2|2,0:1|0:0,0:0:0:0:
151,354,405900,6,0,L|141:309,1,43.5,2|0,0:0|0:0,0:0:0:0:
290,186,406481,5,8,0:0:0:0:
252,145,406577,1,8,0:0:0:0:
224,160,406674,2,0,B|217:180|217:180|219:204|219:204|209:231,1,60.8999981414796,8|0,0:0|0:0,0:0:0:0:
275,365,406868,6,0,B|245:305|245:305|54:263,1,243.599992565918,12|0,0:0|0:0,0:0:0:0:
198,82,407352,5,8,0:0:0:0:
111,30,407448,2,0,B|127:57|127:57|126:100,1,60.8999981414796,4|0,1:0|0:0,0:0:0:0:
270,169,407642,2,0,B|248:195|248:195|252:232,1,60.8999981414796,8|0,0:0|0:0,0:0:0:0:
126,322,407835,2,0,B|126:343|126:343|153:312,1,60.8999981414796,2|0,0:0|0:0,0:0:0:0:
276,205,408029,6,0,B|387:190|387:190|331:242,1,182.699994424439,4|0,3:2|0:0,0:0:0:0:
418,348,408416,1,8,0:0:0:0:
450,367,408513,1,8,0:0:0:0:
441,345,408610,2,0,L|366:368,1,60.8999981414796,8|0,0:0|0:0,0:0:0:0:
106,112,408900,5,2,0:1:0:0:
169,72,408997,2,0,B|192:113|192:113|161:173|161:173|183:217|183:217|178:242,1,182.699994424439,4|0,3:2|0:0,0:0:0:0:
90,250,409384,6,0,B|67:244|67:244|116:229,1,60.8999981414796,0|0,3:2|0:0,0:0:0:0:
272,167,409577,2,0,B|247:171|247:171|365:203,1,121.799996282959,0|2,3:2|0:1,0:0:0:0:
499,364,410061,5,2,0:1:0:0:
482,357,410158,2,0,B|465:335|465:335|468:291,1,60.8999981414796,2|0,3:2|0:0,0:0:0:0:
350,229,410352,2,0,B|349:199|349:199|382:164,1,60.8999981414796,2|0,0:0|0:0,0:0:0:0:
483,60,410545,5,0,3:2:0:0:
473,83,410642,2,0,L|487:144,1,60.8999981414796,8|0,0:0|0:0,0:0:0:0:
334,20,410835,5,2,0:1:0:0:
264,48,410932,2,0,L|239:129,1,60.8999981414796,0|0,3:2|0:0,0:0:0:0:
377,209,411126,6,0,B|360:238|360:238|183:283|183:283|211:238,1,243.599992565918,4|0,3:2|0:0,0:0:0:0:
49,104,411706,5,8,0:0:0:0:
77,37,411803,2,0,B|106:52|106:52|123:87,1,60.8999981414796,2|0,0:0|0:0,0:0:0:0:
286,234,412093,6,0,L|266:306,1,60.8999981414796,12|0,0:0|0:0,0:0:0:0:
138,366,412287,2,0,B|119:339|119:339|126:300,1,60.8999981414796,0|0,3:2|0:0,0:0:0:0:
252,260,412481,6,0,L|318:281,1,60.8999981414796,0|0,3:2|3:2,3:2:0:0:
473,195,412674,2,0,B|521:147|521:147|458:34,1,182.699994424439,2|0,1:1|0:0,0:0:0:0:
454,33,413061,1,0,3:2:0:0:
172,99,413255,5,0,3:2:0:0:
161,99,413352,2,0,B|197:75|197:75|275:108,1,121.799996282959,8|0,0:0|0:0,0:0:0:0:
340,81,413642,6,0,B|310:132|310:132|107:167,1,243.599992565918,4|0,3:2|3:2,0:0:0:0:
68,210,414126,2,0,B|52:185|52:185|50:149,1,60.8999981414796,2|0,0:1|0:0,0:0:0:0:
216,307,414319,1,0,3:2:0:0:
184,244,414416,2,0,B|188:214|188:214|208:180,1,60.8999981414796,2|0,0:1|0:1,0:1:0:0:
74,368,414610,6,2,B|123:365|123:365|170:342|170:342|196:348|196:348|236:325|236:325|275:324|275:324|337:300,1,243.599992565918,4|0,3:2|0:0,0:0:0:0:
474,177,415093,1,2,0:0:0:0:
471,261,415190,6,0,B|458:278|458:278|358:217|358:217|456:181,1,243.599992565918,12|0,0:0|3:2,0:0:0:0:
185,48,415771,6,0,B|172:1|172:1|276:52|276:52|247:86|247:86|253:123,1,243.599992565918,0|0,3:2|0:0,0:0:0:0:
355,190,416255,5,0,3:0:0:0:
326,117,416352,2,0,P|251:97|151:237,1,247.949993379021,2|0,0:1|0:0,0:0:0:0:
7,313,416739,6,0,B|-8:317|-9:332|-9:332|31:307|88:304,1,104.399996813965,4|0,3:2|0:0,0:0:0:0:
127,190,417319,6,0,B|126:178|101:169|101:169|148:170|181:203,1,121.799996282959,2|0,0:1|0:0,0:0:0:0:
315,352,417706,5,8,0:0:0:0:
304,361,417803,2,0,B|299:335|299:335|319:294,1,60.8999981414796,0|0,3:2|0:0,0:0:0:0:
471,217,417997,5,8,0:0:0:0:
466,295,418093,2,0,B|448:273|448:273|445:224,1,60.8999981414796,0|0,3:2|0:0,0:0:0:0:
282,89,418287,5,8,0:0:0:0:
316,42,418384,1,8,0:0:0:0:
385,84,418481,6,0,B|396:108|396:108|400:155,1,60.8999981414796,0|0,3:2|0:0,0:0:0:0:
236,241,418674,2,0,B|222:222|222:222|179:196,1,60.8999981414796,8|0,0:0|0:0,0:0:0:0:
390,371,418868,6,0,L|313:143,1,182.699994424439,4|0,3:2|0:0,0:0:0:0:
326,168,419255,2,0,B|307:195|307:195|315:237,1,60.8999981414796,2|0,3:2|0:0,0:0:0:0:
106,311,419448,1,2,0:0:0:0:
140,336,419545,1,8,0:0:0:0:
202,300,419642,2,2,B|210:267|210:267|203:230,1,60.8999981414796
64,86,419835,5,8,0:0:0:0:
14,138,419932,2,0,B|22:131|22:131|157:107,1,121.799996282959,8|0,0:0|0:0,0:0:0:0:
226,31,420222,6,0,B|229:43|229:43|287:63,1,60.8999981414796,0|0,3:2|0:1,0:1:0:0:
486,188,420416,2,0,B|437:173|437:173|364:213|364:213|302:195,1,182.699994424439,12|0,0:0|0:0,0:0:0:0:
287,224,420803,2,0,B|283:195|283:195|309:164,1,60.8999981414796,2|0,0:0|0:0,0:0:0:0:
446,14,421093,6,0,B|456:38|456:38|439:79,1,60.8999981414796,2|0,0:1|0:0,0:0:0:0:
317,199,421287,1,8,0:0:0:0:
347,165,421384,1,2,0:0:0:0:
394,173,421481,1,10,0:0:0:0:
431,231,421577,1,10,0:0:0:0:
387,291,421674,1,10,0:0:0:0:
437,346,421771,6,0,B|466:349|466:349|493:327,1,60.8999981414796,0|0,3:2|0:0,0:0:0:0:
356,196,421964,2,0,L|126:238,1,182.699994424439,4|0,3:2|0:0,0:0:0:0:
85,173,422352,6,0,L|54:250,1,60.8999981414796,2|0,0:1|0:1,0:1:0:0:
215,313,422545,2,0,L|158:347,1,60.8999981414796,10|0,0:0|0:0,0:0:0:0:
101,218,422739,6,0,L|46:177,1,60.8999981414796,10|0,0:0|0:0,0:0:0:0:
272,81,422932,5,4,3:2:0:0:
169,19,423029,2,0,L|206:162,1,121.799996282959,8|0,0:0|0:0,0:0:0:0:
192,153,423319,1,2,0:0:0:0:
372,64,423513,6,0,B|493:43|493:43|467:69|467:69|435:58,1,182.699994424439,4|0,3:2|0:0,0:0:0:0:
445,61,423900,2,0,B|438:34|438:34|468:-9,1,60.8999981414796,2|0,0:1|0:0,0:0:0:0:
306,212,424093,6,0,B|271:205|271:205|223:238|223:238|155:225|155:225|126:246,1,182.699994424439,2|0,1:0|0:0,0:0:0:0:
113,312,424481,6,0,B|105:335|105:335|130:309,1,60.8999981414796,4|0,3:2|0:0,0:0:0:0:
195,140,424674,1,0,3:2:0:0:
381,270,424868,6,0,B|397:292|397:292|347:262,1,60.8999981414796,2|0,0:1|0:0,0:0:0:0:
195,140,425061,2,0,B|170:89|170:89|225:44|225:44|255:107,1,182.699994424439,4|0,3:2|0:0,0:0:0:0:
316,144,425448,6,0,L|54:86,1,234.899992831421,2|0,0:1|0:0,0:0:0:0:
26,142,425835,2,0,B|-4:165|-4:165|5:227,1,78.2999976104737,8|8,0:0|0:0,0:0:0:0:
220,384,426029,6,0,B|200:329|200:329|239:263|239:263|218:208,1,182.699994424439,4|0,3:2|0:0,0:0:0:0:
254,210,426416,2,0,B|233:210|233:210|194:196,1,60.8999981414796,2|0,0:1|0:0,0:0:0:0:
307,342,426610,6,0,B|277:322|277:322|102:357,1,182.699994424439,12|0,0:0|0:0,0:0:0:0:
87,293,426997,2,0,B|63:311|63:311|56:367,1,60.8999981414796,8|0,0:0|0:0,0:0:0:0:
229,176,427190,6,0,B|219:150|219:150|225:118|225:118|214:88,2,81.1999975219727,2|2|2,0:1|0:1|0:1,0:1:0:0:
305,231,427577,5,8,0:0:0:0:
318,217,427674,2,0,B|323:184|323:184|339:153,1,60.8999981414796,8|8,0:0|0:0,0:0:0:0:
151,255,427868,2,0,B|149:226|149:226|133:186,1,60.8999981414796,0|8,3:2|0:0,0:0:0:0:
332,362,428158,5,8,0:0:0:0:
265,333,428255,2,0,B|275:337|275:337|412:301,1,121.799996282959,8|0,0:2|0:2,0:2:0:0:
473,233,428545,6,0,B|501:242|501:242|491:270|491:270|481:265|465:261,1,87,2|0,0:1|0:0,0:0:0:0:
334,153,429029,5,0,3:2:0:0:
387,86,429126,6,0,B|438:62|438:62|399:98,1,100.050001908302,4|0,1:0|0:0,0:0:0:0:
298,229,429319,2,0,B|264:211|264:211|255:195|255:195|202:168,1,100.050001908302
144,109,429513,6,0,B|110:86|110:86|188:112,1,100.050001908302,8|0,0:0|0:0,0:0:0:0:
406,172,429706,6,0,L|108:250,1,300.150005724907,12|0,0:0|0:0,0:0:0:0:
28,273,430093,6,0,L|54:178,1,87,0|0,3:2|0:0,0:0:0:0:
198,77,430577,5,8,0:0:0:0:
149,17,430674,2,0,B|106:49|106:49|120:131,1,121.799996282959,0|0,3:2|0:0,0:0:0:0:
294,230,431061,6,0,L|260:162,1,60.8999981414796,0|0,3:2|0:0,0:0:0:0:
145,289,431255,1,8,0:0:0:0:
189,349,431352,2,0,L|254:367,1,60.8999981414796,8|0,0:0|0:0,0:0:0:0:
134,203,431545,2,0,L|262:166,1,121.799996282959,8|0,0:0|0:0,0:0:0:0:
304,87,431835,5,8,3:0:0:0:
358,91,431932,5,10,3:0:0:0:
386,133,432029,5,2,3:0:0:0:
440,138,432126,5,2,3:3:0:0:
234,21,432319,6,0,B|210:38|210:38|204:87,1,60.8999981414796,0|0,3:2|0:0,0:0:0:0:
385,241,432513,1,8,0:0:0:0:
325,278,432610,2,0,B|303:266|303:266|282:210,1,60.8999981414796,0|0,3:2|0:0,0:0:0:0:
512,88,432803,1,0,3:2:0:0:
443,47,432900,2,0,L|306:84,1,121.799996282959,0|0,3:2|0:0,0:0:0:0:
307,59,433190,2,0,B|322:51|322:51|377:67,1,60.8999981414796,0|0,3:2|0:0,0:0:0:0:
204,193,433384,5,8,0:0:0:0:
163,170,433481,1,2,0:0:0:0:
102,208,433577,2,0,B|86:237|86:237|75:283,1,60.8999981414796,2|0,0:0|0:0,0:0:0:0:
206,341,433771,6,0,B|197:322|197:322|196:296|196:296|181:259,1,60.8999981414796,8|0,0:0|0:0,0:0:0:0:
53,109,433964,1,0,3:2:0:0:
194,18,434158,6,0,B|189:35|189:35|194:62|194:62|187:91,1,60.8999981414796,0|0,3:2|0:0,0:0:0:0:
10,246,434352,2,0,B|33:203|33:203|165:169,1,182.699994424439,2|0,3:1|0:0,0:0:0:0:
234,143,434739,2,0,L|290:182,1,60.8999981414796,0|0,3:2|0:0,0:0:0:0:
436,348,434932,2,0,L|384:154,1,182.699994424439,8|0,0:0|0:0,0:0:0:0:
512,57,435319,5,8,0:0:0:0:
454,8,435416,2,0,B|431:27|431:27|426:72,1,60.8999981414796,0|0,3:2|0:0,0:0:0:0:
167,181,435706,6,0,B|165:210|165:210|190:241,1,60.8999981414796,0|0,3:2|0:0,0:0:0:0:
189,318,435900,2,0,L|247:95,1,182.699994424439,4|0,3:2|0:0,0:0:0:0:
49,30,436287,6,0,B|65:67|65:67|44:112|44:112|67:167,1,121.799996282959,0|0,3:2|0:0,0:0:0:0:
0,241,436577,1,2,0:0:0:0:
57,289,436674,2,0,B|79:270|79:270|90:226,1,60.8999981414796,0|0,3:2|0:0,0:0:0:0:
205,122,436868,6,0,L|281:96,1,60.8999981414796,8|0,0:0|0:0,0:0:0:0:
151,14,437061,1,0,3:2:0:0:
277,134,437255,6,0,L|220:111,1,60.8999981414796,0|0,3:2|0:0,0:0:0:0:
420,38,437448,1,0,3:2:0:0:
359,0,437545,2,0,L|327:67,1,60.8999981414796,8|0,0:0|0:0,0:0:0:0:
468,204,437739,1,0,3:2:0:0:
512,142,437835,2,0,B|504:131|504:131|382:103,1,121.799996282959,0|0,3:2|0:0,0:0:0:0:
137,302,438222,6,0,B|169:303|169:303|198:278,1,60.8999981414796,0|0,3:2|0:0,0:0:0:0:
288,133,438416,1,8,0:0:0:0:
212,153,438513,2,0,B|222:192|222:192|329:228,1,121.799996282959,0|0,3:2|0:2,0:0:0:0:
354,272,438803,2,0,L|414:246,1,60.8999981414796,0|0,3:2|0:0,0:0:0:0:
223,75,438997,6,0,L|281:345,1,243.599992565918,4|0,3:2|0:0,0:0:0:0:
148,384,439481,6,0,B|120:321|120:321|191:246,1,121.799996282959,2|0,0:1|0:0,0:0:0:0:
212,153,439771,2,0,L|275:172,1,60.8999981414796,2|0,0:1|0:0,0:0:0:0:
418,276,439964,6,0,B|448:281|448:281|367:298,1,78.2999976104737,4|0,3:2|0:0,0:0:0:0:
242,181,440158,1,0,3:2:0:0:
400,85,440352,6,0,B|429:69|429:69|333:94,1,78.2999976104737,0|0,3:2|0:0,0:0:0:0:
122,204,440545,2,0,B|187:184|187:184|285:218|285:218|350:194,1,234.899992831421,4|0,3:2|0:0,0:0:0:0:
431,161,440932,5,0,3:2:0:0:
508,204,441029,2,0,B|492:184|492:184|432:169,1,78.2999976104737,2|0,0:1|0:0,0:0:0:0:
243,64,441222,5,0,3:2:0:0:
324,21,441319,2,0,B|314:42|314:42|238:56,1,78.2999976104737,2|0,0:1|0:0,0:0:0:0:
47,210,441513,5,4,3:2:0:0:
6,148,441610,2,0,P|94:152|131:300,1,234.899992831421,2|0,0:1|0:0,0:0:0:0:
320,370,442093,6,0,B|255:335|255:335|380:302,1,182.699994424439,2|0,3:1|0:0,0:0:0:0:
476,207,442481,5,2,0:0:0:0:
398,196,442577,2,0,B|393:206|393:206|411:252|411:252|462:283|462:283|486:329|486:329|480:349,1,182.699994424439,2|0,0:1|0:0,0:0:0:0:
222,91,443061,5,8,0:0:0:0:
249,43,443158,1,8,0:0:0:0:
249,79,443255,2,0,L|239:150,1,60.8999981414796,0|0,3:2|0:0,0:0:0:0:
415,27,443448,2,0,L|428:103,1,60.8999981414796,0|0,3:2|0:0,0:0:0:0:
319,0,443642,2,0,L|128:59,1,182.699994424439,2|0,3:1|0:0,0:0:0:0:
91,100,444029,2,0,B|71:80|71:80|69:26,1,60.8999981414796,2|0,3:1|0:0,0:0:0:0:
212,265,444222,6,0,B|188:212|188:212|57:184,1,182.699994424439,8|0,0:0|0:0,0:0:0:0:
14,292,444610,5,0,3:2:0:0:
47,314,444706,1,2,0:0:0:0:
112,277,444803,1,2,0:0:0:0:
307,17,445190,6,0,B|332:-2|332:-2|380:0,1,60.8999981414796,2|0,0:1|0:0,0:0:0:0:
428,224,445384,2,0,L|400:157,1,60.8999981414796,0|0,0:1|0:0,0:0:0:0:
492,73,445577,1,2,3:0:0:0:
443,92,445674,1,2,3:0:0:0:
479,101,445771,2,0,L|306:61,1,121.799996282959,0|0,3:2|0:0,0:0:0:0:
156,270,446158,5,8,0:0:0:0:
110,213,446255,2,0,B|120:183|120:183|157:167,1,60.8999981414796,8|0,0:0|0:0,0:0:0:0:
328,347,446448,5,0,3:2:0:0:
357,280,446545,2,0,B|349:252|349:252|323:233,1,60.8999981414796,0|0,3:2|0:0,0:0:0:0:
248,138,446739,6,0,L|216:355,1,182.699994424439,0|0,3:2|0:0,0:0:0:0:
161,365,447126,2,0,B|146:338|146:338|151:298,1,60.8999981414796,2|0,0:1|0:0,0:0:0:0:
372,156,447319,6,0,B|414:174|414:174|425:199|425:199|484:231,1,121.799996282959
462,205,447706,6,0,B|516:174|516:174|373:203,1,182.699994424439,4|0,3:2|0:0,0:0:0:0:
386,203,448093,1,0,3:2:0:0:
352,354,448287,6,0,B|445:336|445:336|265:290,1,243.599992565918,4|0,3:2|0:0,0:0:0:0:
110,126,448868,6,0,B|114:144|114:144|104:171|104:171|108:195,1,60.8999981414796,8|0,0:0|0:0,0:0:0:0:
122,156,449061,2,0,B|124:142|124:142|114:115|114:115|118:97,1,60.8999981414796,2|0,0:1|0:0,0:0:0:0:
315,23,449255,6,0,B|280:-5|280:-5|193:29,1,121.799996282959,4|0,3:2|0:0,0:0:0:0:
385,204,449642,6,0,L|350:142,1,60.8999981414796,8|0,0:0|0:0,0:0:0:0:
172,330,449835,2,0,L|233:194,1,121.799996282959,4|0,3:2|0:1,0:1:0:0:
40,315,450222,6,0,L|290:392,1,234.899992831421,2|0,0:1|0:0,0:0:0:0:
321,336,450610,2,0,B|339:310|339:310|310:250,1,78.2999976104737,2|0,0:1|0:0,0:0:0:0:
136,127,450803,5,4,3:2:0:0:
163,97,450900,1,2,0:0:0:0:
210,108,450997,1,10,0:0:0:0:
259,162,451093,1,10,0:0:0:0:
327,136,451190,2,0,B|338:110|338:110|339:87|339:87|350:57,1,78.2999976104737,0|0,0:1|0:0,0:0:0:0:
183,191,451384,2,0,B|192:218|192:218|188:251|188:251|205:314,1,78.2999976104737,4|0,3:2|3:2,3:2:0:0:
392,384,451577,5,0,3:2:0:0:
375,352,451674,2,0,L|400:275,1,78.2999976104737,8|0,0:0|0:0,0:0:0:0:
173,338,451868,5,0,3:2:0:0:
192,267,451964,2,0,L|355:199,1,156.599995220947,8|0,0:0|0:0,0:0:0:0:
181,60,452255,5,0,3:2:0:0:
240,12,452352,2,0,B|265:43|265:43|261:95,1,78.2999976104737,8|0,0:0|0:0,0:0:0:0:
119,215,452545,2,0,L|24:184,1,78.2999976104737,8|0,0:0|0:0,0:0:0:0:
248,369,452739,6,0,B|268:344|268:344|246:282,1,78.2999976104737,0|0,3:2|0:0,0:0:0:0:
76,164,452932,2,0,L|-39:192,1,78.2999976104737,8|0,0:0|0:0,0:0:0:0:
322,190,453126,6,0,L|431:216,1,91.3499972122193,2|0,0:1|0:0,0:0:0:0:
491,309,453513,1,8,0:0:0:0:
431,355,453610,2,0,B|405:342|405:342|388:268,1,78.2999976104737,8|0,0:0|0:0,0:0:0:0:
455,134,453803,2,0,B|479:115|479:115|494:49,1,78.2999976104737,0|8,3:2|0:0,0:0:0:0:
188,260,454093,6,2,L|109:281,1,69.6,2|0,3:1|3:2,0:1:0:0:
43,265,454384,1,0,3:2:0:0:
36,258,454481,6,2,B|11:249|-2:219|-2:219|36:323|149:284|180:373|180:373|-6:202|181:190|129:36|129:36|338:101|138:183|282:318|282:318|197:114|346:202|381:11|381:11|500:193|362:162|382:268|382:268|395:176|443:222|457:126,1,1827,4|2,3:2|0:0,0:2:0:0:
455,134,460093,6,0,P|427:141|390:147,1,52.1999984069825,2|0,0:0|0:0,0:0:0:0:
349,195,460481,1,0,0:0:0:0:
456,265,460674,2,0,P|408:248|353:211,1,104.4,2|0,0:0|0:0,0:0:0:0:
198,100,461642,6,0,P|206:74|222:44,1,52.1999984069825,2|0,0:0|0:0,0:0:0:0:
285,18,462029,1,0,0:0:0:0:
338,134,462222,2,0,P|312:59|307:30,1,104.4,2|0,0:0|0:0,0:0:0:0:
16,282,463190,6,0,P|47:249|113:244,1,104.399996813965,2|0,0:0|0:0,0:0:0:0:
164,284,463771,2,0,P|168:315|183:352,1,52.1999984069825,2|0,0:0|0:0,0:0:0:0:
322,165,464158,1,2,0:0:0:0:
254,181,464352,2,0,P|246:208|240:241,1,52.1999984069825
433,334,464739,2,0,P|416:273|324:239,1,156.599995220947,2|0,0:0|0:0,0:0:0:0:
425,18,466287,6,0,P|386:54|322:63,1,104.399996813965,2|0,0:0|0:0,0:0:0:0:
512,185,466868,2,0,P|452:168|409:81,1,156.599995220947,2|0,0:0|0:0,0:0:0:0:
170,351,467835,6,0,P|188:316|252:295,1,104.399996813965,2|0,0:0|0:0,0:0:0:0:
52,206,468416,2,0,P|104:207|175:297,1,156.599995220947,2|0,0:0|0:0,0:0:0:0:
220,20,469384,6,0,P|208:69|196:136,1,104.399996813965,2|0,0:0|0:0,0:0:0:0:
90,7,469964,2,0,P|101:77|124:169,1,156.599995220947,2|0,0:0|0:0,0:0:0:0:
382,277,470932,6,0,P|373:252|366:208,1,52.1999984069825,2|0,0:0|0:0,0:0:0:0:
379,151,471319,1,0,0:0:0:0:
248,332,471513,2,0,P|262:257|280:210,1,104.399996813965,2|0,0:0|0:0,0:0:0:0:
248,160,472093,1,2,0:0:0:0:
496,285,472481,6,0,P|474:322|397:342,1,104.399996813965,2|0,0:0|0:0,0:0:0:0:
248,160,473061,2,0,P|210:141|186:65,1,104.399996813965,2|0,0:0|0:0,0:0:0:0:
408,0,473642,2,0,P|424:75|424:107,1,104.399996813965,2|0,0:0|0:0,0:0:0:0:
103,357,474610,6,0,P|110:308|137:237,1,104.399996813965,2|0,0:0|0:0,0:0:0:0:
29,190,475190,2,0,P|50:175|86:164,1,52.1999984069825,2|0,0:0|0:0,0:0:0:0:
237,324,475577,6,0,P|286:334|342:376,1,104.399996813965,2|0,0:0|0:0,0:0:0:0:
137,240,476158,2,0,P|166:211|238:179,1,104.399996813965,2|0,0:0|0:0,0:0:0:0:
269,126,476739,1,2,0:0:0:0:
451,329,477126,6,0,P|435:279|424:213,1,104.399996813965,2|0,0:0|0:0,0:0:0:0:
269,126,477706,2,0,P|279:73|304:13,1,104.399996813965,2|0,0:0|0:0,0:0:0:0:
371,0,478287,1,0,0:0:0:0:
255,140,478674,6,0,P|223:172|164:177,1,104.399996813965,2|0,0:0|0:0,0:0:0:0:
97,205,479255,2,0,P|68:189|48:61,1,156.599995220947,2|0,0:0|0:0,0:0:0:0:
263,129,480222,6,0,P|296:175|292:236,1,104.399996813965,2|0,0:0|0:0,0:0:0:0:
357,271,480803,2,0,P|344:320|247:360,1,156.599995220947,2|0,0:0|0:0,0:0:0:0:
248,135,481771,6,0,P|254:87|302:46,1,104.399996813965,2|0,0:0|0:0,0:0:0:0:
358,6,482352,2,0,P|400:10|442:61,1,104.399996813965,2|0,0:0|0:0,0:0:0:0:
493,112,482932,2,0,P|481:137|471:171,1,52.1999984069825,2|0,0:0|0:0,0:0:0:0:
427,328,483319,6,0,P|369:305|259:278,1,156.599995220947,2|0,0:0|0:0,0:0:0:0:
277,281,484287,5,2,0:0:0:0:
107,367,484481,2,0,P|138:361|163:351,1,52.1999984069825,2|0,0:0|0:0,0:0:0:0:
347,329,484868,6,0,P|357:287|314:164,1,156.599995220947,2|2,0:0|0:0,0:0:0:0:
327,180,486416,6,0,P|279:158|213:152,1,104.399996813965,2|0,0:0|0:0,0:0:0:0:
225,9,486997,2,0,P|175:19|95:91,1,156.599995220947,2|0,0:0|0:0,0:0:0:0:
70,68,487964,6,0,P|76:102|85:131,1,52.1999984069825,2|0,0:0|0:0,0:0:0:0:
138,168,488352,1,0,0:0:0:0:
19,242,488545,2,0,P|69:286|124:292,1,104.399996813965,2|0,0:0|0:0,0:0:0:0:
49,362,489513,6,0,P|79:338|196:313,1,156.599995220947,2|0,0:0|0:0,0:0:0:0:
372,143,490481,6,0,P|421:169|473:190,1,104.399996813965,2|0,0:0|0:0,0:0:0:0:
466,187,491061,6,0,P|473:163|491:126,1,52.1999984069825,2|0,0:0|0:0,0:0:0:0:
363,272,491448,1,2,0:0:0:0:
305,219,491642,2,0,P|289:170|279:102,1,104.399996813965,2|0,0:0|0:0,0:0:0:0:
280,117,492610,6,0,P|275:144|260:173,1,52.1999984069825,2|0,0:0|0:0,0:0:0:0:
94,66,492997,1,2,0:0:0:0:
157,108,493190,2,0,P|173:154|187:215,1,104.399996813965,2|0,0:0|0:0,0:0:0:0:
286,27,494158,6,0,P|322:14|360:107,1,156.599995220947,2|0,0:0|0:0,0:0:0:0:
393,113,495706,6,0,P|368:122|336:142,1,52.1999984069825,2|0,0:0|0:0,0:0:0:0:
257,257,496093,1,2,0:0:0:0:
429,269,496287,6,0,P|383:243|326:219,1,104.399996813965,2|0,0:0|0:0,0:0:0:0:
212,113,496868,1,2,0:0:0:0:
74,334,497255,6,0,P|128:328|155:273,1,104.399996813965,2|0,0:0|0:0,0:0:0:0:
292,152,497835,2,0,P|277:123|205:116,1,104.399996813965,2|0,0:0|0:0,0:0:0:0:
31,185,498416,6,0,L|91:199,1,52.1999984069825,2|0,0:0|0:0,0:0:0:0:
271,333,498803,6,0,L|381:310,1,104.399996813965,2|0,0:0|0:0,0:0:0:0:
509,211,499384,2,0,P|499:239|490:274,1,52.1999984069825,2|0,0:0|0:0,0:0:0:0:
384,138,499771,1,2,0:0:0:0:
368,210,499964,2,0,P|359:182|345:150,1,52.1999984069825,2|0,0:0|0:0,0:0:0:0:
454,28,500352,6,0,P|498:57|486:116,1,104.399996813965,2|0,0:0|0:0,0:0:0:0:
339,197,500932,2,0,P|294:171|236:151,1,104.399996813965,2|0,0:0|0:0,0:0:0:0:
196,96,501513,1,2,0:0:0:0:
21,348,501900,6,0,P|63:327|127:311,1,104.399996813965,2|0,0:0|0:0,0:0:0:0:
252,262,502481,2,0,P|312:287|352:324,1,104.399996813965,2|0,0:0|0:0,0:0:0:0:
151,175,503061,1,2,0:0:0:0:
152,183,503448,5,2,0:0:0:0:
