osu file format v14

[General]
AudioFilename: audio.mp3
AudioLeadIn: 0
PreviewTime: 232148
Countdown: 1
SampleSet: Soft
StackLeniency: 0.7
Mode: 0
LetterboxInBreaks: 0
WidescreenStoryboard: 0

[Editor]
Bookmarks: 128355,273959,341976
DistanceSpacing: 0.9
BeatDivisor: 8
GridSize: 32
TimelineZoom: 2.2

[Metadata]
Title:Valiant Flowers
TitleUnicode:Valiant Flowers
Artist:Annabel
ArtistUnicode:Annabel
Creator:Zweib
Version:Insane
Source:
Tags:
BeatmapID:1209172
BeatmapSetID:553470

[Difficulty]
HPDrainRate:6
CircleSize:4.2
OverallDifficulty:8.5
ApproachRate:9.2
SliderMultiplier:2
SliderTickRate:1

[Events]
//Background and Video events
0,0,"aaa.jpg",0,0
//Break Periods
2,128555,133303
2,139590,144337
2,145107,147096
2,231831,232613
//Storyboard Layer 0 (Background)
//Storyboard Layer 1 (Fail)
//Storyboard Layer 2 (Pass)
//Storyboard Layer 3 (Foreground)
//Storyboard Sound Samples

[TimingPoints]
80,344.827586206897,4,2,0,60,1,0
769,-200,4,2,0,15,0,0
11804,-200,4,2,0,5,0,0
12493,-200,4,2,0,15,0,0
13183,-200,4,2,0,25,0,0
13873,-200,4,2,0,35,0,0
14562,-200,4,2,0,45,0,0
15252,-200,4,2,0,55,0,0
15942,-200,4,2,0,65,0,0
16631,-200,4,2,0,75,0,0
17666,-200,4,2,2,80,0,0
18011,-100,4,2,2,80,0,0
33700,-133.333333333333,4,2,2,80,0,0
35252,-200,4,2,2,80,0,0
40080,-100,4,2,2,80,0,0
42493,-133.333333333333,4,2,2,80,0,0
42838,-100,4,2,2,80,0,0
56631,-133.333333333333,4,2,2,80,0,0
62148,-100,4,2,2,80,0,0
69735,-200,4,2,2,80,0,0
70252,-66.6666666666667,4,2,2,80,0,0
70424,-100,4,2,2,80,0,1
101976,-117.647058823529,4,2,2,80,0,1
103528,-100,4,2,2,80,0,0
105252,-133.333333333333,4,2,2,80,0,0
106114,-100,4,2,2,80,0,0
137321,-133.333333333333,4,2,2,80,0,0
137838,-100,4,2,2,80,0,0
150424,-117.647058823529,4,2,2,80,0,0
155942,-100,4,2,2,80,0,0
164045,-200,4,2,2,80,0,0
164217,-100,4,2,2,80,0,1
196631,-133.333333333333,4,2,2,80,0,1
197321,-100,4,2,2,80,0,0
199045,-133.333333333333,4,2,2,80,0,0
199907,-100,4,2,2,80,0,0
200080,-90.9090909090909,4,2,2,80,0,0
211631,-66.6666666666667,4,2,2,80,0,0
212148,-90.9090909090909,4,2,2,80,0,0
212666,-66.6666666666667,4,2,2,80,0,0
213183,-90.9090909090909,4,2,2,80,0,0
233183,-200,4,2,0,80,0,0
255252,-100,4,2,2,80,0,0
264735,-125,4,2,2,80,0,0
271804,-100,4,2,2,80,0,1
303355,-125,4,2,2,80,0,1
304217,-100,4,2,2,80,0,1
304907,-125,4,2,2,80,0,0
311804,-100,4,2,2,80,0,0
335080,-125,4,2,2,80,0,0

[HitObjects]
170,251,1114,6,0,P|163:233|155:211,1,25
393,299,4390,2,0,L|390:314,3,8.33333333333333
320,64,8312,2,0,L|326:51,2,12.5
256,192,11804,12,0,17148,0:0:0:0:
388,217,17321,6,0,L|388:263,3,25
365,270,17666,6,0,P|323:272|288:288,1,75,8|0,0:0|0:0,0:0:0:0:
225,231,18011,6,0,P|217:181|214:131,1,100,4|0,0:0|0:0,0:0:0:0:
77,302,18355,2,0,P|127:302|177:306,1,100,8|0,0:0|0:0,0:0:0:0:
66,291,18700,5,2,0:0:0:0:
261,324,18873,1,0,0:0:0:0:
210,125,19045,1,10,0:0:0:0:
194,240,19217,5,0,0:0:0:0:
411,91,19390,2,0,P|460:101|510:111,1,100,2|0,0:0|0:0,0:0:0:0:
420,182,19735,2,0,P|371:172|322:164,1,100,2|0,0:0|0:0,0:0:0:0:
452,5,20080,5,0,0:0:0:0:
440,209,20252,1,0,0:0:0:0:
327,46,20424,1,0,0:0:0:0:
510,111,20597,1,0,0:0:0:0:
169,141,20769,6,0,L|158:41,1,100
94,226,21114,1,0,0:0:0:0:
268,184,21286,2,0,P|320:150|364:180,1,100
148,319,21631,2,0,P|148:335|141:377,1,50
257,305,21804,2,0,L|246:257,1,50
147,299,21976,6,0,P|86:290|14:284,1,100
17,251,22235,1,0,0:0:0:0:
2,213,22321,1,0,0:0:0:0:
11,169,22407,1,0,0:0:0:0:
37,132,22493,1,0,0:0:0:0:
247,241,22666,5,0,0:0:0:0:
203,234,22752,1,0,0:0:0:0:
159,228,22838,1,0,0:0:0:0:
333,156,23011,5,0,0:0:0:0:
309,150,23097,1,0,0:0:0:0:
284,142,23183,5,0,0:0:0:0:
319,114,23269,1,0,0:0:0:0:
363,111,23355,1,0,0:0:0:0:
402,132,23442,1,0,0:0:0:0:
429,167,23528,6,0,L|413:271,1,100
343,332,23873,1,0,0:0:0:0:
512,253,24045,1,0,0:0:0:0:
331,225,24217,1,0,0:0:0:0:
464,358,24390,1,0,0:0:0:0:
247,356,24562,5,0,0:0:0:0:
21,380,24735,2,0,P|13:331|0:266,1,100
57,143,25080,1,0,0:0:0:0:
150,254,25252,1,0,0:0:0:0:
2,281,25424,1,0,0:0:0:0:
238,131,25597,5,0,0:0:0:0:
261,335,25769,2,0,L|360:327,1,100
150,254,26114,1,0,0:0:0:0:
486,384,26286,6,0,L|476:199,1,150
473,148,26631,1,0,0:0:0:0:
369,218,26804,2,0,L|376:368,1,150
357,130,27148,5,0,0:0:0:0:
357,130,27235,1,0,0:0:0:0:
357,130,27321,1,0,0:0:0:0:
80,260,27493,5,0,0:0:0:0:
170,78,27666,1,0,0:0:0:0:
200,277,27838,1,0,0:0:0:0:
256,165,28011,1,0,0:0:0:0:
58,140,28183,6,0,L|-4:125,1,50,2|0,0:0|0:0,0:0:0:0:
198,42,28355,2,0,L|201:92,1,50,2|0,0:0|0:0,0:0:0:0:
185,202,28528,1,0,0:0:0:0:
428,57,28700,1,2,0:0:0:0:
435,70,28786,1,0,0:0:0:0:
441,83,28873,1,0,0:0:0:0:
447,96,28959,1,0,0:0:0:0:
453,109,29045,6,0,P|453:159|451:225,1,100,4|0,0:0|0:0,0:0:0:0:
451,234,29304,1,0,0:0:0:0:
451,254,29390,1,2,0:0:0:0:
311,240,29562,5,0,0:0:0:0:
308,227,29649,1,0,0:0:0:0:
307,216,29735,1,2,0:0:0:0:
164,266,29907,5,0,0:0:0:0:
167,281,29993,1,0,0:0:0:0:
168,300,30080,1,2,0:0:0:0:
55,255,30252,5,0,0:0:0:0:
48,238,30338,1,0,0:0:0:0:
44,220,30424,1,0,0:0:0:0:
44,202,30510,1,0,0:0:0:0:
35,175,30596,5,0,0:0:0:0:
60,155,30683,1,0,0:0:0:0:
88,146,30769,1,0,0:0:0:0:
117,150,30855,1,0,0:0:0:0:
144,161,30942,1,0,0:0:0:0:
173,168,31028,1,0,0:0:0:0:
203,167,31114,6,0,L|319:146,1,100
183,60,31459,2,0,L|74:77,1,100
447,345,31804,6,0,L|423:233,1,100
415,97,32148,1,0,0:0:0:0:
218,264,32321,2,0,L|340:274,1,100
512,223,32666,1,0,0:0:0:0:
368,184,32838,1,0,0:0:0:0:
251,369,33011,6,0,L|101:358,1,150
77,319,33355,5,0,0:0:0:0:
56,284,33442,1,0,0:0:0:0:
37,248,33528,1,0,0:0:0:0:
221,230,33700,6,0,B|266:335|266:335|335:249,1,225.000008583069
154,168,34562,5,0,0:0:0:0:
156,180,34734,1,0,0:0:0:0:
159,192,34906,1,0,0:0:0:0:
161,204,35079,1,0,0:0:0:0:
451,116,35252,6,0,L|359:115,1,75
346,106,35597,5,0,0:0:0:0:
350,120,35770,1,0,0:0:0:0:
354,134,35942,1,0,0:0:0:0:
358,148,36114,2,0,L|337:262,1,100
205,6,36631,5,0,0:0:0:0:
209,20,36804,1,0,0:0:0:0:
213,34,36976,1,0,0:0:0:0:
217,48,37149,1,0,0:0:0:0:
11,92,37321,5,0,0:0:0:0:
15,106,37494,1,0,0:0:0:0:
19,120,37666,1,0,0:0:0:0:
23,134,37839,1,0,0:0:0:0:
353,62,38011,6,0,L|439:55,1,75
454,42,38355,5,0,0:0:0:0:
458,56,38528,1,0,0:0:0:0:
462,70,38700,1,0,0:0:0:0:
466,85,38873,2,0,L|479:198,1,100
347,133,39390,5,0,0:0:0:0:
365,218,39562,2,0,L|373:280,1,50
393,324,39821,5,0,0:0:0:0:
393,324,39907,1,0,0:0:0:0:
393,324,39993,1,0,0:0:0:0:
425,364,40080,6,0,L|314:350,1,100
96,384,40424,2,0,L|199:367,1,100
154,192,40769,1,0,0:0:0:0:
256,291,40942,1,0,0:0:0:0:
41,267,41114,1,0,0:0:0:0:
267,101,41286,6,0,B|276:201,1,100
176,234,41631,1,0,0:0:0:0:
186,49,41803,1,0,0:0:0:0:
214,22,41889,1,0,0:0:0:0:
252,9,41975,1,0,0:0:0:0:
292,10,42062,1,0,0:0:0:0:
326,29,42148,6,0,P|355:37|391:45,1,50
171,96,42321,2,0,P|143:114|125:129,1,50
359,153,42493,6,0,P|371:198|393:254,1,75.0000028610231
22,355,42838,6,0,P|32:299|39:229,1,100
3,150,43183,1,0,0:0:0:0:
501,240,43528,2,0,P|495:190|491:140,1,100
508,49,43873,1,0,0:0:0:0:
402,179,44045,6,0,P|352:184|283:183,1,100
273,176,44304,1,0,0:0:0:0:
244,167,44390,1,0,0:0:0:0:
214,169,44476,1,0,0:0:0:0:
186,180,44562,1,0,0:0:0:0:
222,295,44735,1,0,0:0:0:0:
229,284,44821,1,0,0:0:0:0:
232,271,44907,1,0,0:0:0:0:
0,90,45080,1,0,0:0:0:0:
10,117,45166,1,0,0:0:0:0:
32,137,45252,1,0,0:0:0:0:
60,146,45338,1,0,0:0:0:0:
89,142,45424,1,0,0:0:0:0:
114,127,45511,1,0,0:0:0:0:
137,106,45597,6,0,P|187:87|260:108,1,100
377,155,45942,2,0,P|431:183|492:169,1,100
334,55,46286,1,0,0:0:0:0:
279,189,46459,1,0,0:0:0:0:
63,324,46631,6,0,P|38:275|63:205,1,100
182,59,46976,2,0,P|183:108|145:155,1,100
156,259,47321,1,0,0:0:0:0:
73,78,47493,1,0,0:0:0:0:
412,100,47666,6,0,L|512:93,1,100
346,181,48011,2,0,L|246:188,1,100
304,46,48355,5,0,0:0:0:0:
290,76,48528,1,0,0:0:0:0:
260,65,48700,1,0,0:0:0:0:
272,34,48873,1,0,0:0:0:0:
162,164,49045,6,0,P|179:253|214:271,1,100
392,318,49390,5,0,0:0:0:0:
374,293,49562,1,0,0:0:0:0:
346,280,49735,1,0,0:0:0:0:
316,278,49907,1,0,0:0:0:0:
479,348,50080,6,0,P|486:282|456:236,1,100
472,253,50338,1,0,0:0:0:0:
472,253,50424,1,0,0:0:0:0:
318,371,50597,1,0,0:0:0:0:
161,342,50769,1,0,0:0:0:0:
151,308,50855,1,0,0:0:0:0:
144,273,50942,1,0,0:0:0:0:
135,239,51028,1,0,0:0:0:0:
126,205,51114,6,0,L|130:106,1,100
238,0,51459,2,0,L|234:106,1,100
130,105,51804,2,0,L|12:104,1,100
238,0,52148,1,0,0:0:0:0:
303,198,52321,1,0,0:0:0:0:
326,223,52407,1,0,0:0:0:0:
348,249,52493,6,0,P|346:191|352:132,1,100
143,181,52838,2,0,P|145:239|139:298,1,100
383,298,53183,2,0,P|384:222|392:187,1,100
108,132,53528,2,0,P|107:208|99:243,1,100
44,43,53873,6,0,P|94:22|171:47,1,100
210,196,54217,2,0,P|271:212|325:173,1,100
468,43,54562,2,0,P|418:22|341:47,1,100
318,108,54821,1,0,0:0:0:0:
318,108,54907,1,0,0:0:0:0:
409,288,55080,2,0,L|424:335,1,50
432,181,55252,5,0,0:0:0:0:
310,318,55424,1,0,0:0:0:0:
287,325,55511,1,0,0:0:0:0:
264,332,55597,1,0,0:0:0:0:
497,247,55769,1,0,0:0:0:0:
497,248,55855,1,0,0:0:0:0:
497,248,55942,1,0,0:0:0:0:
308,199,56114,1,0,0:0:0:0:
275,190,56200,1,0,0:0:0:0:
242,185,56286,1,0,0:0:0:0:
209,183,56372,1,0,0:0:0:0:
176,185,56458,1,0,0:0:0:0:
143,189,56545,1,0,0:0:0:0:
113,201,56631,5,0,0:0:0:0:
113,201,56976,1,0,0:0:0:0:
136,106,57148,1,0,0:0:0:0:
41,82,57321,1,0,0:0:0:0:
16,176,57493,2,0,P|28:286|27:318,1,112.500004291535
17,322,57838,6,0,L|98:305,1,75.0000028610231
184,334,58183,1,0,0:0:0:0:
234,251,58355,1,0,0:0:0:0:
141,225,58528,1,0,0:0:0:0:
325,284,58700,2,0,P|330:238|327:209,1,75.0000028610231
272,134,59045,1,0,0:0:0:0:
394,86,59217,1,0,0:0:0:0:
401,68,59303,1,0,0:0:0:0:
409,51,59389,5,0,0:0:0:0:
361,366,59735,1,0,0:0:0:0:
410,256,59907,2,0,P|477:270|425:314,1,150.000005722046
294,267,60424,1,0,0:0:0:0:
232,366,60597,6,0,P|108:366|78:362,2,150.000005722046
503,195,61459,2,0,P|410:185|327:203,1,150.000005722046
343,209,61890,1,0,0:0:0:0:
341,227,61976,1,0,0:0:0:0:
344,245,62062,1,0,0:0:0:0:
353,258,62148,6,0,L|358:124,1,100
218,173,62493,2,0,L|223:39,1,100
84,339,62838,2,0,L|89:205,1,100
46,134,63183,1,0,0:0:0:0:
231,266,63355,1,0,0:0:0:0:
231,266,63442,1,0,0:0:0:0:
215,304,63528,6,0,L|353:298,1,100
384,179,63873,2,0,L|522:173,1,100
120,107,64217,2,0,L|258:101,1,100
318,34,64562,1,0,0:0:0:0:
236,232,64735,1,0,0:0:0:0:
38,165,64907,6,0,L|22:33,1,100
333,229,65252,2,0,L|322:131,1,100
138,339,65597,2,0,L|122:208,1,100
211,158,65942,1,0,0:0:0:0:
260,316,66114,1,0,0:0:0:0:
260,316,66200,1,0,0:0:0:0:
260,316,66286,6,0,L|373:328,1,100
498,161,66631,2,0,L|485:286,1,100
443,326,66890,2,0,L|467:376,1,50
393,209,67148,1,0,0:0:0:0:
396,179,67234,1,0,0:0:0:0:
399,149,67320,1,0,0:0:0:0:
402,119,67406,1,0,0:0:0:0:
405,89,67492,1,0,0:0:0:0:
408,59,67579,1,0,0:0:0:0:
413,26,67666,6,0,L|316:50,1,100
233,267,68011,1,0,0:0:0:0:
76,139,68183,2,0,P|129:38|187:79,1,200
233,267,68700,1,0,0:0:0:0:
277,143,68873,1,0,0:0:0:0:
115,259,69045,5,0,0:0:0:0:
393,368,69217,2,0,P|454:292|347:289,1,250
336,241,69735,6,0,P|325:175|330:106,1,125
436,70,70252,6,0,P|440:107|413:151,1,75.0000028610231
226,172,70424,6,0,L|55:168,1,150
0,138,70769,1,0,0:0:0:0:
246,56,70942,1,0,0:0:0:0:
183,262,71114,2,0,L|176:400,1,100
78,270,71459,1,0,0:0:0:0:
365,342,71631,1,0,0:0:0:0:
382,311,71717,1,0,0:0:0:0:
398,279,71804,6,0,L|389:137,1,100
394,83,72062,1,0,0:0:0:0:
406,50,72148,1,0,0:0:0:0:
256,255,72321,1,0,0:0:0:0:
493,183,72493,1,0,0:0:0:0:
252,119,72666,1,0,0:0:0:0:
252,119,72752,1,0,0:0:0:0:
286,137,72838,2,0,L|405:127,1,100
183,15,73183,5,0,0:0:0:0:
53,194,73355,1,0,0:0:0:0:
36,33,73528,1,0,0:0:0:0:
206,174,73700,2,0,L|192:273,1,100
315,331,74045,1,0,0:0:0:0:
81,373,74217,2,0,L|116:318,1,50
115,242,74390,6,0,L|97:113,1,100
191,43,74648,6,0,L|168:118,1,50
0,98,74821,1,0,0:0:0:0:
13,132,74907,2,0,L|140:144,1,100
376,168,75166,1,0,0:0:0:0:
359,133,75252,2,0,L|260:125,1,100
189,219,75511,1,0,0:0:0:0:
199,250,75597,5,0,0:0:0:0:
243,245,75683,1,0,0:0:0:0:
286,253,75769,1,0,0:0:0:0:
320,281,75855,1,0,0:0:0:0:
344,318,75942,6,0,L|356:206,1,100
249,326,76286,1,0,0:0:0:0:
101,296,76459,2,0,L|151:391,1,100
36,384,76804,1,0,0:0:0:0:
249,326,76976,1,0,0:0:0:0:
462,268,77148,1,0,0:0:0:0:
462,268,77235,1,0,0:0:0:0:
476,226,77321,6,0,L|465:122,1,100
413,349,77666,2,0,L|517:338,1,100
290,285,78011,2,0,L|301:389,1,100
354,157,78355,2,0,L|250:168,1,100
132,46,78700,5,0,0:0:0:0:
423,127,78873,1,0,0:0:0:0:
121,209,79045,1,0,0:0:0:0:
451,49,79217,5,0,0:0:0:0:
93,127,79390,1,0,0:0:0:0:
461,202,79562,1,0,0:0:0:0:
75,281,79735,5,0,0:0:0:0:
449,287,79907,2,0,B|464:223|403:125|288:161|288:161|306:171|306:171|266:185|246:230,1,350
334,260,80597,5,0,0:0:0:0:
157,334,80769,2,0,L|150:276,1,50
125,169,80942,1,0,0:0:0:0:
124,152,81028,1,0,0:0:0:0:
127,135,81114,1,0,0:0:0:0:
131,119,81200,1,0,0:0:0:0:
139,104,81286,1,0,0:0:0:0:
148,91,81373,1,0,0:0:0:0:
162,77,81459,6,0,L|48:64,1,100
276,19,81804,1,0,0:0:0:0:
236,152,81976,1,0,0:0:0:0:
351,132,82148,2,0,L|456:98,1,100
499,51,82407,1,0,0:0:0:0:
499,51,82493,1,0,0:0:0:0:
361,273,82666,1,0,0:0:0:0:
184,235,82838,6,0,L|68:216,1,100
20,190,83097,1,0,0:0:0:0:
20,190,83183,1,0,0:0:0:0:
274,258,83355,1,0,0:0:0:0:
138,369,83528,1,0,0:0:0:0:
406,302,83700,2,0,B|381:268|381:268|389:193,2,100
499,328,84217,5,0,0:0:0:0:
475,97,84390,1,0,0:0:0:0:
238,253,84562,2,0,L|255:317,1,50
384,198,84735,6,0,L|391:92,1,100
83,243,85080,2,0,L|96:350,1,100
38,56,85424,2,0,B|120:77|120:77|250:43,2,200
0,163,86200,1,0,0:0:0:0:
0,163,86286,1,0,0:0:0:0:
236,210,86459,1,0,0:0:0:0:
255,204,86545,1,0,0:0:0:0:
274,198,86631,1,0,0:0:0:0:
293,193,86717,1,0,0:0:0:0:
312,188,86804,1,0,0:0:0:0:
331,184,86890,1,0,0:0:0:0:
350,180,86976,6,0,L|496:201,1,100
503,120,87321,1,0,0:0:0:0:
468,282,87493,1,0,0:0:0:0:
340,263,87666,2,0,L|360:362,1,100
448,194,88011,1,0,0:0:0:0:
197,327,88183,6,0,L|88:313,1,100
0,351,88528,1,0,0:0:0:0:
162,203,88700,2,0,L|156:104,1,100
274,365,89045,2,0,L|285:226,1,100
35,151,89390,2,0,L|22:255,1,100
425,144,89735,5,0,0:0:0:0:
389,7,89907,1,0,0:0:0:0:
294,120,90080,2,0,L|403:106,1,100
204,75,90424,2,0,L|190:177,1,100
100,111,90769,1,0,0:0:0:0:
345,262,90942,5,0,0:0:0:0:
388,10,91114,1,0,0:0:0:0:
191,174,91286,1,0,0:0:0:0:
420,133,91459,5,0,0:0:0:0:
166,50,91631,1,0,0:0:0:0:
53,289,91804,5,0,0:0:0:0:
475,206,91976,1,0,0:0:0:0:
446,238,92321,1,0,0:0:0:0:
446,238,92407,1,0,0:0:0:0:
470,279,92493,6,0,L|343:274,1,100
272,164,92838,1,0,0:0:0:0:
246,345,93011,1,0,0:0:0:0:
128,209,93183,2,0,L|113:110,1,100
93,11,93527,1,0,0:0:0:0:
393,75,93700,6,0,B|328:104|328:104|181:81,1,200
201,85,94131,1,0,0:0:0:0:
201,85,94217,1,0,0:0:0:0:
297,6,94390,1,0,0:0:0:0:
223,179,94562,2,0,L|236:278,1,100
247,333,94821,1,0,0:0:0:0:
247,333,94907,1,0,0:0:0:0:
336,194,95080,1,0,0:0:0:0:
93,384,95252,5,0,0:0:0:0:
399,284,95424,1,0,0:0:0:0:
159,84,95597,1,0,0:0:0:0:
247,333,95769,5,0,0:0:0:0:
115,232,95942,1,0,0:0:0:0:
276,168,96114,1,0,0:0:0:0:
88,142,96286,5,0,0:0:0:0:
247,333,96459,1,0,0:0:0:0:
307,77,96631,1,0,0:0:0:0:
166,304,96804,5,0,0:0:0:0:
121,62,96976,1,0,0:0:0:0:
315,257,97148,1,0,0:0:0:0:
274,0,97321,5,0,0:0:0:0:
202,158,97493,1,0,0:0:0:0:
207,177,97579,1,0,0:0:0:0:
212,196,97665,1,0,0:0:0:0:
217,216,97751,1,0,0:0:0:0:
222,235,97837,1,0,0:0:0:0:
227,254,97924,1,0,0:0:0:0:
231,275,98011,6,0,L|218:392,1,100
351,182,98355,1,0,0:0:0:0:
340,295,98528,1,0,0:0:0:0:
345,310,98614,1,0,0:0:0:0:
350,324,98700,1,0,0:0:0:0:
120,312,98873,2,0,L|6:309,2,100
157,205,99304,1,0,0:0:0:0:
145,193,99390,6,0,L|136:94,1,100
256,23,99735,1,0,0:0:0:0:
253,172,99907,1,0,0:0:0:0:
268,187,99993,1,0,0:0:0:0:
282,202,100080,2,0,L|397:206,1,100
447,140,100338,1,0,0:0:0:0:
447,140,100424,1,0,0:0:0:0:
300,346,100597,1,0,0:0:0:0:
418,316,100769,5,0,0:0:0:0:
236,277,100942,1,0,0:0:0:0:
256,262,101028,1,0,0:0:0:0:
280,255,101114,1,0,0:0:0:0:
173,131,101286,5,0,0:0:0:0:
55,320,101459,1,0,0:0:0:0:
75,333,101545,1,0,0:0:0:0:
99,341,101631,1,0,0:0:0:0:
124,342,101717,1,0,0:0:0:0:
148,335,101803,1,0,0:0:0:0:
285,63,101976,5,0,0:0:0:0:
78,8,103528,5,0,0:0:0:0:
400,96,103700,1,0,0:0:0:0:
64,176,103873,1,0,0:0:0:0:
398,8,104045,5,0,0:0:0:0:
80,96,104217,1,0,0:0:0:0:
416,176,104390,5,0,0:0:0:0:
80,96,104562,1,0,0:0:0:0:
400,96,104735,5,0,0:0:0:0:
64,176,104907,1,0,0:0:0:0:
434,255,105080,5,0,0:0:0:0:
24,260,105252,2,0,B|87:280|138:222|138:222|186:341|266:290|303:262|221:197|212:263,1,337.500012874604
185,335,106114,2,0,P|190:359|203:382,1,50
399,316,106286,6,0,L|284:317,1,100
475,384,106631,1,0,0:0:0:0:
512,214,106804,1,0,0:0:0:0:
300,317,106976,1,0,0:0:0:0:
380,136,107148,1,0,0:0:0:0:
492,303,107321,1,0,0:0:0:0:
95,172,107493,6,0,P|69:127|69:70,1,100
72,278,107838,1,0,0:0:0:0:
161,239,108011,2,0,P|202:208|251:200,1,100
474,115,108355,5,0,0:0:0:0:
398,248,108528,1,0,0:0:0:0:
337,178,108700,1,0,0:0:0:0:
485,210,108873,1,0,0:0:0:0:
65,242,109045,5,0,0:0:0:0:
241,383,109217,1,0,0:0:0:0:
18,314,109390,1,0,0:0:0:0:
239,296,109562,2,0,L|361:277,1,100
166,167,109907,6,0,L|176:229,1,50
111,290,110080,1,0,0:0:0:0:
2,84,110252,6,0,L|168:90,1,150
220,27,110597,1,0,0:0:0:0:
201,13,110683,1,0,0:0:0:0:
177,4,110769,1,0,0:0:0:0:
363,64,110942,1,0,0:0:0:0:
396,57,111028,1,0,0:0:0:0:
425,39,111114,1,0,0:0:0:0:
366,200,111286,1,0,0:0:0:0:
366,200,111373,1,0,0:0:0:0:
366,200,111459,1,0,0:0:0:0:
366,200,111545,1,0,0:0:0:0:
366,200,111631,1,0,0:0:0:0:
366,200,111717,1,0,0:0:0:0:
366,200,111804,6,0,L|249:189,1,100
128,151,112148,1,0,0:0:0:0:
373,300,112321,2,0,L|497:285,1,100
151,257,112666,6,0,P|129:297|133:351,1,100
233,188,113011,1,0,0:0:0:0:
249,94,113183,2,0,P|243:48|207:6,1,100
271,282,113528,2,0,P|302:315|355:328,1,100
143,143,113873,2,0,P|98:134|47:155,1,100
329,187,114217,2,0,P|370:167|399:120,1,100
448,34,114562,5,0,0:0:0:0:
437,266,114735,1,0,0:0:0:0:
240,157,114907,1,0,0:0:0:0:
509,126,115080,5,0,0:0:0:0:
310,305,115252,1,0,0:0:0:0:
362,33,115424,1,0,0:0:0:0:
477,284,115597,5,0,0:0:0:0:
312,213,115769,2,0,L|283:149,1,50
259,82,115942,1,0,0:0:0:0:
196,320,116114,1,0,0:0:0:0:
128,252,116286,2,0,L|140:179,1,50
127,115,116459,2,0,L|117:44,1,50
361,83,116631,1,0,0:0:0:0:
301,320,116804,1,0,0:0:0:0:
272,305,116890,1,0,0:0:0:0:
244,289,116976,6,0,L|230:226,1,50
360,162,117148,2,0,L|337:220,1,50
57,154,117321,5,0,0:0:0:0:
177,126,117493,1,0,0:0:0:0:
100,73,117666,1,0,0:0:0:0:
134,202,117838,1,0,0:0:0:0:
489,110,118011,5,0,0:0:0:0:
449,11,118183,1,0,0:0:0:0:
382,92,118355,1,0,0:0:0:0:
459,375,118528,5,0,0:0:0:0:
471,243,118700,1,0,0:0:0:0:
386,343,118873,1,0,0:0:0:0:
510,314,119045,1,0,0:0:0:0:
393,267,119217,1,0,0:0:0:0:
84,368,119390,6,0,P|89:321|49:297,1,100
140,253,119735,2,0,P|131:300|171:327,1,100
248,140,120080,6,0,L|259:40,1,100
35,57,120424,2,0,L|88:80,1,50
133,177,120597,2,0,B|150:294,1,100
407,123,120942,2,0,L|420:23,1,100
492,256,121286,1,0,0:0:0:0:
492,256,121373,1,0,0:0:0:0:
492,256,121459,5,0,0:0:0:0:
219,351,121631,2,0,L|112:334,1,100
88,319,121890,1,0,0:0:0:0:
72,292,121976,1,0,0:0:0:0:
75,260,122062,1,0,0:0:0:0:
57,224,122148,5,0,0:0:0:0:
96,216,122235,1,0,0:0:0:0:
135,211,122321,1,0,0:0:0:0:
174,205,122407,1,0,0:0:0:0:
213,198,122493,2,0,P|215:167|222:139,1,50
101,66,122666,2,0,P|110:91|117:119,1,50
326,108,122838,6,0,P|364:76|414:43,1,100
288,0,123183,1,0,0:0:0:0:
314,194,123355,1,0,0:0:0:0:
477,89,123528,1,0,0:0:0:0:
326,108,123700,1,0,0:0:0:0:
145,342,123873,5,0,0:0:0:0:
442,277,124045,1,0,0:0:0:0:
211,93,124217,2,0,L|222:192,1,100
310,379,124562,2,0,L|320:279,1,100
373,195,124907,1,0,0:0:0:0:
220,292,125080,1,0,0:0:0:0:
294,135,125252,5,0,0:0:0:0:
391,290,125424,1,0,0:0:0:0:
137,335,125597,6,0,L|26:324,1,100
228,263,125942,2,0,L|265:366,1,100
121,217,126286,2,0,L|176:112,1,100
202,22,126631,5,0,0:0:0:0:
309,173,126804,1,0,0:0:0:0:
461,193,126976,1,0,0:0:0:0:
92,297,127148,5,0,0:0:0:0:
204,208,127321,1,0,0:0:0:0:
306,321,127493,1,0,0:0:0:0:
392,162,127666,2,0,L|411:131,15,25
381,69,128355,5,0,0:0:0:0:
283,197,133873,5,0,0:0:0:0:
256,192,133959,12,0,136459,0:0:0:0:
208,134,136631,6,0,P|344:129|233:179,1,350
214,243,137321,6,0,P|318:224|382:243,1,150.000005722046
452,336,137838,6,0,B|437:315|380:286|385:231|440:221|465:241|443:289|415:298|415:298|302:221|163:304,1,450
91,314,138700,2,0,L|64:318,15,25
0,264,139390,5,0,0:0:0:0:
368,139,144907,5,0,0:0:0:0:
256,192,147666,12,0,150252,0:0:0:0:
109,229,150424,5,0,0:0:0:0:
109,229,150597,1,0,0:0:0:0:
193,269,150769,1,0,0:0:0:0:
248,193,150942,1,0,0:0:0:0:
166,147,151114,1,0,0:0:0:0:
279,273,151286,6,0,P|380:274|414:331,1,170.000003242493
412,325,151976,1,0,0:0:0:0:
374,248,152148,1,0,0:0:0:0:
434,187,152321,1,0,0:0:0:0:
413,107,152493,2,0,L|326:97,1,85.0000016212464
165,141,152838,2,0,L|259:152,1,85.0000016212464
287,122,153097,1,0,0:0:0:0:
262,83,153183,6,0,L|270:259,1,170.000003242493
274,340,153700,1,0,0:0:0:0:
351,298,153873,2,0,B|274:254|272:343|187:299,1,170.000003242493
0,226,154390,6,0,P|16:179|123:197,2,170.000003242493
68,315,155252,2,0,L|74:347,8,21.2500004053116
46,384,155683,1,0,0:0:0:0:
92,376,155769,1,0,0:0:0:0:
138,371,155855,1,0,0:0:0:0:
185,364,155942,6,0,L|305:379,1,100
223,179,156286,2,0,L|211:284,1,100
69,121,156631,2,0,L|83:233,1,100
184,65,156976,1,0,0:0:0:0:
360,266,157148,5,0,0:0:0:0:
360,266,157235,1,0,0:0:0:0:
360,266,157321,1,0,0:0:0:0:
398,46,157493,1,0,0:0:0:0:
398,46,157580,1,0,0:0:0:0:
398,46,157666,1,0,0:0:0:0:
503,167,157838,1,0,0:0:0:0:
510,174,157924,1,0,0:0:0:0:
510,174,158011,2,0,L|395:182,1,100
168,147,158355,1,0,0:0:0:0:
168,147,158528,1,0,0:0:0:0:
283,260,158700,6,0,L|272:144,1,100
138,262,159045,2,0,L|146:361,1,100
41,137,159390,2,0,L|30:17,1,100
136,102,159735,1,0,0:0:0:0:
43,232,159907,1,0,0:0:0:0:
198,185,160080,6,0,L|316:165,1,100
358,99,160338,1,0,0:0:0:0:
358,99,160424,1,0,0:0:0:0:
452,192,160597,1,0,0:0:0:0:
452,192,160683,1,0,0:0:0:0:
452,192,160769,2,0,L|438:306,1,100
272,382,161114,1,0,0:0:0:0:
267,365,161200,1,0,0:0:0:0:
263,349,161286,1,0,0:0:0:0:
259,333,161372,1,0,0:0:0:0:
256,316,161459,6,0,L|141:303,1,100
110,292,161717,1,0,0:0:0:0:
63,284,161804,1,0,0:0:0:0:
307,228,161976,2,0,L|419:196,1,100
438,204,162235,1,0,0:0:0:0:
474,209,162321,1,0,0:0:0:0:
157,87,162493,2,0,L|167:187,1,100
231,303,162752,1,0,0:0:0:0:
231,303,162838,1,0,0:0:0:0:
321,217,163011,6,0,B|276:181|276:181|262:197|262:197|186:189|136:220|127:287,1,250
55,319,163528,2,0,P|26:305|7:281,5,50
151,357,164045,6,0,P|147:370|142:382,1,25
385,295,164217,6,0,P|312:297|236:294,1,150
459,345,164562,1,0,0:0:0:0:
460,149,164735,1,0,0:0:0:0:
312,262,164907,1,0,0:0:0:0:
381,21,165079,1,0,0:0:0:0:
509,236,165252,1,0,0:0:0:0:
271,144,165424,1,0,0:0:0:0:
274,120,165511,1,0,0:0:0:0:
277,99,165597,6,0,L|121:131,1,150
62,69,165941,1,0,0:0:0:0:
206,232,166114,1,0,0:0:0:0:
190,10,166286,1,0,0:0:0:0:
76,205,166459,1,0,0:0:0:0:
76,205,166545,1,0,0:0:0:0:
76,205,166631,2,0,L|81:321,1,100
402,234,166976,5,0,0:0:0:0:
228,362,167148,1,0,0:0:0:0:
467,320,167321,1,0,0:0:0:0:
274,257,167493,2,0,L|258:142,1,100
334,70,167838,1,0,0:0:0:0:
410,194,168010,6,0,L|346:171,1,50
481,76,168183,2,0,L|494:195,1,100
437,310,168442,1,0,0:0:0:0:
400,298,168528,6,0,L|390:347,1,50
285,256,168700,2,0,L|123:275,1,150
70,206,169045,5,0,0:0:0:0:
196,39,169217,1,0,0:0:0:0:
197,58,169303,1,0,0:0:0:0:
199,78,169389,1,0,0:0:0:0:
201,98,169475,1,0,0:0:0:0:
203,118,169561,1,0,0:0:0:0:
205,138,169648,1,0,0:0:0:0:
190,164,169735,6,0,P|241:205|301:120,1,150
384,122,170079,1,0,0:0:0:0:
247,237,170252,2,0,L|239:349,1,100
157,368,170597,1,0,0:0:0:0:
137,106,170769,1,0,0:0:0:0:
162,229,170941,1,0,0:0:0:0:
138,241,171028,1,0,0:0:0:0:
113,254,171114,6,0,L|8:235,1,100
219,286,171459,2,0,L|201:384,1,100
253,179,171804,2,0,L|351:196,1,100
144,146,172149,2,0,L|161:47,1,100
256,96,172493,5,0,0:0:0:0:
128,256,172666,1,0,0:0:0:0:
384,256,172838,1,0,0:0:0:0:
256,64,173011,5,0,0:0:0:0:
64,288,173183,1,0,0:0:0:0:
448,288,173355,1,0,0:0:0:0:
256,32,173528,5,0,0:0:0:0:
256,304,173700,1,0,0:0:0:0:
177,166,173873,5,0,0:0:0:0:
350,266,174045,2,0,P|354:234|360:198,1,50
330,86,174217,1,0,0:0:0:0:
119,322,174390,6,0,P|111:293|92:263,1,50
164,214,174562,2,0,P|175:176|176:134,1,50
81,123,174735,2,0,P|57:102|43:78,1,50
259,3,174907,1,0,0:0:0:0:
262,19,174993,1,0,0:0:0:0:
266,35,175079,1,0,0:0:0:0:
270,51,175165,1,0,0:0:0:0:
274,66,175252,6,0,L|266:250,1,150
372,187,175597,2,0,P|421:182|471:178,1,100
512,110,175855,1,0,0:0:0:0:
512,110,175941,1,0,0:0:0:0:
432,285,176114,1,0,0:0:0:0:
267,215,176286,1,0,0:0:0:0:
372,187,176459,1,0,0:0:0:0:
231,319,176631,6,0,L|127:323,1,100
50,334,176890,1,0,0:0:0:0:
50,334,176976,1,0,0:0:0:0:
188,205,177148,1,0,0:0:0:0:
247,384,177321,1,0,0:0:0:0:
69,186,177493,2,0,L|54:75,2,100
151,75,178010,5,0,0:0:0:0:
0,262,178183,1,0,0:0:0:0:
240,311,178355,2,0,L|225:237,1,50
152,209,178528,2,0,L|301:221,1,150
390,237,178873,2,0,L|370:169,1,50
396,62,179045,1,0,0:0:0:0:
464,157,179217,6,0,P|512:93|501:21,1,150
189,66,179562,6,0,P|250:123|304:96,1,150
325,13,179907,1,0,0:0:0:0:
237,161,180080,2,0,L|253:227,1,50
211,305,180252,1,0,0:0:0:0:
240,300,180338,1,0,0:0:0:0:
270,296,180424,1,0,0:0:0:0:
300,291,180510,1,0,0:0:0:0:
329,287,180596,1,0,0:0:0:0:
359,283,180683,1,0,0:0:0:0:
393,298,180769,6,0,P|475:291|496:232,1,150
493,137,181114,1,0,0:0:0:0:
368,32,181286,1,0,0:0:0:0:
354,59,181373,1,0,0:0:0:0:
341,86,181459,2,0,L|364:202,1,100
273,20,181804,1,0,0:0:0:0:
103,168,181976,6,0,L|3:155,1,100
190,92,182321,1,0,0:0:0:0:
233,216,182493,2,0,L|241:332,1,100
113,382,182752,1,0,0:0:0:0:
79,368,182838,2,0,L|72:258,1,100
142,20,183183,2,0,L|150:128,1,100
147,204,183442,1,0,0:0:0:0:
147,204,183528,5,0,0:0:0:0:
412,85,183700,1,0,0:0:0:0:
329,169,183873,2,0,L|333:295,1,100
512,131,184217,2,0,L|509:28,1,100
428,205,184562,1,0,0:0:0:0:
311,47,184735,5,0,0:0:0:0:
278,292,184907,1,0,0:0:0:0:
68,170,185079,1,0,0:0:0:0:
381,218,185252,5,0,0:0:0:0:
171,235,185424,1,0,0:0:0:0:
109,349,185597,5,0,0:0:0:0:
469,300,185769,2,0,L|488:100,1,200
447,66,186200,1,0,0:0:0:0:
403,99,186286,6,0,L|303:106,1,100
163,70,186631,1,0,0:0:0:0:
362,219,186804,1,0,0:0:0:0:
158,284,186976,1,0,0:0:0:0:
303,106,187148,2,0,L|290:-11,2,100
202,197,187580,1,0,0:0:0:0:
173,187,187666,6,0,L|53:196,1,100
46,186,187924,1,0,0:0:0:0:
21,179,188011,1,0,0:0:0:0:
149,86,188183,1,0,0:0:0:0:
105,275,188355,2,0,L|118:374,1,100
210,384,188614,1,0,0:0:0:0:
210,384,188700,1,0,0:0:0:0:
276,178,188873,1,0,0:0:0:0:
201,279,189045,5,0,0:0:0:0:
233,98,189217,1,0,0:0:0:0:
372,217,189390,1,0,0:0:0:0:
170,265,189562,5,0,0:0:0:0:
260,78,189734,1,0,0:0:0:0:
375,250,189907,1,0,0:0:0:0:
134,249,190079,5,0,0:0:0:0:
292,54,190251,1,0,0:0:0:0:
380,290,190424,1,0,0:0:0:0:
202,200,190597,5,0,0:0:0:0:
296,257,190769,1,0,0:0:0:0:
303,139,190942,1,0,0:0:0:0:
117,224,191114,2,0,P|119:183|123:157,1,50
65,77,191286,1,0,0:0:0:0:
102,89,191372,1,0,0:0:0:0:
142,88,191458,1,0,0:0:0:0:
181,78,191544,1,0,0:0:0:0:
221,76,191630,1,0,0:0:0:0:
260,83,191717,1,0,0:0:0:0:
303,102,191804,6,0,L|320:212,1,100
216,200,192148,1,0,0:0:0:0:
360,44,192321,1,0,0:0:0:0:
411,245,192493,1,0,0:0:0:0:
141,269,192666,2,0,P|119:228|125:161,2,100
329,347,193097,1,0,0:0:0:0:
342,326,193183,6,0,L|219:342,1,100
208,344,193442,1,0,0:0:0:0:
173,348,193528,1,0,0:0:0:0:
336,103,193700,1,0,0:0:0:0:
346,119,193786,1,0,0:0:0:0:
356,136,193873,2,0,L|346:235,1,100
278,269,194131,1,0,0:0:0:0:
278,269,194217,1,0,0:0:0:0:
431,172,194390,1,0,0:0:0:0:
492,301,194562,5,0,0:0:0:0:
344,346,194735,1,0,0:0:0:0:
349,321,194821,1,0,0:0:0:0:
354,296,194907,1,0,0:0:0:0:
77,313,195079,5,0,0:0:0:0:
217,291,195252,1,0,0:0:0:0:
214,266,195338,1,0,0:0:0:0:
211,241,195424,1,0,0:0:0:0:
208,216,195510,1,0,0:0:0:0:
205,190,195597,1,0,0:0:0:0:
274,231,195769,6,0,P|123:167|275:144,1,400
351,208,196631,2,0,B|415:219|459:180|459:180|405:216|384:295,1,225.000008583069
379,87,197321,5,0,0:0:0:0:
500,288,197493,1,0,0:0:0:0:
431,6,197666,1,0,0:0:0:0:
334,361,197838,5,0,0:0:0:0:
286,34,198010,1,0,0:0:0:0:
396,264,198183,1,0,0:0:0:0:
208,101,198355,5,0,0:0:0:0:
146,357,198528,1,0,0:0:0:0:
135,17,198700,5,0,0:0:0:0:
240,291,198873,1,0,0:0:0:0:
83,110,199045,6,0,B|62:161|90:244|103:257|103:257|72:232|72:232|83:271|73:312,1,262.500010013581
204,234,199735,1,0,0:0:0:0:
204,234,199821,1,0,0:0:0:0:
232,191,199907,6,0,L|241:122,1,50
333,321,200080,6,0,B|297:313|297:313|281:317|281:317|196:318,1,110.000003356934
127,343,200338,1,0,0:0:0:0:
127,343,200424,1,0,0:0:0:0:
329,226,200597,1,0,0:0:0:0:
94,175,200769,2,0,B|78:150|78:150|65:40,1,110.000003356934
147,12,201028,1,0,0:0:0:0:
147,12,201114,1,0,0:0:0:0:
0,237,201286,1,0,0:0:0:0:
179,110,201459,6,0,L|358:120,1,165.000005035401
424,72,201804,1,0,0:0:0:0:
360,209,201976,1,0,0:0:0:0:
436,330,202148,2,0,B|425:277|425:277|465:195,1,110.000003356934
499,142,202407,1,0,0:0:0:0:
499,142,202493,1,0,0:0:0:0:
512,306,202666,1,0,0:0:0:0:
136,268,202838,6,0,B|167:278|167:278|192:262|192:262|294:257,1,165.000005035401
366,218,203183,1,0,0:0:0:0:
172,171,203355,1,0,0:0:0:0:
244,358,203528,1,0,0:0:0:0:
27,290,203700,2,0,P|23:255|29:219,1,55.0000016784668
0,151,203873,1,0,0:0:0:0:
207,161,204045,6,0,B|256:156|256:156|291:115|291:115|376:107,1,165.000005035401
435,153,204390,1,0,0:0:0:0:
212,64,204562,2,0,L|205:-3,2,55.0000016784668
337,205,204907,1,0,0:0:0:0:
266,329,205080,1,0,0:0:0:0:
239,334,205166,1,0,0:0:0:0:
212,339,205252,2,0,B|122:295|122:295|195:305,1,165.000005035401
350,366,205597,5,0,0:0:0:0:
436,300,205769,2,0,L|444:356,2,55.0000016784668
276,152,206114,2,0,L|266:102,1,50
400,81,206286,2,0,L|404:26,2,55.0000016784668
266,276,206631,1,0,0:0:0:0:
239,271,206717,1,0,0:0:0:0:
211,267,206804,1,0,0:0:0:0:
183,263,206890,1,0,0:0:0:0:
156,257,206976,6,0,L|138:200,2,55.0000016784668
42,283,207321,1,0,0:0:0:0:
42,283,207407,1,0,0:0:0:0:
42,283,207493,1,0,0:0:0:0:
102,113,207666,1,0,0:0:0:0:
134,123,207752,1,0,0:0:0:0:
163,106,207838,1,0,0:0:0:0:
194,118,207924,1,0,0:0:0:0:
225,104,208011,1,0,0:0:0:0:
255,116,208097,1,0,0:0:0:0:
284,100,208183,1,0,0:0:0:0:
319,278,208355,6,0,L|322:327,1,50
388,111,208528,2,0,P|386:75|368:31,1,55.0000016784668
440,224,208700,1,0,0:0:0:0:
315,191,208873,6,0,L|254:177,1,55.0000016784668
470,302,209045,2,0,P|494:290|512:269,1,55.0000016784668
225,286,209217,2,0,B|112:306,1,110.000003356934
26,316,209476,1,0,0:0:0:0:
9,276,209562,2,0,L|13:195,1,55.0000016784668
158,121,209735,5,0,0:0:0:0:
114,144,209821,1,0,0:0:0:0:
68,124,209907,1,0,0:0:0:0:
46,79,209993,1,0,0:0:0:0:
63,32,210080,1,0,0:0:0:0:
107,11,210166,1,0,0:0:0:0:
151,31,210252,2,0,L|213:29,1,55.0000016784668
246,51,210424,6,0,P|296:57|345:42,1,82.5000025177003
168,267,210683,6,0,P|138:209|106:192,1,82.5000025177003
451,197,210942,6,0,P|425:229|409:267,1,82.5000025177003
326,331,211114,6,0,L|340:397,2,55.0000016784668
478,84,211459,2,0,L|423:76,1,55.0000016784668
103,236,211631,2,0,B|-2:270|-2:270|37:271,2,150.000005722046
172,378,212148,6,0,L|202:308,2,55.0000016784668
142,108,212493,2,0,L|128:56,1,55.0000016784668
368,256,212666,2,0,B|481:236|481:236|450:274,2,150.000005722046
296,72,213183,6,0,P|303:39|305:17,1,55.0000016784668
388,133,213355,2,0,P|414:132|448:138,1,55.0000016784668
274,190,213528,2,0,B|247:193|247:193|235:220|203:209|162:252,1,110.000003356934
103,69,213873,5,0,0:0:0:0:
175,314,214045,1,0,0:0:0:0:
145,308,214131,1,0,0:0:0:0:
120,286,214217,1,0,0:0:0:0:
303,298,214390,5,0,0:0:0:0:
48,222,214562,1,0,0:0:0:0:
68,200,214648,1,0,0:0:0:0:
99,188,214734,1,0,0:0:0:0:
21,364,214907,5,0,0:0:0:0:
200,144,215080,1,0,0:0:0:0:
209,172,215166,1,0,0:0:0:0:
203,205,215252,1,0,0:0:0:0:
293,55,215424,5,0,0:0:0:0:
363,167,215597,1,0,0:0:0:0:
395,172,215683,1,0,0:0:0:0:
427,177,215769,1,0,0:0:0:0:
459,183,215855,1,0,0:0:0:0:
495,165,215942,6,0,B|487:202|487:202|483:275,1,110.000003356934
384,250,216200,6,0,B|385:328|385:328|399:356,1,110.000003356934
295,265,216459,6,0,L|285:211,1,55.0000016784668
216,314,216631,6,0,L|43:303,1,165.000005035401
0,363,216976,1,0,0:0:0:0:
118,216,217148,2,0,L|108:102,1,110.000003356934
125,24,217407,1,0,0:0:0:0:
158,52,217493,2,0,L|49:65,2,110.000003356934
365,215,217924,1,0,0:0:0:0:
408,202,218011,6,0,L|418:93,1,110.000003356934
480,323,218355,1,0,0:0:0:0:
265,239,218528,1,0,0:0:0:0:
512,180,218700,1,0,0:0:0:0:
334,327,218873,2,0,P|332:354|338:381,2,55.0000016784668
418,93,219217,1,0,0:0:0:0:
200,10,219390,5,0,0:0:0:0:
200,10,219476,1,0,0:0:0:0:
200,10,219562,1,0,0:0:0:0:
391,155,219735,5,0,0:0:0:0:
391,155,219821,1,0,0:0:0:0:
391,155,219907,1,0,0:0:0:0:
90,246,220080,5,0,0:0:0:0:
90,246,220166,1,0,0:0:0:0:
90,246,220252,1,0,0:0:0:0:
252,343,220424,1,0,0:0:0:0:
252,343,220597,6,0,B|265:308|265:308|250:282|250:282|244:156,1,183.333338928223
249,76,220942,1,0,0:0:0:0:
345,231,221114,2,0,B|381:237|381:237|465:218,1,110.000003356934
102,375,221459,6,0,L|65:363,2,36.6666677856446
94,310,221631,2,0,L|47:263,2,36.6666677856446
28,172,221976,1,0,0:0:0:0:
43,150,222062,1,0,0:0:0:0:
59,127,222148,6,0,L|63:57,2,55.0000016784668
227,239,222493,2,0,L|243:351,1,110.000003356934
149,108,222838,1,0,0:0:0:0:
311,171,223011,1,0,0:0:0:0:
136,289,223183,2,0,L|21:276,2,110.000003356934
431,179,223700,2,0,P|428:144|426:124,1,55.0000016784668
245,153,223873,6,0,P|236:188|246:242,1,73.3333355712891
286,56,224102,6,0,P|260:31|227:16,1,73.3333355712891
346,137,224332,6,0,P|380:127|410:106,1,73.3333355712891
152,123,224562,1,0,0:0:0:0:
152,123,224677,2,0,L|-27:104,1,146.666671142578
15,145,224993,1,0,0:0:0:0:
23,182,225080,1,0,0:0:0:0:
28,219,225166,1,0,0:0:0:0:
36,256,225252,1,0,0:0:0:0:
32,362,225424,2,0,P|125:364|140:344,1,110.000003356934
305,283,225712,5,0,0:0:0:0:
261,382,225827,5,0,0:0:0:0:
370,362,225942,6,0,P|420:375|493:352,1,110.000003356934
187,278,226286,1,0,0:0:0:0:
420,286,226459,2,0,P|409:232|370:195,1,110.000003356934
417,57,226804,1,0,0:0:0:0:
441,49,226890,1,0,0:0:0:0:
467,42,226976,6,0,L|519:62,1,55.0000016784668
472,171,227148,2,0,B|439:149|439:149|405:161|405:161|366:166,1,110.000003356934
246,127,227407,1,0,0:0:0:0:
236,100,227493,2,0,L|246:43,1,55.0000016784668
103,55,227666,6,0,L|116:183,1,110.000003356934
124,245,227924,1,0,0:0:0:0:
80,316,228011,6,0,L|322:276,1,220.000006713867
297,280,228442,1,0,0:0:0:0:
297,280,228528,1,0,0:0:0:0:
417,135,228700,5,0,0:0:0:0:
415,140,228786,1,0,0:0:0:0:
413,145,228873,1,0,0:0:0:0:
259,90,229045,5,0,0:0:0:0:
260,100,229131,1,0,0:0:0:0:
261,110,229217,1,0,0:0:0:0:
420,288,229390,5,0,0:0:0:0:
435,280,229476,1,0,0:0:0:0:
450,272,229562,1,0,0:0:0:0:
180,236,229735,5,0,0:0:0:0:
183,246,229821,1,0,0:0:0:0:
187,255,229907,1,0,0:0:0:0:
145,149,230080,5,0,0:0:0:0:
118,143,230166,1,0,0:0:0:0:
90,139,230252,1,0,0:0:0:0:
63,134,230338,1,0,0:0:0:0:
35,129,230424,6,0,P|28:158|10:197,1,55.0000016784668
239,141,230597,2,0,P|231:111|203:71,1,55.0000016784668
108,30,230769,1,0,0:0:0:0:
476,120,230942,6,0,P|495:98|502:70,1,55.0000016784668
302,219,231114,2,0,P|266:230|262:256,1,55.0000016784668
459,245,231286,2,0,P|487:259|521:266,1,55.0000016784668
326,102,231459,2,0,L|314:48,1,55.0000016784668
367,318,231631,5,0,0:0:0:0:
281,131,233183,6,0,P|234:107|242:252,1,300
306,209,234390,1,0,0:0:0:0:
368,270,234562,2,0,L|370:319,1,50
478,165,234907,2,0,P|430:156|387:180,2,100
280,48,235942,6,0,P|308:88|301:137,1,100
190,25,236459,1,0,0:0:0:0:
209,185,236976,2,0,L|202:252,1,50
224,306,237321,2,0,P|155:254|90:279,1,150
310,369,238011,2,0,L|318:306,1,50
397,276,238355,2,0,L|405:344,1,50
433,112,238700,6,0,P|372:105|308:39,2,150
509,73,239907,1,0,0:0:0:0:
505,158,240080,2,0,L|517:228,1,50
423,338,240424,2,0,L|434:239,2,100
179,260,241459,6,0,P|221:286|271:287,1,100
89,314,241976,2,0,P|29:297|70:249,1,150
232,149,242838,1,0,0:0:0:0:
46,103,243011,2,0,P|92:122|141:116,1,100
316,50,243528,2,0,P|267:44|218:56,1,100
494,69,244217,6,0,P|447:90|414:134,1,100
358,19,244735,1,0,0:0:0:0:
237,204,244907,2,0,P|332:199|392:235,1,150
413,300,245597,1,0,0:0:0:0:
180,280,245942,2,0,P|158:261|133:193,2,100
337,343,246976,2,0,P|262:347|184:384,1,150
38,170,248183,1,0,0:0:0:0:
65,254,248355,6,0,P|66:274|73:317,1,50
161,264,248700,2,0,P|180:275|227:284,1,50
179,182,249045,2,0,P|202:166|218:145,1,50
114,114,249390,2,0,P|106:84|97:61,1,50
331,35,249735,6,0,P|259:17|191:46,2,150
434,84,251114,2,0,L|422:15,1,50
351,128,251459,2,0,L|327:236,2,100
486,311,252493,6,0,P|488:252|461:222,1,100
377,216,253011,1,0,0:0:0:0:
331,287,253183,2,0,L|280:311,1,50
207,274,253528,1,0,0:0:0:0:
133,316,253700,2,0,P|55:283|123:235,1,200
189,94,254562,5,0,0:0:0:0:
253,220,254735,1,0,0:0:0:0:
346,148,254907,2,0,L|348:97,1,50
103,233,255252,6,0,L|120:331,1,100
250,245,255597,2,0,L|353:226,1,100
139,117,255942,2,0,L|31:98,1,100
40,99,256286,1,0,0:0:0:0:
274,332,256459,6,0,P|291:261|250:201,1,150
246,104,256804,1,0,0:0:0:0:
180,287,256976,1,0,0:0:0:0:
386,251,257148,1,0,0:0:0:0:
482,69,257321,2,0,P|477:125|505:184,1,100
510,260,257580,1,0,0:0:0:0:
511,261,257666,1,0,0:0:0:0:
349,115,257838,1,0,0:0:0:0:
235,338,258011,6,0,L|353:298,1,100
415,350,258355,1,0,0:0:0:0:
143,384,258528,2,0,L|102:269,1,100
0,318,258873,1,0,0:0:0:0:
110,204,259045,1,0,0:0:0:0:
215,236,259217,6,0,B|232:154|190:142|205:46,1,150
264,20,259562,1,0,0:0:0:0:
327,214,259735,2,0,B|336:253|310:296|310:296|323:325|323:325|312:380,1,150
110,204,260080,1,0,0:0:0:0:
294,128,260252,1,0,0:0:0:0:
323,132,260338,1,0,0:0:0:0:
353,136,260424,1,0,0:0:0:0:
383,140,260510,1,0,0:0:0:0:
412,144,260596,1,0,0:0:0:0:
442,148,260683,1,0,0:0:0:0:
479,177,260769,6,0,L|463:75,1,100
368,19,261114,1,0,0:0:0:0:
347,254,261286,1,0,0:0:0:0:
239,216,261459,2,0,L|135:206,1,100
139,206,261804,1,0,0:0:0:0:
407,334,261976,5,0,0:0:0:0:
407,334,262321,1,0,0:0:0:0:
430,217,262493,1,0,0:0:0:0:
512,298,262666,1,0,0:0:0:0:
289,365,262838,2,0,L|177:348,1,100
165,346,263097,1,0,0:0:0:0:
140,343,263183,1,0,0:0:0:0:
43,384,263355,1,0,0:0:0:0:
206,234,263528,6,0,P|202:159|128:143,1,150
62,202,263873,1,0,0:0:0:0:
317,177,264045,2,0,L|336:45,1,100
446,214,264390,1,0,0:0:0:0:
359,381,264562,1,0,0:0:0:0:
287,316,264735,6,0,B|244:208|387:171|384:48|247:53|274:138|274:138|301:211|482:186|475:309|348:352|343:271|349:256,1,640
443,96,266286,5,0,0:0:0:0:
171,200,266459,1,0,0:0:0:0:
349,257,266631,1,0,0:0:0:0:
277,70,266804,5,0,0:0:0:0:
232,357,266976,1,0,0:0:0:0:
503,253,267148,1,0,0:0:0:0:
443,96,267321,5,0,0:0:0:0:
398,384,267493,1,0,0:0:0:0:
171,200,267666,1,0,0:0:0:0:
503,253,267838,5,0,0:0:0:0:
232,357,268010,1,0,0:0:0:0:
277,70,268183,1,0,0:0:0:0:
357,280,268355,5,0,0:0:0:0:
164,253,268528,2,0,L|149:215,1,40
397,86,268700,2,0,L|389:144,1,40
297,180,268873,1,0,0:0:0:0:
268,182,268959,1,0,0:0:0:0:
242,176,269045,5,0,0:0:0:0:
184,306,269217,1,0,0:0:0:0:
461,283,269390,5,0,0:0:0:0:
401,122,269562,1,0,0:0:0:0:
17,384,269735,5,0,0:0:0:0:
75,36,269907,1,0,0:0:0:0:
349,293,270080,5,0,0:0:0:0:
296,146,271631,6,0,L|287:201,1,50
237,290,271804,6,0,L|78:308,1,150
22,278,272149,1,0,0:0:0:0:
190,216,272322,1,0,0:0:0:0:
339,324,272494,1,0,0:0:0:0:
164,383,272666,1,0,0:0:0:0:
468,279,272839,1,0,0:0:0:0:
331,210,273011,1,0,0:0:0:0:
331,210,273097,1,0,0:0:0:0:
314,167,273184,6,0,L|473:197,1,150
501,128,273528,1,0,0:0:0:0:
337,53,273701,1,0,0:0:0:0:
235,215,273873,1,0,0:0:0:0:
75,155,274046,1,0,0:0:0:0:
94,144,274132,1,0,0:0:0:0:
117,132,274218,2,0,L|132:14,1,100
17,326,274563,5,0,0:0:0:0:
175,283,274735,1,0,0:0:0:0:
182,306,274821,1,0,0:0:0:0:
188,328,274908,1,0,0:0:0:0:
299,384,275080,2,0,L|310:274,1,100
256,126,275425,1,0,0:0:0:0:
414,275,275597,2,0,L|399:206,1,50
279,140,275769,6,0,P|328:152|388:128,1,100
465,33,276028,2,0,L|457:86,1,50
494,186,276200,1,0,0:0:0:0:
479,205,276286,2,0,P|506:249|507:323,1,100
248,254,276546,1,0,0:0:0:0:
257,228,276632,5,0,0:0:0:0:
268,200,276717,1,0,0:0:0:0:
277,175,276804,1,0,0:0:0:0:
286,147,276890,1,0,0:0:0:0:
316,120,276976,2,0,L|185:121,1,100
6,291,277321,6,0,P|104:263|154:309,1,150
206,341,277666,1,0,0:0:0:0:
62,225,277839,2,0,L|66:103,1,100
177,31,278184,1,0,0:0:0:0:
226,236,278356,1,0,0:0:0:0:
323,166,278528,1,0,0:0:0:0:
323,166,278615,1,0,0:0:0:0:
358,191,278701,6,0,L|466:196,1,100
124,241,279046,2,0,L|2:252,1,100
403,306,279391,2,0,L|527:318,1,100
102,348,279735,2,0,L|-22:360,1,100
160,124,280080,5,0,0:0:0:0:
226,335,280253,1,0,0:0:0:0:
414,222,280425,1,0,0:0:0:0:
123,137,280598,5,0,0:0:0:0:
260,364,280770,1,0,0:0:0:0:
423,181,280942,1,0,0:0:0:0:
183,332,281115,5,0,0:0:0:0:
267,73,281286,2,0,P|343:103|227:181,1,300
229,183,281976,1,0,0:0:0:0:
499,95,282148,1,0,0:0:0:0:
459,215,282321,1,0,0:0:0:0:
456,234,282407,1,0,0:0:0:0:
454,254,282493,1,0,0:0:0:0:
452,274,282579,1,0,0:0:0:0:
449,294,282665,1,0,0:0:0:0:
447,314,282752,1,0,0:0:0:0:
444,336,282839,6,0,L|312:342,1,100
253,341,283097,1,0,0:0:0:0:
263,363,283184,1,0,0:0:0:0:
357,221,283356,1,0,0:0:0:0:
141,330,283528,1,0,0:0:0:0:
236,138,283701,2,0,L|241:260,1,100
240,237,284046,1,0,0:0:0:0:
99,159,284218,6,0,L|-5:163,1,100
35,66,284477,1,0,0:0:0:0:
35,66,284563,1,0,0:0:0:0:
147,236,284735,1,0,0:0:0:0:
206,33,284908,1,0,0:0:0:0:
398,194,285080,2,0,L|516:169,2,100
502,51,285597,5,0,0:0:0:0:
413,292,285770,1,0,0:0:0:0:
248,249,285942,6,0,P|240:229|239:194,1,50
304,113,286114,2,0,L|129:127,1,150
64,87,286459,2,0,L|85:163,1,50
79,344,286631,1,0,0:0:0:0:
323,300,286804,6,0,P|322:188|217:169,2,200
508,174,287666,1,0,0:0:0:0:
493,189,287752,1,0,0:0:0:0:
481,207,287838,1,0,0:0:0:0:
473,227,287924,1,0,0:0:0:0:
468,247,288010,1,0,0:0:0:0:
468,269,288097,1,0,0:0:0:0:
471,290,288183,1,0,0:0:0:0:
479,310,288269,1,0,0:0:0:0:
512,286,288356,6,0,L|494:395,1,100
275,337,288701,1,0,0:0:0:0:
391,317,288873,1,0,0:0:0:0:
161,384,289046,2,0,L|135:288,1,100
323,219,289391,1,0,0:0:0:0:
484,123,289563,6,0,L|513:21,1,100
275,98,289908,1,0,0:0:0:0:
387,150,290080,2,0,L|433:263,1,100
297,359,290425,2,0,P|285:317|313:252,1,100
155,153,290770,2,0,P|192:178|250:180,1,100
88,36,291115,5,0,0:0:0:0:
150,273,291287,1,0,0:0:0:0:
340,152,291460,2,0,L|330:53,1,100
487,214,291804,2,0,L|476:101,1,100
401,270,292149,1,0,0:0:0:0:
428,48,292322,5,0,0:0:0:0:
329,321,292494,1,0,0:0:0:0:
111,158,292666,1,0,0:0:0:0:
512,95,292839,5,0,0:0:0:0:
310,261,293011,1,0,0:0:0:0:
63,244,293184,5,0,0:0:0:0:
379,157,293356,2,0,P|433:225|392:339,1,200
379,373,293787,1,0,0:0:0:0:
334,357,293873,6,0,L|163:366,1,150
91,377,294218,1,0,0:0:0:0:
240,165,294391,1,0,0:0:0:0:
291,331,294563,1,0,0:0:0:0:
375,218,294735,2,0,P|379:158|357:101,1,100
125,295,295080,1,0,0:0:0:0:
69,184,295253,6,0,P|57:132|66:81,1,100
132,2,295511,1,0,0:0:0:0:
132,2,295597,1,0,0:0:0:0:
288,94,295770,1,0,0:0:0:0:
210,227,295942,2,0,L|218:351,1,100
292,364,296201,1,0,0:0:0:0:
292,364,296287,1,0,0:0:0:0:
86,320,296460,1,0,0:0:0:0:
306,257,296632,5,0,0:0:0:0:
114,191,296804,1,0,0:0:0:0:
380,85,296977,1,0,0:0:0:0:
59,273,297149,5,0,0:0:0:0:
281,162,297322,1,0,0:0:0:0:
38,59,297494,1,0,0:0:0:0:
404,197,297666,5,0,0:0:0:0:
0,210,297839,1,0,0:0:0:0:
148,105,298011,5,0,0:0:0:0:
321,314,298184,1,0,0:0:0:0:
277,19,298356,5,0,0:0:0:0:
173,364,298528,1,0,0:0:0:0:
279,131,298701,5,0,0:0:0:0:
160,271,298873,1,0,0:0:0:0:
133,257,298959,1,0,0:0:0:0:
111,236,299045,1,0,0:0:0:0:
98,210,299131,1,0,0:0:0:0:
94,180,299217,1,0,0:0:0:0:
100,151,299304,1,0,0:0:0:0:
110,122,299390,6,0,P|103:66|94:17,1,100
214,176,299735,1,0,0:0:0:0:
338,157,299907,2,0,P|346:102|360:49,1,100
453,223,300166,1,0,0:0:0:0:
425,251,300253,2,0,L|311:248,2,100
276,358,300683,1,0,0:0:0:0:
239,348,300770,6,0,P|233:294|229:239,1,100
238,149,301028,1,0,0:0:0:0:
226,132,301115,1,0,0:0:0:0:
7,252,301287,1,0,0:0:0:0:
20,265,301373,1,0,0:0:0:0:
33,277,301460,2,0,L|154:263,1,100
229,248,301718,1,0,0:0:0:0:
229,248,301804,1,0,0:0:0:0:
123,83,301977,1,0,0:0:0:0:
133,363,302148,5,0,0:0:0:0:
311,214,302322,1,0,0:0:0:0:
292,184,302408,1,0,0:0:0:0:
261,167,302494,1,0,0:0:0:0:
160,351,302666,5,0,0:0:0:0:
403,347,302839,1,0,0:0:0:0:
433,329,302925,1,0,0:0:0:0:
453,300,303011,1,0,0:0:0:0:
462,266,303097,1,0,0:0:0:0:
461,230,303184,1,0,0:0:0:0:
118,130,303356,6,0,B|97:164|124:199|124:199|138:180|138:180|160:194|160:194|182:188|182:188|256:212|309:179|309:179|299:209|268:243,1,320
377,47,304217,6,0,B|411:-8|411:-8|422:190|422:190|402:232,1,300
425,328,304907,6,0,B|345:359|287:275|287:275|262:307|259:351|259:351|155:324|155:324|89:312|40:335|40:335|118:253|193:305|211:399|211:399|210:253|286:180|102:149|154:49|214:39|249:49|248:128|209:140,1,1120
208,207,307666,6,0,P|101:91|316:83,1,480
365,197,308873,6,0,B|441:113|546:168|591:113|574:57|565:-9|492:2|423:11|384:74|388:144|563:197|578:299|554:357|480:386|401:379|362:358|381:315,1,720
384,96,311804,5,0,0:0:0:0:
64,160,311976,1,0,0:0:0:0:
416,256,312148,1,0,0:0:0:0:
55,325,312321,1,0,0:0:0:0:
234,205,312493,5,0,0:0:0:0:
245,234,312666,1,0,0:0:0:0:
32,32,312838,5,0,0:0:0:0:
383,138,313010,1,0,0:0:0:0:
0,224,313183,1,0,0:0:0:0:
352,320,313355,1,0,0:0:0:0:
352,320,313700,1,0,0:0:0:0:
363,286,313786,1,0,0:0:0:0:
377,252,313873,1,0,0:0:0:0:
390,218,313959,1,0,0:0:0:0:
404,185,314045,1,0,0:0:0:0:
418,152,314131,1,0,0:0:0:0:
434,120,314217,6,0,L|459:117,2,16.6666666666667
448,87,314304,6,0,L|437:65,2,16.6666666666667
464,50,314390,6,0,L|511:17,1,50
274,73,314562,5,0,0:0:0:0:
480,246,314735,1,0,0:0:0:0:
206,302,314907,5,0,0:0:0:0:
386,24,315080,1,0,0:0:0:0:
152,54,315252,5,0,0:0:0:0:
347,273,315424,1,0,0:0:0:0:
71,330,315597,1,0,0:0:0:0:
460,288,315769,6,0,P|447:219|424:191,1,100
460,288,316114,1,0,0:0:0:0:
179,284,316286,2,0,P|177:325|179:396,1,100
67,162,316631,2,0,B|105:184|105:184|269:153,1,200
315,71,317148,1,0,0:0:0:0:
370,211,317321,5,0,0:0:0:0:
281,330,317493,1,0,0:0:0:0:
222,98,317666,1,0,0:0:0:0:
464,177,317838,2,0,P|464:233|463:279,1,100
471,357,318097,1,0,0:0:0:0:
471,357,318183,1,0,0:0:0:0:
359,295,318355,1,0,0:0:0:0:
189,340,318528,2,0,L|199:272,1,50
246,192,318700,5,0,0:0:0:0:
294,369,318873,1,0,0:0:0:0:
347,204,319045,2,0,L|329:142,1,50
338,70,319217,1,0,0:0:0:0:
117,200,319390,1,0,0:0:0:0:
334,301,319562,1,0,0:0:0:0:
358,294,319648,1,0,0:0:0:0:
382,287,319735,1,0,0:0:0:0:
51,140,319907,1,0,0:0:0:0:
27,132,319993,1,0,0:0:0:0:
3,124,320080,6,0,L|39:218,1,100
272,137,320424,2,0,L|162:153,1,100
391,155,320769,2,0,L|404:102,2,50
286,303,321114,2,0,L|312:364,1,50
149,227,321286,6,0,L|129:34,1,150
25,33,321631,2,0,L|47:92,1,50
217,40,321804,2,0,P|280:6|355:48,1,150
426,101,322148,1,0,0:0:0:0:
330,225,322321,1,0,0:0:0:0:
151,250,322493,1,0,0:0:0:0:
251,130,322666,1,0,0:0:0:0:
375,229,322838,6,0,P|390:280|418:350,1,100
491,337,323097,1,0,0:0:0:0:
491,337,323183,1,0,0:0:0:0:
218,274,323355,2,0,P|144:270|88:317,1,150
0,350,323700,1,0,0:0:0:0:
185,372,323873,1,0,0:0:0:0:
379,281,324045,6,0,L|357:110,1,150
266,150,324390,2,0,L|206:97,1,50
315,52,324562,2,0,L|319:-14,1,50
434,33,324735,2,0,L|425:101,1,50
124,138,324907,2,0,L|0:159,1,100
213,42,325166,2,0,L|142:32,1,50
185,196,325338,1,0,0:0:0:0:
209,210,325424,1,0,0:0:0:0:
239,212,325511,1,0,0:0:0:0:
266,199,325597,6,0,P|300:182|383:189,1,100
119,275,325942,2,0,P|73:270|-7:275,1,100
226,383,326286,2,0,L|210:257,1,100
231,118,326631,1,0,0:0:0:0:
451,254,326804,6,0,P|474:179|427:111,1,150
440,120,327148,1,0,0:0:0:0:
258,239,327321,2,0,L|253:348,1,100
113,174,327666,2,0,L|75:67,1,100
0,311,328011,2,0,P|61:289|115:293,1,100
252,32,328355,6,0,L|236:152,1,100
270,211,328614,1,0,0:0:0:0:
270,211,328700,1,0,0:0:0:0:
425,116,328873,2,0,L|411:215,1,100
381,20,329217,1,0,0:0:0:0:
512,217,329390,1,0,0:0:0:0:
309,305,329562,6,0,P|226:302|121:296,1,150
64,335,329907,1,0,0:0:0:0:
397,377,330080,2,0,P|393:299|389:218,1,150
420,149,330424,1,0,0:0:0:0:
234,173,330597,1,0,0:0:0:0:
221,145,330683,1,0,0:0:0:0:
221,115,330769,1,0,0:0:0:0:
55,230,330942,1,0,0:0:0:0:
27,220,331028,1,0,0:0:0:0:
0,210,331114,6,0,P|59:201|110:207,1,100
446,96,331459,2,0,P|402:118|326:131,1,100
159,292,331804,1,0,0:0:0:0:
170,261,331890,1,0,0:0:0:0:
191,240,331976,1,0,0:0:0:0:
292,268,332148,1,0,0:0:0:0:
139,134,332321,6,0,P|69:90|50:24,1,150
49,28,332666,1,0,0:0:0:0:
314,71,332838,1,0,0:0:0:0:
372,59,332924,1,0,0:0:0:0:
431,48,333011,1,0,0:0:0:0:
303,237,333183,5,0,0:0:0:0:
169,198,333355,1,0,0:0:0:0:
398,170,333528,1,0,0:0:0:0:
359,357,333700,1,0,0:0:0:0:
265,116,333873,5,0,0:0:0:0:
185,338,334045,1,0,0:0:0:0:
185,338,334131,1,0,0:0:0:0:
185,338,334217,1,0,0:0:0:0:
323,276,334390,1,0,0:0:0:0:
53,204,334562,1,0,0:0:0:0:
90,200,334648,1,0,0:0:0:0:
127,196,334734,1,0,0:0:0:0:
164,192,334820,1,0,0:0:0:0:
202,188,334906,1,0,0:0:0:0:
354,111,335080,6,0,B|384:128|389:211|320:240|320:240|234:258|172:313|172:313|192:221|104:197|74:119|129:67|206:81|218:120,1,640
370,35,336631,5,0,0:0:0:0:
14,185,336804,1,0,0:0:0:0:
403,264,336976,1,0,0:0:0:0:
60,55,337148,5,0,0:0:0:0:
440,146,337321,1,0,0:0:0:0:
94,283,337493,1,0,0:0:0:0:
479,19,337666,5,0,0:0:0:0:
139,163,337838,1,0,0:0:0:0:
512,241,338011,1,0,0:0:0:0:
155,21,338183,5,0,0:0:0:0:
390,269,338355,1,0,0:0:0:0:
9,344,338528,1,0,0:0:0:0:
377,14,338700,5,0,0:0:0:0:
139,319,338873,1,0,0:0:0:0:
271,46,339045,1,0,0:0:0:0:
284,364,339217,1,0,0:0:0:0:
256,192,339304,12,0,341976,0:0:0:0:
