osu file format v14

[General]
AudioFilename: audio.mp3
AudioLeadIn: 0
PreviewTime: 139014
Countdown: 0
SampleSet: Soft
StackLeniency: 0.7
Mode: 0
LetterboxInBreaks: 0
WidescreenStoryboard: 1

[Editor]
DistanceSpacing: 1.4
BeatDivisor: 6
GridSize: 32
TimelineZoom: 1.4

[Metadata]
Title:Slow Light Bird
TitleUnicode:スローライトバード
Artist:Annabel
ArtistUnicode:Annabel
Creator:SMOKELIND
Version:Pepekcz x SMOKELIND's Hard
Source:
Tags:Japanese Jazz Pop JPop J-Pop glass neko pepekcz Featured Artist FA Mappers' Guild MG MPG -Aqua Laplus- La+-
BeatmapID:3422374
BeatmapSetID:1647013

[Difficulty]
HPDrainRate:5
CircleSize:3.6
OverallDifficulty:7
ApproachRate:8
SliderMultiplier:1.4
SliderTickRate:1

[Events]
//Background and Video events
0,0,"87320681_p0.jpg",0,0
//Break Periods
//Storyboard Layer 0 (Background)
//Storyboard Layer 1 (Fail)
//Storyboard Layer 2 (Pass)
//Storyboard Layer 3 (Foreground)
//Storyboard Layer 4 (Overlay)
//Storyboard Sound Samples

[TimingPoints]
348,333.333333333333,4,2,77,47,1,0
21681,-125,4,2,77,47,0,0
51014,-200,4,2,77,47,0,0
53681,-125,4,2,77,47,0,0
64347,-111.111111111111,4,2,77,57,0,0
75014,-100,4,2,77,67,0,0
96347,-100,4,2,77,67,0,0
117681,-100,4,2,77,67,0,0
136347,-200,4,2,77,67,0,0
139014,-100,4,2,77,67,0,0
140347,-100,4,2,77,87,0,0
183097,-100,4,2,77,47,0,0

[Colours]
Combo1 : 234,234,234
Combo2 : 255,235,193

[HitObjects]
456,304,21681,6,0,L|440:364,2,56,2|0|2,0:0|0:0|0:0,0:0:0:0:
496,236,22181,2,0,P|504:172|456:132,1,112
336,20,22903,5,2,0:0:0:0:
336,20,23125,2,0,B|268:80|308:172|360:132|412:224|344:288,1,298.666666666667,2|0,0:0|0:0,0:0:0:0:
204,340,24347,6,0,L|189:285,2,56,2|0|2,0:0|0:0|0:0,0:0:0:0:
132,368,24847,2,0,P|119:313|106:258,1,112
84,104,25514,6,0,P|56:92|24:96,2,56,2|2|0,0:0|0:0|0:0,0:0:0:0:
182,139,26070,2,0,P|277:115|382:91,1,205.333333333333,2|0,0:0|0:0,0:0:0:0:
456,232,27014,6,0,L|511:247,2,56,2|0|2,0:0|0:0|0:0,0:0:0:0:
388,196,27514,2,0,P|334:212|280:227,1,112
140,300,28181,5,2,0:0:0:0:
140,300,28347,2,0,P|92:292|80:200,1,140,2|2,0:0|0:0,0:0:0:0:
116,148,28931,2,0,P|169:131|222:114,1,112,2|2,0:0|0:0,0:0:0:0:
348,44,29570,5,2,0:0:0:0:
356,36,29681,2,0,P|420:32|452:80,1,112,2|2,0:0|0:0,0:0:0:0:
492,216,30347,2,0,L|432:232,1,56,2|2,0:0|0:0,0:0:0:0:
364,256,30681,2,0,L|309:241,1,56,2|0,0:0|0:0,0:0:0:0:
248,196,31014,6,0,B|192:184|204:240|144:228,1,112
76,192,31514,1,0,0:0:0:0:
0,56,31847,2,0,P|53:40|107:25,1,112,0|2,0:0|0:0,0:0:0:0:
188,36,32347,5,2,0:0:0:0:
188,36,32514,1,0,0:0:0:0:
244,92,32681,2,0,P|272:144|236:200,1,112,2|0,0:0|0:0,0:0:0:0:
140,300,33347,2,0,L|156:364,1,56,0|2,0:0|0:0,0:0:0:0:
232,368,33681,5,0,0:0:0:0:
232,368,33847,1,0,0:0:0:0:
300,332,34014,2,0,B|356:320|344:376|404:364,1,112,2|0,0:0|0:0,0:0:0:0:
504,248,34681,2,0,L|492:192,1,56,0|2,0:0|0:0,0:0:0:0:
472,120,35014,5,0,0:0:0:0:
472,120,35181,1,0,0:0:0:0:
400,80,35347,2,0,P|345:91|290:103,1,112,2|0,0:0|0:0,0:0:0:0:
144,44,36014,2,0,P|116:32|80:32,1,56,0|2,0:0|0:0,0:0:0:0:
24,68,36347,5,0,0:0:0:0:
24,68,36514,1,0,0:0:0:0:
0,144,36681,2,0,P|13:198|26:252,1,112,2|0,0:0|0:0,0:0:0:0:
136,364,37347,2,0,P|168:364|196:344,1,56,0|2,0:0|0:0,0:0:0:0:
236,288,37681,5,0,0:0:0:0:
236,288,37847,1,0,0:0:0:0:
288,228,38014,2,0,B|344:216|332:272|392:260,1,112,2|0,0:0|0:0,0:0:0:0:
496,144,38681,2,0,P|492:104|480:88,1,56,0|2,0:0|0:0,0:0:0:0:
424,44,39014,5,0,0:0:0:0:
424,44,39181,1,0,0:0:0:0:
348,20,39347,2,0,B|292:8|304:64|244:52,1,112,2|2,0:0|0:0,0:0:0:0:
172,32,39847,1,0,0:0:0:0:
172,32,40014,2,0,L|156:92,1,56,2|0,0:0|0:0,0:0:0:0:
192,156,40347,5,2,0:0:0:0:
108,288,40681,1,2,0:0:0:0:
108,288,40847,2,0,P|52:296|12:252,1,112,0|2,0:0|0:0,0:0:0:0:
0,144,41431,6,0,P|122:112|246:85,1,252,2|0,0:0|0:0,0:0:0:0:
308,36,42347,2,0,P|337:43|372:52,1,56
432,16,42681,2,0,P|461:23|496:32,1,56
512,108,43014,5,2,0:3:0:0:
512,108,43181,1,0,0:0:0:0:
488,184,43347,2,0,P|474:238|460:292,1,112,0|2,0:0|0:3,0:0:0:0:
320,364,44014,2,0,P|288:364|264:348,1,56
216,300,44347,5,2,0:3:0:0:
216,300,44514,1,0,0:0:0:0:
148,260,44681,2,0,B|92:248|104:304|44:292,1,112,0|2,0:0|0:3,0:0:0:0:
12,140,45347,2,0,L|24:84,1,56
80,28,45681,5,2,0:3:0:0:
80,28,45847,1,0,0:0:0:0:
156,16,46014,2,0,P|216:27|280:40,1,112,0|2,0:0|0:3,0:0:0:0:
352,168,46681,2,0,L|340:222,1,56
324,304,47014,5,2,0:3:0:0:
324,304,47181,1,0,0:0:0:0:
372,364,47347,2,0,P|424:372|476:332,1,112,0|2,0:0|0:3,0:0:0:0:
508,188,48014,2,0,L|496:133,1,56
456,64,48347,5,2,0:3:0:0:
456,64,48514,1,0,0:0:0:0:
384,28,48681,2,0,B|328:16|340:72|280:60,1,112,0|2,0:0|0:3,0:0:0:0:
128,28,49347,2,0,P|92:28|64:40,1,56
20,92,49681,5,2,0:3:0:0:
20,92,49847,1,0,0:0:0:0:
12,172,50014,2,0,P|23:226|33:281,1,112,0|2,0:0|0:3,0:0:0:0:
68,352,50514,2,0,L|132:336,1,56
200,260,50847,5,0,0:0:0:0:
200,260,51014,2,0,B|280:176|400:256|308:348|424:392|524:384|544:316|544:248|508:192|436:208,1,525,6|0,3:2|0:0,0:0:0:0:
372,172,53681,5,2,0:3:0:0:
372,172,53847,1,0,0:0:0:0:
416,108,54014,1,0,0:0:0:0:
360,52,54181,2,0,P|305:41|249:31,1,112
96,52,54847,2,0,L|112:112,1,56,2|2,0:0|0:3,0:0:0:0:
124,184,55181,6,0,P|168:216|232:192,1,112
276,148,55681,1,0,0:0:0:0:
276,148,55847,2,0,P|319:116|372:128,1,112
436,176,56347,5,2,0:3:0:0:
436,176,56514,1,0,0:0:0:0:
476,244,56681,1,0,0:0:0:0:
428,304,56847,2,0,B|372:292|384:348|324:336,1,112
176,304,57514,5,2,0:0:0:0:
176,304,57681,2,0,L|120:320,1,56,2|2,0:3|0:0,0:0:0:0:
48,348,58014,2,0,P|20:312|36:240,1,112,2|0,0:0|0:0,0:0:0:0:
80,192,58514,1,0,0:0:0:0:
80,192,58681,2,0,L|64:132,1,56
44,64,59014,5,2,0:3:0:0:
44,64,59181,1,0,0:0:0:0:
108,16,59347,1,0,0:0:0:0:
172,60,59514,2,0,P|226:70|281:81,1,112
432,36,60181,5,2,0:0:0:0:
432,36,60347,2,0,P|444:92|456:152,1,112,2|0,0:3|0:0,0:0:0:0:
488,216,60847,1,2,0:0:0:0:
444,280,61014,1,2,0:0:0:0:
444,280,61181,2,0,B|388:292|400:236|340:248,1,112,2|0,0:0|0:0,0:0:0:0:
264,264,61681,6,0,P|252:236|256:204,1,56,2|0,0:3|0:0,0:0:0:0:
296,144,62014,2,0,P|308:116|304:84,1,56,2|0,0:0|0:0,0:0:0:0:
248,36,62347,2,0,P|200:12|144:20,1,112,2|2,0:0|0:0,0:0:0:0:
72,56,62847,5,0,0:0:0:0:
72,56,63014,2,0,L|12:40,2,56,2|0|0,0:3|0:0|0:0,0:0:0:0:
132,104,63514,2,0,L|192:88,2,56,2|0|0,0:0|0:0|0:0,0:0:0:0:
68,152,64014,2,0,L|74:179,3,28,2|0|0|0,0:0|0:0|0:0|0:0,0:0:0:0:
68,224,64347,6,0,L|86:284,1,62.9999980773926,0|0,1:0|0:0,0:0:0:0:
124,364,64681,1,0,0:0:0:0:
124,364,64847,2,0,P|160:328|236:336,1,125.999996154785,0|0,1:0|0:0,0:0:0:0:
404,356,65514,6,0,L|424:292,1,62.9999980773926,2|0,0:0|0:0,0:0:0:0:
428,252,65764,2,0,P|441:206|455:161,1,94.499997116089,2|0,0:0|0:0,0:0:0:0:
484,80,66181,1,0,0:0:0:0:
484,80,66347,2,0,P|440:40|364:56,1,125.999996154785
228,138,67014,5,0,1:0:0:0:
216,132,67097,1,0,0:0:0:0:
203,125,67181,1,0,0:0:0:0:
136,68,67347,1,0,0:0:0:0:
136,68,67514,2,0,P|76:82|12:100,1,125.999996154785,0|0,1:0|0:0,0:0:0:0:
4,188,68014,2,0,L|20:248,1,62.9999980773926,0|2,0:0|0:0,0:0:0:0:
52,332,68347,5,2,0:0:0:0:
52,332,68514,1,2,0:0:0:0:
132,292,68681,2,0,B|200:280|176:344|244:332,1,125.999996154785,2|0,0:0|0:0,0:0:0:0:
308,272,69181,1,0,0:0:0:0:
324,280,69264,1,0,0:0:0:0:
340,288,69347,1,0,0:0:0:0:
420,324,69514,5,0,1:0:0:0:
420,324,69681,1,0,1:0:0:0:
476,256,69847,2,0,L|460:192,1,62.9999980773926
432,112,70181,2,0,B|364:100|388:164|320:152,1,125.999996154785,0|0,1:0|0:0,0:0:0:0:
236,132,70681,2,0,L|220:193,1,62.9999980773926,0|2,0:0|0:0,0:0:0:0:
192,276,71014,6,0,P|152:296|76:248,1,125.999996154785,2|0,0:0|0:0,0:0:0:0:
28,192,71514,1,2,0:0:0:0:
60,108,71681,1,2,0:0:0:0:
60,108,71847,2,0,P|120:92|182:77,1,125.999996154785,2|2,0:0|0:0,0:0:0:0:
256,28,72347,6,0,B|324:16|300:80|368:68,1,125.999996154785,2|2,1:0|0:0,0:0:0:0:
452,40,72847,1,0,1:0:0:0:
452,40,73014,2,0,L|472:116,1,62.9999980773926,2|0,0:0|0:0,0:0:0:0:
488,188,73347,1,0,0:0:0:0:
484,204,73431,2,0,P|473:250|463:296,1,94.499997116089,2|0,0:0|1:0,0:0:0:0:
212,368,74181,5,0,1:0:0:0:
212,368,74348,1,8,0:0:0:0:
148,308,74514,1,0,1:0:0:0:
68,344,74681,2,0,L|60:308,3,31.4999990386963,2|2|2|2,0:0|0:0|0:0|0:0,0:0:0:0:
32,272,75014,6,0,L|16:200,1,70,2|2,1:0|0:0,0:0:0:0:
48,112,75347,2,0,P|80:96|116:96,1,70,2|0,0:3|1:0,0:0:0:0:
196,148,75681,2,0,P|228:164|264:164,1,70,8|0,0:0|1:0,0:0:0:0:
276,156,75931,1,0,0:0:0:0:
288,144,76014,1,2,0:3:0:0:
356,64,76181,1,2,0:0:0:0:
436,128,76347,6,0,L|452:200,1,70,2|2,1:0|0:0,0:0:0:0:
412,296,76681,2,0,L|340:312,1,70,2|0,1:3|0:0,0:0:0:0:
240,288,77014,2,0,L|168:304,1,70
156,308,77264,1,0,0:0:0:0:
140,312,77347,1,8,0:0:0:0:
52,356,77514,1,2,1:0:0:0:
4,268,77681,6,0,P|-4:232|12:200,1,70,2|2,1:0|0:0,0:0:0:0:
84,140,78014,2,0,L|152:155,1,70,2|0,0:3|1:0,0:0:0:0:
232,212,78347,2,0,L|304:196,1,70,8|0,0:0|1:0,0:0:0:0:
316,192,78597,1,0,0:0:0:0:
332,188,78680,1,2,0:3:0:0:
428,196,78847,1,2,0:0:0:0:
496,124,79014,6,0,P|496:88|472:56,1,70,2|2,1:0|0:0,0:0:0:0:
388,20,79347,2,0,P|348:20|320:40,1,70,2|0,1:3|0:0,0:0:0:0:
256,108,79681,2,0,P|216:108|188:88,1,70,8|0,0:0|1:0,0:0:0:0:
180,84,79931,1,0,0:0:0:0:
172,72,80014,1,0,0:0:0:0:
88,20,80181,1,2,1:0:0:0:
28,96,80347,6,0,L|44:164,1,70,2|2,1:0|0:0,0:0:0:0:
8,256,80681,2,0,L|24:324,1,70,2|0,0:3|0:0,0:0:0:0:
116,360,81014,2,0,L|188:344,1,70,8|0,0:0|1:0,0:0:0:0:
200,340,81264,1,0,0:0:0:0:
216,336,81347,1,2,0:3:0:0:
296,276,81514,1,2,0:0:0:0:
376,332,81681,6,0,L|396:264,1,70,2|2,1:0|0:0,0:0:0:0:
456,188,82014,2,0,L|436:120,1,70,2|0,1:3|0:0,0:0:0:0:
396,32,82347,1,2,0:0:0:0:
396,32,82514,1,2,0:0:0:0:
319,92,82681,2,0,P|269:78|218:66,1,105,10|0,0:0|0:0,0:0:0:0:
172,44,83014,6,0,L|96:64,1,70,2|0,1:0|0:0,0:0:0:0:
36,132,83347,1,2,0:3:0:0:
20,228,83514,2,0,L|39:304,1,70,2|8,1:0|0:0,0:0:0:0:
112,360,83847,1,2,1:0:0:0:
180,288,84014,2,0,P|228:288|256:308,1,70,2|0,0:3|0:0,0:0:0:0:
324,356,84347,6,0,B|392:364|376:296|448:304,2,140,0|2|8,1:0|1:3|0:0,0:0:0:0:
246,298,85181,1,0,1:0:0:0:
240,279,85264,1,0,0:0:0:0:
235,261,85347,2,0,L|251:193,1,70,0|2,0:0|1:0,0:0:0:0:
200,108,85681,6,0,L|216:40,1,70,2|2,1:0|0:0,0:0:0:0:
308,8,86014,2,0,P|348:4|384:24,1,70,2|0,0:3|1:0,0:0:0:0:
448,80,86347,2,0,P|452:120|432:156,1,70,8|0,0:0|1:0,0:0:0:0:
432,160,86597,1,0,0:0:0:0:
422,173,86681,1,2,0:3:0:0:
348,236,86847,1,2,0:0:0:0:
256,208,87014,6,0,L|184:228,1,70,2|2,1:0|0:0,0:0:0:0:
104,280,87347,2,0,P|40:276|20:196,1,140,2|0,1:3|0:0,0:0:0:0:
28,116,87847,1,0,0:0:0:0:
32,100,87931,1,0,0:0:0:0:
36,84,88014,2,0,L|104:103,1,70,8|2,0:0|1:0,0:0:0:0:
200,124,88347,6,0,P|234:126|267:114,1,70,2|2,1:0|0:0,0:0:0:0:
332,40,88681,2,0,P|364:27|399:30,1,70,2|0,0:3|1:0,0:0:0:0:
484,80,89014,2,0,P|496:112|493:147,1,70,8|0,0:0|1:0,0:0:0:0:
484,164,89264,1,0,0:0:0:0:
476,180,89347,1,2,0:3:0:0:
404,244,89514,6,0,L|328:264,1,70,2|2,0:0|1:0,0:0:0:0:
256,316,89847,1,2,0:0:0:0:
240,328,89931,1,0,0:0:0:0:
224,336,90014,2,0,L|156:318,1,70,2|0,1:3|0:0,0:0:0:0:
92,244,90347,2,0,P|80:176|136:128,1,140,8|0,0:0|1:0,0:0:0:0:
220,96,90847,1,2,1:0:0:0:
292,164,91014,6,0,L|308:240,1,70,2|2,1:0|0:0,0:0:0:0:
364,312,91347,2,0,L|440:296,1,70,2|0,0:3|1:0,0:0:0:0:
476,208,91681,2,0,L|461:139,1,70,8|0,0:0|1:0,0:0:0:0:
456,124,91931,1,0,0:0:0:0:
452,108,92014,1,2,0:3:0:0:
384,40,92181,1,2,0:0:0:0:
312,104,92347,6,0,P|280:120|240:112,1,70,2|2,1:0|0:0,0:0:0:0:
164,60,92681,2,0,P|133:44|99:48,1,70,2|0,1:3|0:0,0:0:0:0:
20,104,93014,2,0,P|36:174|52:248,1,140,0|8,0:0|0:0,0:0:0:0:
76,336,93514,1,2,1:0:0:0:
164,288,93681,6,0,L|240:308,1,70,2|2,1:0|0:0,0:0:0:0:
312,364,94014,2,0,L|379:346,1,70,2|0,0:3|1:0,0:0:0:0:
452,280,94347,2,0,L|433:211,1,70,8|0,0:0|1:0,0:0:0:0:
427,197,94597,1,0,0:0:0:0:
422,181,94680,1,2,0:3:0:0:
452,88,94847,1,2,0:0:0:0:
372,32,95014,6,0,P|340:16|296:24,1,70,2|2,1:0|1:0,0:0:0:0:
224,72,95347,2,0,P|192:88|148:80,1,70,2|0,1:3|0:0,0:0:0:0:
72,36,95681,1,8,0:0:0:0:
72,36,95847,1,8,0:0:0:0:
16,116,96014,1,8,0:0:0:0:
76,224,96181,5,8,0:0:0:0:
72,240,96264,1,8,0:0:0:0:
68,256,96347,2,0,B|136:248|120:316|192:308,1,140,6|2,1:0|0:3,0:0:0:0:
288,284,96847,1,0,1:0:0:0:
288,284,97014,2,0,P|303:215|319:147,2,140,10|2|2,0:0|0:3|1:0,0:0:0:0:
224,356,97847,5,0,0:0:0:0:
208,360,97931,1,0,0:0:0:0:
192,364,98014,2,0,L|116:344,1,70,2|0,1:3|0:0,0:0:0:0:
32,376,98347,2,0,P|16:307|0:239,1,140,10|2,0:0|0:3,0:0:0:0:
36,148,98847,5,0,1:0:0:0:
36,148,99014,2,0,P|80:104|164:116,1,140,2|2,1:0|0:3,0:0:0:0:
244,160,99514,1,0,1:0:0:0:
244,160,99681,2,0,B|312:168|296:100|368:108,1,140,10|2,0:0|0:3,0:0:0:0:
456,144,100181,5,0,0:0:0:0:
464,160,100264,1,0,0:0:0:0:
472,176,100347,2,0,P|454:242|436:320,1,140,2|2,1:0|1:3,0:0:0:0:
356,364,100847,1,0,0:0:0:0:
356,364,101014,2,0,P|339:295|321:228,1,140,10|2,0:0|0:3,0:0:0:0:
344,132,101514,5,0,1:0:0:0:
344,132,101681,2,0,L|320:56,1,70,2|0,1:0|0:0,0:0:0:0:
312,52,101931,1,0,0:0:0:0:
300,40,102014,2,0,L|224:64,1,70,2|0,0:3|1:0,0:0:0:0:
152,120,102347,2,0,L|8:84,2,140,10|2|2,0:0|0:3|1:0,0:0:0:0:
232,180,103181,5,0,0:0:0:0:
228,196,103264,1,0,0:0:0:0:
224,212,103347,2,0,L|208:288,1,70,2|0,1:3|0:0,0:0:0:0:
280,348,103681,2,0,L|424:312,1,140,10|2,0:0|0:3,0:0:0:0:
480,240,104181,5,0,1:0:0:0:
480,239,104347,2,0,P|496:160|444:112,1,140,2|2,1:0|0:3,0:0:0:0:
372,88,104847,1,0,1:0:0:0:
372,88,105014,2,0,L|236:121,1,140,10|2,0:0|0:3,0:0:0:0:
140,140,105514,5,0,0:0:0:0:
124,132,105597,1,0,0:0:0:0:
108,124,105681,2,0,B|68:164|68:164|104:264,1,140,2|2,1:0|1:3,0:0:0:0:
148,324,106181,1,0,0:0:0:0:
148,324,106347,2,0,L|220:336,1,70,10|0,0:0|1:0,0:0:0:0:
312,356,106681,2,0,L|381:344,1,70,2|0,0:3|1:0,0:0:0:0:
464,292,107014,6,0,P|488:224|432:180,1,140,2|2,1:0|0:3,0:0:0:0:
356,156,107514,1,0,1:0:0:0:
356,156,107681,2,0,B|288:148|304:216|232:208,1,140,10|2,0:0|0:3,0:0:0:0:
144,172,108181,5,0,0:0:0:0:
136,156,108264,1,0,0:0:0:0:
128,140,108347,2,0,L|204:112,1,70,2|0,1:0|0:0,0:0:0:0:
288,92,108681,2,0,L|353:67,1,70,2|0,1:3|0:0,0:0:0:0:
448,48,109014,5,10,0:0:0:0:
496,132,109181,1,0,0:0:0:0:
492,148,109264,1,0,0:0:0:0:
488,164,109347,2,0,L|460:260,1,70,2|0,0:3|1:0,0:0:0:0:
436,324,109681,6,0,B|368:332|384:264|312:272,1,140,2|2,1:0|0:3,0:0:0:0:
224,304,110181,1,0,1:0:0:0:
224,304,110347,2,0,P|155:321|72:344,1,140,10|2,0:0|0:3,0:0:0:0:
24,264,110847,5,0,0:0:0:0:
28,248,110931,1,0,0:0:0:0:
32,232,111014,2,0,P|48:165|72:80,1,140,2|2,1:0|1:3,0:0:0:0:
144,40,111514,1,0,0:0:0:0:
144,40,111681,2,0,P|184:24|224:40,1,70,10|0,0:0|1:0,0:0:0:0:
296,76,112014,1,2,0:3:0:0:
296,76,112181,1,0,1:0:0:0:
388,44,112347,6,0,P|406:111|423:179,1,140,2|2,1:0|0:3,0:0:0:0:
352,248,112847,1,0,1:0:0:0:
352,248,113014,2,0,L|280:228,1,70,10|0,0:0|1:0,0:0:0:0:
200,180,113347,2,0,L|132:198,1,70,2|0,0:3|0:0,0:0:0:0:
32,196,113681,6,0,P|4:256|44:328,1,140,2|2,1:0|1:3,0:0:0:0:
124,356,114181,1,0,0:0:0:0:
124,356,114347,2,0,P|156:360|192:340,1,70,10|0,0:0|0:0,0:0:0:0:
264,280,114681,1,2,0:3:0:0:
348,328,114847,5,0,1:0:0:0:
353,310,114931,1,0,0:0:0:0:
358,293,115014,2,0,P|371:227|388:154,1,140,2|2,1:0|0:3,0:0:0:0:
428,68,115514,1,0,1:0:0:0:
428,68,115681,2,0,P|388:55|361:61,1,70,10|0,0:0|1:0,0:0:0:0:
348,72,115931,1,0,0:0:0:0:
334,84,116014,2,0,P|299:89|267:77,1,70,2|0,0:3|0:0,0:0:0:0:
184,24,116347,6,0,L|115:39,1,70,2|2,1:0|0:0,0:0:0:0:
44,108,116681,2,0,L|59:176,1,70,2|2,1:3|0:0,0:0:0:0:
84,272,117014,1,10,0:0:0:0:
84,272,117181,1,8,0:0:0:0:
160,212,117347,1,8,0:0:0:0:
160,212,117514,1,10,0:0:0:0:
232,280,117681,6,0,L|316:296,1,70,2|2,1:0|0:0,0:0:0:0:
388,336,118014,2,0,L|456:322,1,70,2|0,0:3|1:0,0:0:0:0:
512,244,118348,2,0,P|514:208|501:174,1,70,8|0,0:0|1:0,0:0:0:0:
488,164,118598,1,0,0:0:0:0:
472,156,118681,1,2,0:3:0:0:
384,112,118848,1,2,0:0:0:0:
308,172,119014,6,0,L|232:192,1,70,2|2,1:0|0:0,0:0:0:0:
156,240,119347,2,0,L|88:222,1,70,2|0,1:3|0:0,0:0:0:0:
20,152,119681,2,0,L|36:80,1,70
40,68,119931,1,0,0:0:0:0:
44,52,120014,1,8,0:0:0:0:
136,16,120181,1,2,1:0:0:0:
212,80,120347,6,0,P|251:81|284:56,1,70,2|2,1:0|0:0,0:0:0:0:
368,24,120681,2,0,P|407:22|440:48,1,70,2|0,0:3|1:0,0:0:0:0:
488,120,121014,2,0,P|489:159|464:192,1,70,8|0,0:0|1:0,0:0:0:0:
460,196,121264,1,0,0:0:0:0:
444,204,121347,1,2,0:3:0:0:
348,224,121514,1,2,0:0:0:0:
252,204,121681,6,0,L|232:284,1,70,2|2,1:0|0:0,0:0:0:0:
160,336,122014,2,0,L|92:319,1,70,2|0,1:3|0:0,0:0:0:0:
40,236,122347,2,0,L|56:168,1,70,8|0,0:0|1:0,0:0:0:0:
64,152,122598,1,0,0:0:0:0:
72,136,122681,1,2,0:3:0:0:
140,68,122847,1,2,1:0:0:0:
204,140,123014,6,0,P|236:156|284:152,1,70,2|2,1:0|0:0,0:0:0:0:
348,100,123347,2,0,P|380:84|428:88,1,70,2|0,0:3|1:0,0:0:0:0:
488,148,123681,2,0,L|472:216,1,70,8|0,0:0|1:0,0:0:0:0:
468,232,123931,1,0,0:0:0:0:
464,248,124014,1,2,0:3:0:0:
400,320,124181,1,2,0:0:0:0:
320,260,124347,6,0,P|280:264|248:288,1,70,2|2,1:0|0:0,0:0:0:0:
188,352,124681,2,0,P|148:348|116:324,1,70,2|0,1:3|0:0,0:0:0:0:
64,264,125014,1,2,0:0:0:0:
64,264,125181,1,2,0:0:0:0:
60,168,125347,2,0,P|56:112|88:72,1,105,10|0,0:0|0:0,0:0:0:0:
132,68,125681,6,0,P|172:68|208:88,1,70,2|0,1:0|0:0,0:0:0:0:
276,144,126014,1,2,0:3:0:0:
208,216,126181,2,0,L|227:292,1,70,2|8,1:0|0:0,0:0:0:0:
300,356,126514,1,2,1:0:0:0:
396,376,126681,6,0,P|436:376|472:356,1,70,2|0,0:3|0:0,0:0:0:0:
504,276,127014,2,0,P|488:207|473:139,2,140,0|2|8,1:0|1:3|0:0,0:0:0:0:
408,296,127847,1,0,1:0:0:0:
402,277,127931,1,0,0:0:0:0:
397,259,128014,2,0,L|376:172,1,70,0|2,1:0|1:0,0:0:0:0:
344,100,128347,6,0,P|312:80|264:88,1,70,2|2,1:0|0:0,0:0:0:0:
192,120,128681,2,0,L|112:104,1,70,2|0,0:3|1:0,0:0:0:0:
52,172,129014,2,0,L|36:252,1,70,8|0,0:0|1:0,0:0:0:0:
36,260,129264,1,0,0:0:0:0:
36,276,129347,1,2,0:3:0:0:
104,348,129514,1,2,0:0:0:0:
184,292,129681,6,0,L|256:312,1,70,2|2,1:0|0:0,0:0:0:0:
340,356,130014,2,0,P|408:356|448:296,1,140,2|0,1:3|0:0,0:0:0:0:
484,212,130514,1,0,0:0:0:0:
480,196,130598,1,0,0:0:0:0:
476,180,130681,2,0,L|460:104,1,70,8|2,0:0|1:0,0:0:0:0:
380,56,131014,6,0,P|346:54|316:72,1,70,2|2,1:0|0:0,0:0:0:0:
248,144,131347,2,0,P|213:145|184:128,1,70,2|0,0:3|1:0,0:0:0:0:
116,56,131681,2,0,P|81:54|52:71,1,70,8|0,0:0|1:0,0:0:0:0:
40,88,131931,1,0,0:0:0:0:
32,104,132014,1,2,0:3:0:0:
16,200,132181,1,2,0:0:0:0:
88,264,132347,6,0,L|168:280,1,70,2|2,1:0|0:0,0:0:0:0:
244,232,132681,2,0,L|312:218,1,70,2|0,1:3|0:0,0:0:0:0:
404,256,133014,2,0,B|440:220|440:220|404:124,1,140,8|2,0:0|0:3,0:0:0:0:
352,56,133514,1,2,1:0:0:0:
260,24,133681,6,0,L|192:40,1,70,2|2,1:0|0:0,0:0:0:0:
112,96,134014,2,0,L|44:112,1,70,2|0,0:3|1:0,0:0:0:0:
32,212,134348,2,0,L|47:281,1,70,8|0,0:0|1:0,0:0:0:0:
52,296,134598,1,0,0:0:0:0:
56,312,134681,1,2,0:3:0:0:
148,348,134848,1,2,1:0:0:0:
224,288,135014,6,0,P|256:272|296:280,1,70,2|2,1:0|0:0,0:0:0:0:
368,332,135347,2,0,P|400:348|440:340,1,70,2|0,1:3|0:0,0:0:0:0:
504,276,135681,2,0,P|512:232|496:200,1,70,2|2,0:0|0:0,0:0:0:0:
448,136,136014,1,10,0:0:0:0:
448,136,136181,1,2,1:0:0:0:
352,216,136347,6,0,B|272:132|152:212|244:304|128:348|28:340|8:272|8:204|44:148|116:164,1,525,6|0,0:0|0:0,0:0:0:0:
172,84,139014,5,0,1:0:0:0:
172,84,139181,2,0,L|240:68,1,70,8|8,0:0|0:0,0:0:0:0:
324,116,139514,2,0,L|392:132,1,70,2|10,0:0|0:0,0:0:0:0:
480,88,139847,1,8,0:0:0:0:
480,88,140014,1,8,0:3:0:0:
512,180,140181,1,4,0:3:0:0:
447,252,140347,6,0,P|380:269|312:287,1,140,6|2,1:0|0:3,0:0:0:0:
220,320,140847,1,0,1:0:0:0:
220,320,141014,2,0,P|200:288|204:252,1,70,8|0,0:0|0:0,0:0:0:0:
264,180,141347,5,10,0:0:0:0:
264,180,141514,2,0,P|276:116|224:64,1,140,0|8,1:0|0:0,0:0:0:0:
136,36,142014,1,2,0:3:0:0:
136,36,142181,1,0,1:0:0:0:
56,92,142347,2,0,L|40:168,1,70,8|0,0:0|0:0,0:0:0:0:
8,256,142681,2,0,L|24:332,1,70,2|8,0:3|0:0,0:0:0:0:
32,340,142931,5,8,0:0:0:0:
44,352,143014,2,0,B|112:360|96:292|168:300,1,140,2|2,1:0|0:3,0:0:0:0:
260,332,143514,1,0,1:0:0:0:
260,332,143681,2,0,L|336:312,1,70,8|0,0:0|0:0,0:0:0:0:
424,292,144014,1,10,0:0:0:0:
424,292,144181,1,2,1:0:0:0:
480,212,144347,6,0,P|480:168|464:144,1,70,2|10,0:3|0:0,0:0:0:0:
500,56,144681,2,0,P|468:24|440:19,1,70,2|2,0:3|1:0,0:0:0:0:
356,64,145014,2,0,L|284:84,1,70,10|2,0:0|0:0,0:0:0:0:
204,36,145347,2,0,L|136:17,1,70,2|8,0:3|0:0,0:0:0:0:
120,20,145597,5,8,0:0:0:0:
104,24,145681,2,0,P|121:93|136:160,1,140,2|0,1:0|1:0,0:0:0:0:
160,260,146181,1,0,0:0:0:0:
160,260,146347,2,0,L|231:276,1,70,10|0,0:0|0:0,0:0:0:0:
308,332,146681,2,0,L|376:316,1,70,8|0,0:0|1:0,0:0:0:0:
472,288,147014,5,2,0:3:0:0:
472,288,147181,2,0,P|496:224|428:180,1,140,8|0,0:0|1:0,0:0:0:0:
352,160,147681,2,0,P|284:179|217:199,1,140,8|2,0:0|0:3,0:0:0:0:
132,244,148181,5,10,0:0:0:0:
116,240,148264,1,10,0:0:0:0:
100,236,148347,1,2,1:0:0:0:
20,176,148514,1,0,0:0:0:0:
20,176,148681,2,0,P|8:136|20:104,1,70,2|0,0:3|1:0,0:0:0:0:
104,64,149014,2,0,L|184:40,1,70,8|0,0:0|0:0,0:0:0:0:
264,72,149347,6,0,L|331:51,1,70,8|2,0:0|1:0,0:0:0:0:
348,48,149597,1,2,0:0:0:0:
364,44,149681,1,2,0:3:0:0:
456,12,149847,1,8,0:0:0:0:
456,12,150014,2,0,L|476:92,1,70,2|0,0:3|1:0,0:0:0:0:
428,168,150347,2,0,P|444:238|460:312,1,140,8|2,0:0|0:3,0:0:0:0:
380,364,150847,5,8,0:0:0:0:
364,356,150931,1,8,0:0:0:0:
348,348,151014,1,2,1:0:0:0:
260,304,151181,1,0,0:0:0:0:
260,304,151347,2,0,L|180:320,1,70,2|0,0:3|1:0,0:0:0:0:
112,376,151681,2,0,P|84:352|80:308,1,70,10|0,0:0|0:0,0:0:0:0:
8,252,152014,2,0,P|5:215|33:181,1,70,8|0,0:0|1:0,0:0:0:0:
104,132,152347,6,0,P|171:150|244:172,1,140,2|2,0:3|0:3,0:0:0:0:
328,212,152847,1,0,1:0:0:0:
328,212,153014,2,0,P|408:200|424:136,1,140,10|2,0:0|0:3,0:0:0:0:
428,52,153514,5,8,0:0:0:0:
411,44,153597,1,8,0:0:0:0:
395,37,153681,2,0,P|356:36|319:53,1,70,2|0,1:0|0:0,0:0:0:0:
248,104,154014,2,0,P|209:105|172:88,1,70,2|0,0:3|1:0,0:0:0:0:
96,44,154347,2,0,L|80:120,1,70,8|0,0:0|0:0,0:0:0:0:
32,200,154681,2,0,L|48:276,1,70,8|0,0:0|1:0,0:0:0:0:
88,356,155014,5,2,0:3:0:0:
88,356,155181,1,8,0:0:0:0:
168,300,155347,2,0,L|248:316,1,70,2|0,0:3|1:0,0:0:0:0:
336,300,155681,2,0,B|404:292|388:360|460:352,1,140,8|2,0:0|0:3,0:0:0:0:
508,268,156181,5,8,0:0:0:0:
504,252,156264,1,8,0:0:0:0:
500,236,156347,2,0,P|486:170|468:80,1,140,2|0,1:0|1:0,0:0:0:0:
400,32,156847,1,0,0:0:0:0:
400,32,157014,2,0,P|360:36|332:56,1,70,8|0,0:0|0:0,0:0:0:0:
276,128,157347,1,10,0:0:0:0:
276,128,157514,2,0,P|236:124|208:104,1,70,2|2,1:0|0:3,0:0:0:0:
128,56,157847,5,10,0:0:0:0:
128,56,158014,2,0,L|108:128,1,70,2|2,0:3|1:0,0:0:0:0:
168,200,158347,2,0,L|188:272,1,70,10|2,0:0|0:0,0:0:0:0:
128,348,158681,2,0,L|56:364,1,70,2|8,0:3|0:0,0:0:0:0:
44,356,158931,5,8,0:0:0:0:
32,344,159014,2,0,P|18:279|0:200,1,140,2|2,1:0|0:3,0:0:0:0:
24,112,159514,1,0,1:0:0:0:
24,112,159681,2,0,P|52:88|88:84,1,70,8|2,0:0|0:0,0:0:0:0:
168,136,160014,2,0,P|196:160|232:164,1,70,8|0,0:0|1:0,0:0:0:0:
320,124,160347,5,2,0:3:0:0:
320,124,160514,1,8,0:0:0:0:
408,80,160681,2,0,L|428:160,1,70,2|0,0:3|1:0,0:0:0:0:
500,208,161014,2,0,P|486:277|472:352,1,140,8|2,0:0|0:3,0:0:0:0:
356,356,161514,5,10,0:0:0:0:
340,352,161597,1,8,0:0:0:0:
324,348,161681,2,0,L|248:328,1,70,6|2,1:0|0:0,0:0:0:0:
186,260,162014,2,0,B|167:174|228:208|212:118,2,140,2|8|8,0:3|0:0|0:0,0:0:0:0:
122,334,162847,1,2,1:0:0:0:
122,334,163014,1,2,0:3:0:0:
46,271,163181,5,10,0:0:0:0:
46,271,163347,2,0,P|32:237|35:190,1,70,2|0,0:3|1:0,0:0:0:0:
85,121,163681,2,0,P|103:73|186:47,1,140,8|2,0:0|0:3,0:0:0:0:
260,105,164181,5,10,0:0:0:0:
279,101,164264,1,8,0:0:0:0:
298,99,164347,1,2,1:0:0:0:
356,20,164514,1,2,0:0:0:0:
441,68,164681,2,0,P|451:127|472:221,1,140,2|8,0:3|0:0,0:0:0:0:
391,267,165181,1,0,0:0:0:0:
311,321,165347,1,10,0:0:0:0:
311,321,165514,1,2,1:0:0:0:
232,261,165681,6,0,P|214:223|224:178,1,70,2|10,0:3|0:0,0:0:0:0:
303,151,166014,2,0,P|321:113|311:68,1,70,2|2,0:3|1:0,0:0:0:0:
233,36,166347,2,0,P|172:52|82:69,1,140,10|2,0:0|0:3,0:0:0:0:
25,135,166847,5,8,0:0:0:0:
22,155,166931,1,8,0:0:0:0:
19,174,167014,2,0,P|30:244|41:331,1,140,0|0,1:0|1:0,0:0:0:0:
177,172,167681,2,0,L|252:186,1,70,10|0,0:0|0:0,0:0:0:0:
315,254,168014,2,0,L|390:268,1,70,8|0,0:0|1:0,0:0:0:0:
465,212,168347,5,2,0:3:0:0:
465,212,168514,2,0,P|424:238|449:330,1,140,8|0,0:0|1:0,0:0:0:0:
349,369,169014,2,0,L|207:342,1,140,8|2,0:0|0:3,0:0:0:0:
139,276,169514,5,10,0:0:0:0:
137,259,169597,1,10,0:0:0:0:
133,242,169681,2,0,P|109:204|16:221,2,140,2|2|8,1:0|0:3|0:0,0:0:0:0:
292,127,170681,6,0,L|211:114,1,70,8|2,0:0|1:0,0:0:0:0:
183,25,171014,1,2,0:3:0:0:
280,37,171181,2,0,L|349:48,1,70,8|2,0:0|0:3,0:0:0:0:
435,0,171514,1,0,1:0:0:0:
477,88,171681,2,0,P|433:144|464:212,1,140,8|2,0:0|0:3,0:0:0:0:
431,299,172181,5,8,0:0:0:0:
410,294,172264,1,8,0:0:0:0:
388,290,172347,2,0,L|246:325,1,140,0|2,1:0|0:3,0:0:0:0:
154,336,172847,1,0,1:0:0:0:
192,245,173014,2,0,P|207:212|200:166,1,70,10|0,0:0|0:0,0:0:0:0:
111,149,173347,2,0,P|96:117|97:82,1,70,8|0,0:0|1:0,0:0:0:0:
176,23,173681,5,2,0:3:0:0:
243,93,173847,2,0,P|298:107|365:56,1,140,8|0,0:0|1:0,0:0:0:0:
446,11,174347,2,0,P|479:32|442:110,1,140,8|0,0:0|0:1,0:0:0:0:
385,186,174847,5,8,0:0:0:0:
384,204,174931,1,8,0:0:0:0:
383,223,175014,2,0,P|411:239|452:249,1,70,2|0,1:0|0:0,0:0:0:0:
406,338,175347,2,0,P|372:329|341:312,1,70,2|0,0:3|1:0,0:0:0:0:
282,233,175681,2,0,P|236:254|220:344,1,140,8|10,0:0|0:0,0:0:0:0:
125,371,176181,5,2,1:0:0:0:
122,358,176264,1,2,0:0:0:0:
120,345,176347,1,2,0:3:0:0:
50,276,176514,2,0,L|60:180,1,70,8|2,0:0|0:3,0:0:0:0:
145,166,176847,1,0,1:0:0:0:
75,96,177014,2,0,L|82:26,1,70,8|0,0:0|0:0,0:0:0:0:
177,4,177347,1,2,0:3:0:0:
250,69,177514,5,8,0:0:0:0:
265,66,177597,1,8,0:0:0:0:
283,59,177681,2,0,P|357:81|431:101,2,140,2|0|10,1:0|1:0|0:0,0:0:0:0:
271,255,178681,1,8,0:0:0:0:
271,255,178847,1,0,1:0:0:0:
349,313,179014,6,0,P|371:260|332:178,2,140,2|0|10,0:3|1:0|0:0,0:0:0:0:
192,193,180014,1,2,0:3:0:0:
256,118,180181,5,8,0:0:0:0:
253,97,180264,1,8,0:0:0:0:
252,77,180347,2,0,P|199:35|110:63,1,140,2|2,1:0|0:3,0:0:0:0:
76,126,180847,1,0,1:0:0:0:
21,207,181014,2,0,L|34:290,1,70,10|0,0:0|0:0,0:0:0:0:
101,345,181347,2,0,L|184:332,1,70,8|0,0:0|1:0,0:0:0:0:
240,264,181681,1,2,0:3:0:0:
321,317,181847,1,8,0:0:0:0:
411,278,182014,2,0,L|419:193,1,70,8|0,0:0|1:0,0:0:0:0:
345,141,182347,5,10,0:0:0:0:
411,69,182514,1,10,0:0:0:0:
341,0,182681,1,10,0:0:0:0:
271,69,182847,1,10,0:0:0:0:
178,36,183014,5,4,1:0:0:0:
