osu file format v14

[General]
AudioFilename: audio.mp3
AudioLeadIn: 0
PreviewTime: 54979
Countdown: 0
SampleSet: Soft
StackLeniency: 0.3
Mode: 0
LetterboxInBreaks: 0
WidescreenStoryboard: 1

[Editor]
Bookmarks: 6835,15458,26955,38452,49949,55518,67015,72763,78691,79949,80488,86596,89470
DistanceSpacing: 1
BeatDivisor: 4
GridSize: 4
TimelineZoom: 2.2

[Metadata]
Title:Signal Graph Short ver
TitleUnicode:シグナルグラフ ショートver
Artist:Annabel
ArtistUnicode:Annabel
Creator:cococolaco
Version:Insane
Source:恋と選挙とチョコレート
Tags:koi to senkyo to chocolate visual novel vn opening short version
BeatmapID:1500050
BeatmapSetID:709530

[Difficulty]
HPDrainRate:5.5
CircleSize:4
OverallDifficulty:8
ApproachRate:8.7
SliderMultiplier:2
SliderTickRate:1

[Events]
//Background and Video events
0,0,"BG.jpg",0,0
//Break Periods
//Storyboard Layer 0 (Background)
//Storyboard Layer 1 (Fail)
//Storyboard Layer 2 (Pass)
//Storyboard Layer 3 (Foreground)
//Storyboard Sound Samples

[TimingPoints]
1087,359.281437125748,4,2,1,40,1,0
6476,-100,4,2,1,5,0,0
6835,-86.9565217391304,4,2,1,70,0,0
14739,-105.263157894737,4,2,1,70,0,0
15099,-133.333333333333,4,2,1,70,0,0
15458,-117.647058823529,4,2,2,50,0,0
25158,-95.238095238095,4,2,2,50,0,0
26955,-105.263157894737,4,2,2,60,0,0
29470,-80.0000000000001,4,2,2,60,0,0
29829,-105.263157894737,4,2,2,60,0,0
32344,-80.0000000000001,4,2,2,60,0,0
32703,-105.263157894737,4,2,2,60,0,0
35218,-80.0000000000001,4,2,2,60,0,0
35578,-105.263157894737,4,2,2,60,0,0
37733,-86.9565217391306,4,2,2,60,0,0
38093,-74.0740740740741,4,2,2,60,0,0
38452,-111.111111111111,4,2,2,70,0,0
47075,-100,4,2,2,70,0,0
48332,-111.111111111111,4,2,2,70,0,0
50308,-90.9090909090908,4,2,2,70,0,0
50667,-111.111111111111,4,2,2,70,0,0
51027,-90.9090909090908,4,2,2,70,0,0
51386,-111.111111111111,4,2,2,70,0,0
51745,-90.9090909090909,4,2,2,70,0,0
52105,-125,4,2,2,60,0,0
52464,-100,4,2,2,60,0,0
52823,-83.3333333333333,4,2,2,70,0,1
53092,-83.3333333333333,4,2,2,70,0,0
53182,-76.9230769230769,4,2,2,75,0,1
53452,-76.9230769230769,4,2,2,75,0,0
53542,-66.6666666666667,4,2,2,80,0,1
53811,-66.6666666666667,4,2,2,80,0,0
53901,-58.8235294117647,4,2,2,80,0,1
54170,-58.8235294117647,4,2,2,80,0,0
54799,-100,4,2,2,80,0,1
55158,-90.9090909090909,4,2,2,80,0,0
55518,-76.9230769230769,4,2,1,80,0,1
55787,-83.3333333333333,4,2,1,80,0,0
65578,-83.3333333333333,4,2,1,80,0,1
65667,-83.3333333333333,4,2,1,80,0,0
65937,-83.3333333333333,4,2,1,80,0,1
66027,-83.3333333333333,4,2,1,80,0,0
66296,-83.3333333333333,4,2,1,80,0,1
66386,-83.3333333333333,4,2,1,80,0,0
66655,-83.3333333333333,4,2,2,80,0,0
67015,-76.9230769230769,4,2,1,80,0,1
67284,-83.3333333333333,4,2,1,80,0,0
70787,-71.4285714285714,4,2,1,80,0,0
71326,-83.3333333333333,4,2,1,80,0,0
72763,-83.3333333333333,4,2,2,80,0,0
73033,-83.3333333333333,4,2,1,80,0,0
74739,-90.9090909090909,4,2,1,80,0,0
75817,-83.3333333333333,4,2,1,80,0,0
77973,-111.111111111111,4,2,1,80,0,0
79949,-71.4285714285714,4,2,1,90,0,1
80667,-71.4285714285714,4,2,1,90,0,0
81566,-111.111111111111,4,2,1,70,0,0
86596,-111.111111111111,4,2,1,70,0,0

[Colours]
Combo1 : 253,30,35
Combo2 : 0,253,253
Combo3 : 224,224,224
Combo4 : 240,74,182
Combo5 : 18,124,255

[HitObjects]
68,96,548,5,0,0:0:0:0:
70,108,727,1,0,0:0:0:0:
72,120,907,1,0,0:0:0:0:
114,194,1087,5,0,0:0:0:0:
158,121,1266,5,0,0:0:0:0:
160,109,1446,1,0,0:0:0:0:
162,97,1625,1,0,0:0:0:0:
270,97,1985,37,0,0:0:0:0:
272,109,2164,1,0,0:0:0:0:
274,121,2344,1,0,0:0:0:0:
318,194,2523,5,0,0:0:0:0:
391,122,2703,5,0,0:0:0:0:
391,232,2883,1,0,0:0:0:0:
392,113,3062,1,0,0:0:0:0:
393,104,3422,37,0,0:0:0:0:
390,241,3602,1,0,0:0:0:0:
394,95,3781,1,0,0:0:0:0:
389,250,3961,5,0,0:0:0:0:
387,262,4320,1,0,0:0:0:0:
383,286,4679,1,0,0:0:0:0:
375,334,5039,1,0,0:0:0:0:
256,192,5129,12,0,6476,0:0:0:0:
149,35,6835,38,0,L|159:149,1,115.000002193451,4|0,0:0|0:0,0:0:0:0:
136,222,7105,1,0,0:0:0:0:
136,222,7194,2,0,P|173:179|228:170,1,115.000002193451,0|0,1:0|0:0,0:0:0:0:
374,238,7554,2,0,P|429:228|466:186,1,115.000002193451,2|0,0:0|0:0,0:0:0:0:
495,115,7823,1,0,0:0:0:0:
495,115,7913,2,0,L|505:229,1,115.000002193451,0|0,1:0|0:0,0:0:0:0:
369,114,8272,22,0,L|379:0,1,115.000002193451,2|0,0:0|0:0,0:0:0:0:
281,185,8632,2,0,P|317:227|373:237,1,115.000002193451,0|0,1:0|0:0,0:0:0:0:
265,69,8991,2,0,P|210:79|173:121,1,115.000002193451,2|0,0:0|0:0,0:0:0:0:
142,186,9260,1,0,0:0:0:0:
142,186,9350,2,0,L|132:72,1,115.000002193451,0|0,1:0|0:0,0:0:0:0:
178,292,9709,22,0,P|122:299|72:271,1,115.000002193451,2|0,0:0|0:0,0:0:0:0:
34,212,9979,1,0,0:0:0:0:
34,212,10069,2,0,L|24:326,1,115.000002193451,0|0,1:0|0:0,0:0:0:0:
88,384,10338,1,0,0:0:0:0:
88,384,10428,1,2,0:0:0:0:
142,186,10608,37,0,0:0:0:0:
142,186,10697,1,0,0:0:0:0:
142,186,10787,2,0,L|199:191,1,57.5000010967255,0|0,1:0|0:0,0:0:0:0:
297,182,10967,1,0,0:0:0:0:
254,366,11147,38,0,P|220:322|220:265,1,115.000002193451,2|0,0:0|0:0,0:0:0:0:
407,209,11506,2,0,P|441:253|441:310,1,115.000002193451,0|0,1:0|0:0,0:0:0:0:
297,182,11865,2,0,P|318:130|367:102,1,115.000002193451,2|0,0:0|0:0,0:0:0:0:
220,264,12224,2,0,L|106:254,1,115.000002193451,0|0,1:0|0:0,0:0:0:0:
35,157,12494,1,0,0:0:0:0:
35,157,12584,22,0,L|149:147,1,115.000002193451,4|0,0:0|0:0,0:0:0:0:
285,145,12943,1,0,1:0:0:0:
83,52,13123,1,4,0:0:0:0:
83,52,13212,1,0,0:0:0:0:
83,52,13302,1,0,0:0:0:0:
149,146,13482,1,2,0:0:0:0:
334,41,13661,1,0,1:0:0:0:
219,265,13841,37,4,0:0:0:0:
219,265,14200,1,0,0:0:0:0:
297,143,14380,22,0,L|354:138,3,57.5000010967255,4|0|0|0,0:0|0:0|0:0|0:0,0:0:0:0:
223,181,14739,22,0,L|175:185,3,47.4999987316132,2|0|0|0,0:0|0:0|0:0|0:0,0:0:0:0:
293,227,15099,6,0,L|350:222,2,37.5000014305115,2|0|0,0:0|0:0|0:0,0:0:0:0:
197,43,15458,5,4,1:0:0:0:
132,221,15817,1,2,0:0:0:0:
44,145,15997,2,0,P|39:85|44:48,1,85.0000016212464,0|2,0:0|0:0,0:0:0:0:
118,210,16356,1,0,0:0:0:0:
25,309,16536,1,2,0:0:0:0:
25,309,16626,1,0,0:0:0:0:
25,309,16715,6,0,P|82:309|124:318,1,85.0000016212464,0|2,0:0|0:0,0:0:0:0:
235,352,17075,1,0,0:0:0:0:
193,231,17254,1,2,0:0:0:0:
251,366,17434,2,0,P|291:345|319:313,1,85.0000016212464,0|2,0:0|0:0,0:0:0:0:
216,234,17793,1,0,0:0:0:0:
380,246,17973,1,2,0:0:0:0:
395,218,18062,1,0,0:0:0:0:
403,187,18152,1,0,0:0:0:0:
403,155,18242,1,0,0:0:0:0:
395,124,18332,6,0,P|386:65|395:-4,1,127.50000243187
476,43,18691,1,2,0:0:0:0:
290,90,18871,2,0,P|242:97|190:89,1,85.0000016212464,0|2,0:0|0:0,0:0:0:0:
155,189,19230,1,0,0:0:0:0:
21,74,19410,1,2,0:0:0:0:
21,74,19500,1,0,0:0:0:0:
21,74,19590,38,0,L|131:86,1,85.0000016212464,0|2,0:0|0:0,0:0:0:0:
206,94,19949,1,0,0:0:0:0:
70,174,20129,1,2,0:0:0:0:
175,196,20308,2,0,P|178:242|162:290,1,85.0000016212464,0|2,0:0|0:0,0:0:0:0:
100,352,20667,1,0,0:0:0:0:
168,280,20847,1,2,0:0:0:0:
197,269,20936,1,0,0:0:0:0:
229,264,21026,1,0,0:0:0:0:
261,267,21116,1,0,0:0:0:0:
291,277,21206,6,0,B|325:313|378:303|378:303|408:282,1,127.50000243187,2|0,0:0|0:0,0:0:0:0:
418,271,21566,1,2,0:0:0:0:
447,123,21745,2,0,P|481:146|519:184,1,85.0000016212464,0|2,0:0|0:0,0:0:0:0:
352,217,22105,2,0,P|349:175|335:124,1,85.0000016212464,0|2,0:0|0:0,0:0:0:0:
277,86,22374,1,0,0:0:0:0:
277,86,22464,6,0,P|342:95|389:79,1,85.0000016212464,0|2,0:0|0:0,0:0:0:0:
233,171,22823,2,0,P|168:162|121:178,1,85.0000016212464,0|2,0:0|0:0,0:0:0:0:
330,7,23182,2,0,P|393:10|424:30,1,85.0000016212464,0|2,0:0|0:0,0:0:0:0:
464,162,23542,1,0,0:0:0:0:
374,101,23721,1,2,0:0:0:0:
342,97,23810,1,0,0:0:0:0:
310,97,23900,1,0,0:0:0:0:
278,101,23990,1,0,0:0:0:0:
248,110,24081,37,2,0:0:0:0:
152,250,24260,2,0,P|155:200|144:147,1,85.0000016212464,0|2,0:0|0:0,0:0:0:0:
44,215,24620,1,0,0:0:0:0:
263,258,24799,2,0,P|266:194|253:132,1,127.50000243187,2|0,0:0|0:0,0:0:0:0:
192,93,25158,54,0,B|224:105|224:105|290:81,1,104.999996795654,2|0,0:0|0:0,0:0:0:0:
436,117,25518,2,0,B|337:151,1,104.999996795654,2|0,0:0|0:0,0:0:0:0:
497,60,25877,2,0,B|518:90|518:90|512:168,1,104.999996795654,2|0,0:0|0:0,0:0:0:0:
448,252,26236,1,2,0:0:0:0:
412,237,26325,1,0,0:0:0:0:
377,226,26415,1,0,0:0:0:0:
340,239,26505,1,0,0:0:0:0:
303,257,26595,1,2,0:0:0:0:
445,157,26775,1,2,0:0:0:0:
378,320,26955,22,0,B|335:339|335:339|271:341,1,94.9999974632264,2|0,0:0|0:0,0:0:0:0:
233,200,27314,1,2,0:0:0:0:
110,285,27494,2,0,P|168:281|203:288,1,94.9999974632264,0|2,0:0|0:0,0:0:0:0:
57,200,27853,1,0,0:0:0:0:
156,368,28033,2,0,P|117:375|89:369,1,47.4999987316132,8|0,0:0|0:0,0:0:0:0:
23,311,28212,6,0,P|22:257|45:216,1,94.9999974632264,0|2,0:0|0:0,0:0:0:0:
213,150,28572,2,0,P|166:177|119:178,1,94.9999974632264,0|2,0:0|0:0,0:0:0:0:
21,81,28931,1,0,0:0:0:0:
142,192,29111,2,0,B|166:239|144:293|144:293|98:316,1,142.49999619484,2|0,0:0|0:0,0:0:0:0:
67,317,29470,6,0,B|128:330|128:330|202:316|202:316|264:331,1,187.5,8|0,0:0|0:0,0:0:0:0:
321,349,29829,22,0,B|282:359|282:359|249:321|271:263,1,142.49999619484
281,244,30188,1,2,0:0:0:0:
400,82,30368,2,0,P|408:151|407:185,1,94.9999974632264,0|2,0:0|0:0,0:0:0:0:
362,271,30727,1,0,0:0:0:0:
309,160,30907,2,0,P|305:136|305:112,1,47.4999987316132,8|0,0:0|0:0,0:0:0:0:
253,9,31087,6,0,P|265:63|396:71,1,189.999994926453
337,15,31626,1,2,0:0:0:0:
184,113,31805,2,0,P|174:159|178:206,1,94.9999974632264,0|2,0:0|0:0,0:0:0:0:
122,20,32164,1,0,0:0:0:0:
0,184,32344,38,0,B|32:226|32:226|174:222,1,187.5,8|0,0:0|0:0,0:0:0:0:
233,314,32703,38,0,B|189:346|189:346|133:298|171:208,1,189.999994926453,2|2,0:0|0:0,0:0:0:0:
81,305,33242,1,0,0:0:0:0:
251,228,33422,2,0,P|335:222|399:229,1,142.49999619484,2|0,0:0|0:0,0:0:0:0:
430,248,33781,2,0,L|423:191,1,47.4999987316132,8|0,0:0|0:0,0:0:0:0:
476,89,33961,38,0,B|441:135|388:126|388:126|346:96|290:105,1,189.999994926453
404,45,34500,1,2,0:0:0:0:
322,204,34679,2,0,P|319:263|331:302,1,94.9999974632264,0|2,0:0|0:0,0:0:0:0:
232,175,35039,1,0,0:0:0:0:
184,310,35218,38,0,B|156:314|143:337|143:337|156:314|180:235|133:190,1,187.5,8|0,0:0|0:0,0:0:0:0:
133,189,35578,38,0,P|80:192|32:186,1,94.9999974632264,2|0,0:0|0:0,0:0:0:0:
199,305,35937,2,0,P|252:302|300:308,1,94.9999974632264,2|0,0:0|0:0,0:0:0:0:
432,369,36296,2,0,P|382:316|383:227,1,142.49999619484,2|0,0:0|0:0,0:0:0:0:
394,234,36655,2,0,L|381:171,1,47.4999987316132,8|0,0:0|0:0,0:0:0:0:
305,119,36835,2,0,L|285:212,2,94.9999974632264,0|2|0,0:0|0:0|0:0,0:0:0:0:
209,262,37374,6,0,B|179:286|143:285|143:285|108:273|91:240,1,142.49999619484,2|0,0:0|0:0,0:0:0:0:
72,288,37733,6,0,L|51:116,1,172.500003290176,2|0,0:0|0:0,0:0:0:0:
120,6,38093,6,0,L|96:207,1,202.500000772476,10|0,0:0|0:0,0:0:0:0:
42,250,38452,6,0,B|89:224|89:224|213:247,1,179.999994506836,2|2,0:0|0:0,0:0:0:0:
25,164,38991,1,0,0:0:0:0:
105,309,39170,1,2,0:0:0:0:
105,309,39350,2,0,B|193:325,1,89.9999972534181,0|8,0:0|0:0,0:0:0:0:
300,237,39709,1,0,0:0:0:0:
412,294,39889,6,0,P|420:249|420:205,1,89.9999972534181,2|0,0:0|0:0,0:0:0:0:
300,253,40248,1,2,0:0:0:0:
213,165,40428,2,0,P|212:120|221:76,1,89.9999972534181,0|2,0:0|0:0,0:0:0:0:
291,14,40787,1,0,0:0:0:0:
194,83,40967,1,8,0:0:0:0:
162,90,41056,1,0,0:0:0:0:
128,93,41146,1,0,0:0:0:0:
94,91,41236,1,0,0:0:0:0:
61,83,41326,6,0,B|37:80|21:59|21:59|37:80|46:134|13:191,1,179.999994506836,2|2,0:0|0:0,0:0:0:0:
85,1,41865,1,0,0:0:0:0:
110,179,42045,1,2,0:0:0:0:
110,179,42224,2,0,P|162:173|206:179,1,89.9999972534181,0|8,0:0|0:0,0:0:0:0:
374,243,42584,38,0,P|322:249|278:243,1,89.9999972534181,0|2,0:0|0:0,0:0:0:0:
380,329,42943,1,0,0:0:0:0:
211,188,43123,1,2,0:0:0:0:
366,146,43302,2,0,L|414:155,1,44.999998626709
484,199,43482,5,2,0:0:0:0:
507,235,43571,1,0,0:0:0:0:
496,278,43661,1,0,0:0:0:0:
458,299,43751,1,0,0:0:0:0:
416,286,43841,5,8,0:0:0:0:
384,277,43931,1,0,0:0:0:0:
351,275,44021,1,0,0:0:0:0:
318,282,44111,1,0,0:0:0:0:
287,297,44200,38,0,B|205:279|200:336|102:299,1,179.999994506836,2|2,0:0|0:0,0:0:0:0:
255,379,44739,1,0,0:0:0:0:
167,224,44919,1,2,0:0:0:0:
167,224,45099,2,0,P|170:161|178:128,1,89.9999972534181,0|8,0:0|0:0,0:0:0:0:
78,26,45458,6,0,P|86:71|87:116,1,89.9999972534181,0|2,0:0|0:0,0:0:0:0:
0,86,45817,1,0,0:0:0:0:
188,9,45997,1,2,0:0:0:0:
85,137,46176,2,0,P|76:181|76:226,1,89.9999972534181,0|2,0:0|0:0,0:0:0:0:
180,185,46536,1,0,0:0:0:0:
0,69,46715,1,8,0:0:0:0:
82,235,46895,1,0,0:0:0:0:
11,380,47075,6,0,P|65:348|207:381,1,200,2|2,0:0|0:0,0:0:0:0:
224,235,47614,1,0,0:0:0:0:
463,318,47793,2,0,P|409:350|267:317,1,200,2|8,0:0|0:0,0:0:0:0:
368,158,48332,38,0,P|372:210|366:249,1,89.9999972534181,0|2,0:0|0:0,0:0:0:0:
294,101,48691,1,0,0:0:0:0:
351,27,48871,2,0,P|403:23|442:29,1,89.9999972534181,2|0,0:0|0:0,0:0:0:0:
278,113,49230,1,2,0:0:0:0:
385,167,49410,1,0,0:0:0:0:
203,166,49590,1,8,0:0:0:0:
248,275,49769,1,2,0:0:0:0:
138,117,49949,6,0,B|118:156|118:156|134:248,1,134.999995880127,4|0,0:0|0:0,0:0:0:0:
180,317,50308,2,0,P|154:326|126:328,1,55.0000016784668,8|0,0:0|0:0,0:0:0:0:
114,36,50667,38,0,P|172:40|221:105,1,134.999995880127,4|0,0:0|0:0,0:0:0:0:
213,181,51027,2,0,L|281:165,1,55.0000016784668,8|0,0:0|0:0,0:0:0:0:
480,357,51386,54,0,B|428:345|428:345|408:348|408:348|348:334,1,134.999995880127,4|0,0:0|0:0,0:0:0:0:
260,346,51745,2,0,P|265:305|261:277,1,55.0000016784668,8|0,0:0|0:0,0:0:0:0:
129,77,52105,38,0,B|106:108|106:108|127:194,1,120,2|0,0:0|0:0,0:0:0:0:
61,218,52464,38,0,P|133:219|175:277,1,150,8|0,0:0|0:0,0:0:0:0:
95,295,52823,54,0,L|290:308,1,179.999994506836,4|0,0:0|0:0,0:0:0:0:
208,273,53182,38,0,L|401:245,1,194.999991073609,4|0,0:0|0:0,0:0:0:0:
444,180,53542,38,0,B|392:204|392:204|226:181,1,225.000008583069,4|0,0:0|0:0,0:0:0:0:
64,206,53901,54,0,L|316:170,1,255.000004863739,4|0,0:0|0:0,0:0:0:0:
342,164,54260,37,4,0:0:0:0:
43,210,54440,1,0,0:0:0:0:
246,54,54620,1,8,0:0:0:0:
406,212,54799,38,0,B|379:242|379:242|270:254,1,150,4|0,0:0|0:0,0:0:0:0:
258,271,55158,2,0,L|318:263,1,55.0000016784668,2|0,0:0|0:0,0:0:0:0:
342,164,55338,1,0,1:0:0:0:
319,344,55518,54,0,B|244:357|244:357|205:337|205:337|131:350,1,194.999991073609,4|0,0:0|0:0,0:0:0:0:
103,359,55877,1,0,0:0:0:0:
258,271,56057,1,0,1:0:0:0:
78,368,56236,2,0,P|80:314|74:245,1,119.999996337891,0|2,0:0|0:0,0:0:0:0:
69,89,56596,1,0,0:0:0:0:
113,96,56685,1,0,0:0:0:0:
149,123,56775,1,0,1:0:0:0:
172,269,56955,38,0,P|170:215|176:146,1,119.999996337891,0|2,0:0|0:0,0:0:0:0:
244,55,57314,1,0,0:0:0:0:
305,208,57494,1,0,1:0:0:0:
188,131,57673,1,0,0:0:0:0:
362,304,57853,2,0,P|432:313|484:288,1,119.999996337891,2|0,0:0|0:0,0:0:0:0:
484,302,58123,1,0,0:0:0:0:
484,302,58212,2,0,L|491:361,1,59.9999981689454,0|0,1:0|0:0,0:0:0:0:
408,209,58392,38,0,P|401:143|404:81,1,119.999996337891,0|2,0:0|0:0,0:0:0:0:
485,0,58751,1,0,0:0:0:0:
474,142,58931,2,0,P|414:172|344:158,1,119.999996337891,0|0,1:0|0:0,0:0:0:0:
198,92,59290,1,2,0:0:0:0:
180,215,59470,1,0,0:0:0:0:
344,159,59649,1,0,1:0:0:0:
270,269,59829,54,0,P|265:331|286:388,1,119.999996337891,0|2,0:0|0:0,0:0:0:0:
179,344,60188,2,0,P|117:338|59:359,1,119.999996337891,0|0,0:0|1:0,0:0:0:0:
184,244,60548,1,0,0:0:0:0:
17,211,60727,1,2,0:0:0:0:
41,375,60907,1,0,0:0:0:0:
0,173,61087,1,0,1:0:0:0:
2,128,61176,1,0,0:0:0:0:
25,90,61266,1,0,0:0:0:0:
64,69,61356,1,0,0:0:0:0:
108,69,61446,38,0,B|160:108|160:108|277:87,1,179.999994506836,6|0,0:0|0:0,0:0:0:0:
332,35,61805,1,0,1:0:0:0:
438,55,61985,2,0,P|412:107|428:164,1,119.999996337891,0|2,0:0|0:0,0:0:0:0:
325,256,62344,1,0,0:0:0:0:
281,249,62433,1,0,0:0:0:0:
245,222,62523,1,0,1:0:0:0:
365,251,62703,38,0,P|424:250|477:277,2,119.999996337891,0|2|0,0:0|0:0|0:0,0:0:0:0:
275,383,63242,1,0,1:0:0:0:
461,362,63422,2,0,P|401:362|348:335,1,119.999996337891,0|2,0:0|0:0,0:0:0:0:
174,257,63781,1,0,0:0:0:0:
171,302,63871,1,0,0:0:0:0:
180,348,63961,1,0,1:0:0:0:
188,215,64141,54,0,P|203:156|203:96,1,119.999996337891,0|6,0:0|0:0,0:0:0:0:
94,227,64500,1,0,0:0:0:0:
295,159,64679,1,0,1:0:0:0:
273,346,64859,2,0,P|330:340|398:360,1,119.999996337891,0|2,0:0|0:0,0:0:0:0:
492,318,65218,1,0,0:0:0:0:
492,318,65308,1,0,0:0:0:0:
492,318,65398,2,0,P|499:353|499:377,1,59.9999981689454,0|0,1:0|0:0,0:0:0:0:
405,251,65578,38,0,P|392:192|401:71,1,179.999994506836,4|0,0:0|0:0,0:0:0:0:
463,17,65937,2,0,B|411:56|411:56|281:30,1,179.999994506836,4|0,0:0|0:0,0:0:0:0:
214,88,66296,2,0,L|331:64,1,119.999996337891,4|0,0:0|0:0,0:0:0:0:
124,50,66655,2,0,P|120:93|130:138,1,59.9999981689454,2|0,0:0|0:0,0:0:0:0:
185,188,66835,1,0,1:0:0:0:
0,279,67015,38,0,B|99:314|103:244|189:285,1,194.999991073609,4|0,0:0|0:0,0:0:0:0:
136,353,67374,2,0,P|102:366|62:368,1,59.9999981689454
53,207,67554,1,0,1:0:0:0:
136,353,67733,2,0,P|199:369|252:343,1,119.999996337891,0|2,0:0|0:0,0:0:0:0:
423,204,68093,1,0,0:0:0:0:
379,211,68182,1,0,0:0:0:0:
343,238,68272,1,0,1:0:0:0:
320,384,68452,54,0,P|322:330|316:261,1,119.999996337891,0|2,0:0|0:0,0:0:0:0:
245,168,68811,1,0,0:0:0:0:
158,279,68991,1,0,1:0:0:0:
288,266,69170,1,0,0:0:0:0:
127,283,69350,2,0,P|112:222|60:188,1,119.999996337891,2|0,0:0|0:0,0:0:0:0:
75,197,69620,1,0,0:0:0:0:
75,197,69709,2,0,L|8:206,1,59.9999981689454,0|0,1:0|0:0,0:0:0:0:
124,115,69889,38,0,P|217:122|318:109,1,179.999994506836
324,104,70248,2,0,P|326:62|321:37,1,59.9999981689454
369,197,70428,2,0,P|306:217|243:220,1,119.999996337891,0|0,1:2|0:0,0:0:0:0:
477,265,70787,2,0,B|487:239|477:212|477:212|485:179|473:151|473:151|488:110|476:58,1,209.999993591309,2|0,0:0|0:0,0:0:0:0:
472,40,71147,1,0,1:0:0:0:
393,193,71326,38,0,P|383:260|381:316,1,119.999996337891,0|2,0:0|0:0,0:0:0:0:
291,196,71685,1,0,0:0:0:0:
473,284,71865,1,0,1:0:0:0:
299,358,72045,2,0,P|251:332|235:269,1,119.999996337891,0|2,0:0|0:0,0:0:0:0:
140,213,72404,1,0,0:0:0:0:
140,213,72494,1,0,0:0:0:0:
140,213,72584,2,0,P|127:249|129:288,1,59.9999981689454,0|0,1:0|0:0,0:0:0:0:
156,358,72763,1,2,0:0:0:0:
175,114,72943,54,0,P|170:54|147:0,1,119.999996337891,2|0,0:0|0:0,0:0:0:0:
78,143,73302,1,0,1:0:0:0:
270,102,73482,2,0,P|329:106|384:129,1,119.999996337891,0|2,0:0|0:0,0:0:0:0:
454,217,73841,1,0,0:0:0:0:
447,261,73930,1,0,0:0:0:0:
420,297,74020,1,0,1:0:0:0:
278,350,74200,38,0,P|337:345|392:322,1,119.999996337891,0|2,0:0|0:0,0:0:0:0:
227,273,74560,1,0,0:0:0:0:
143,341,74739,38,0,P|123:281|163:186,1,165.000005035401,0|0,1:0|0:0,0:0:0:0:
212,136,75099,2,0,P|170:183|67:196,1,165.000005035401,2|0,0:0|0:0,0:0:0:0:
0,179,75458,2,0,P|61:191|124:273,1,165.000005035401,0|0,1:0|0:0,0:0:0:0:
14,292,75817,54,0,P|87:279|210:302,1,179.999994506836,4|0,0:0|0:0,0:0:0:0:
224,304,76176,1,0,1:0:0:0:
319,338,76356,2,0,P|401:320|321:252,1,239.999992675781
244,284,76895,38,0,B|222:213|272:150|345:166|345:166|327:127|342:89|342:89|381:37|442:55|442:55|466:127|400:124,1,479.999985351563,0|0,1:0|1:0,0:0:0:0:
293,14,77793,1,0,0:0:0:0:
297,18,78152,2,0,P|268:52|259:96,1,89.9999972534181,0|0,0:0|1:0,0:0:0:0:
201,174,78512,1,0,0:0:0:0:
123,31,78691,54,0,P|106:96|106:163,1,134.999995880127,4|0,0:0|0:0,0:0:0:0:
115,175,79051,1,0,1:0:0:0:
25,232,79230,1,0,0:0:0:0:
163,258,79410,1,2,0:0:0:0:
41,345,79590,1,0,0:0:0:0:
41,345,79679,1,0,0:0:0:0:
41,345,79769,1,0,1:0:0:0:
186,245,79949,38,0,B|226:258|236:288|236:288|282:236|330:258|330:258|309:281|283:272,1,209.999993591309,4|0,0:0|0:0,0:0:0:0:
289,352,80308,2,0,P|324:349|355:336,1,69.9999978637696,4|0,0:0|0:0,0:0:0:0:
310,172,80488,2,0,P|275:171|244:184,1,69.9999978637696,4|0,0:0|0:0,0:0:0:0:
220,72,81566,54,0,L|85:60,1,134.999995880127,4|0,0:0|0:0,0:0:0:0:
78,69,81925,2,0,L|122:72,1,44.999998626709,0|0,1:0|0:0,0:0:0:0:
358,77,82105,2,0,L|223:65,1,134.999995880127,4|0,0:0|0:0,0:0:0:0:
220,72,82464,1,0,0:0:0:0:
140,163,82644,2,0,L|184:166,1,44.999998626709,0|0,1:0|0:0,0:0:0:0:
420,171,82823,38,0,L|285:159,1,134.999995880127,4|0,0:0|0:0,0:0:0:0:
282,166,83182,1,0,0:0:0:0:
202,257,83362,2,0,L|246:260,1,44.999998626709,0|0,1:0|0:0,0:0:0:0:
482,265,83541,2,0,L|347:253,1,134.999995880127,4|0,0:0|0:0,0:0:0:0:
344,260,83900,1,0,0:0:0:0:
264,351,84081,2,0,L|308:354,1,44.999998626709,0|0,1:0|0:0,0:0:0:0:
453,348,84260,2,0,L|409:345,1,44.999998626709,0|0,1:0|0:0,0:0:0:0:
255,260,84440,5,4,0:0:0:0:
256,192,84530,12,2,86596,0:0:0:0:
