osu file format v14

[General]
AudioFilename: audio.mp3
AudioLeadIn: 0
PreviewTime: 54979
Countdown: 0
SampleSet: Soft
StackLeniency: 0.7
Mode: 3
LetterboxInBreaks: 0
SpecialStyle: 0
WidescreenStoryboard: 0

[Editor]
DistanceSpacing: 1.4
BeatDivisor: 4
GridSize: 4
TimelineZoom: 1.1

[Metadata]
Title:Signal Graph Short ver
TitleUnicode:シグナルグラフ ショートver
Artist:Annabel
ArtistUnicode:Annabel
Creator:Amiichii
Version:Normal
Source:恋と選挙とチョコレート
Tags:opening OP anime koi to senkyo to chocolate koichoco Love Election and Chocolate TV Size 恋チョコ
BeatmapID:1357525
BeatmapSetID:556998

[Difficulty]
HPDrainRate:7
CircleSize:7
OverallDifficulty:7
ApproachRate:5
SliderMultiplier:1.6
SliderTickRate:1

[Events]
//Background and Video events
Video,-640,"op.avi"
0,0,"BG.jpg",0,0
//Break Periods
//Storyboard Layer 0 (Background)
//Storyboard Layer 1 (Fail)
//Storyboard Layer 2 (Pass)
//Storyboard Layer 3 (Foreground)
//Storyboard Sound Samples
Sample,6835,0,"F6S.wav",70
Sample,7554,0,"G6S.wav",70
Sample,8272,0,"C6S.wav",70
Sample,8991,0,"A#5S_Bb5S.wav",70
Sample,9709,0,"F5S.wav",70
Sample,10607,0,"C6S.wav",70
Sample,10967,0,"C6S.wav",70
Sample,11865,0,"F5S.wav",70
Sample,12045,0,"A#5S_Bb5S.wav",70
Sample,12584,0,"D6S.wav",70
Sample,13122,0,"D6S.wav",70
Sample,13482,0,"A#5S_Bb5S.wav",70
Sample,13841,0,"A#5S_Bb5S.wav",70
Sample,14380,0,"C6S.wav",70
Sample,14919,0,"C6S_s.wav",70
Sample,26955,0,"A#5S_Bb5S.wav",70
Sample,27494,0,"A5S.wav",70
Sample,29110,0,"D6S.wav",70
Sample,29829,0,"A#5S_Bb5S.wav",70
Sample,30368,0,"A5S.wav",70
Sample,31985,0,"C6S.wav",70
Sample,32703,0,"A#5S_Bb5S.wav",70
Sample,33242,0,"A5S.wav",70
Sample,34320,0,"F5S.wav",70
Sample,34859,0,"F5S.wav",70
Sample,35578,0,"A#5S_Bb5S.wav",70
Sample,36116,0,"A5S.wav",70
Sample,37374,0,"D5S.wav",70
Sample,37733,0,"F5S.wav",70
Sample,38092,0,"A#5S_Bb5S.wav",70
Sample,38452,0,"C6S.wav",70
Sample,38991,0,"D7S.wav",70
Sample,41326,0,"A#6S_Bb6S.wav",70
Sample,41865,0,"F6S_s.wav",70
Sample,43302,0,"F6S.wav",70
Sample,43661,0,"D#6S_Eb6S.wav",70
Sample,44021,0,"C6S.wav",70
Sample,44200,0,"D6S.wav",70
Sample,44739,0,"A#6S_Bb6S.wav",70
Sample,45637,0,"A#5S_Bb5S.wav",70
Sample,45817,0,"A#5S_Bb5S.wav",70
Sample,45997,0,"F6S.wav",70
Sample,46176,0,"A#6S_Bb6S.wav",70
Sample,46536,0,"D7S.wav",70
Sample,46895,0,"D#8S_Eb8S.wav",70
Sample,47075,0,"F6S.wav",70
Sample,48691,0,"A#5S_Bb5S.wav",70
Sample,48871,0,"F6S.wav",70
Sample,49051,0,"A#6S_Bb6S.wav",70
Sample,49230,0,"F6S.wav",70
Sample,49410,0,"A#5S_Bb5S.wav",70
Sample,49589,0,"C6S.wav",70
Sample,49949,0,"A#5S_Bb5S.wav",70
Sample,50667,0,"C6S.wav",70
Sample,51386,0,"F5S.wav",70
Sample,52104,0,"A#5S_Bb5S.wav",70
Sample,52823,0,"C6S.wav",70
Sample,53542,0,"A#5S_Bb5S.wav",70
Sample,54440,0,"C6S.wav",70
Sample,54799,0,"C6S_s.wav",70
Sample,55518,0,"G#5S_Ab5S.wav",70
Sample,57134,0,"A#5S_Bb5S.wav",70
Sample,57853,0,"D#6S_Eb6S.wav",70
Sample,58572,0,"G5S.wav",70
Sample,59110,0,"G#5S_Ab5S.wav",70
Sample,59290,0,"A#5S_Bb5S.wav",70
Sample,60009,0,"D#6S_Eb6S.wav",70
Sample,60188,0,"G#6S_Ab6S.wav",70
Sample,60548,0,"G#6S_Ab6S.wav",70
Sample,60907,0,"D#6S_Eb6S.wav",70
Sample,61446,0,"G#5S_Ab5S.wav",70
Sample,61985,0,"G#5S_Ab5S.wav",70
Sample,62883,0,"A#5S_Bb5S.wav",70
Sample,63422,0,"A#5S_Bb5S.wav",70
Sample,64320,0,"G5S.wav",70
Sample,64500,0,"D#6S_Eb6S.wav",70
Sample,64859,0,"D#6S_Eb6S.wav",70
Sample,67015,0,"G#5S_Ab5S.wav",70
Sample,68631,0,"G#5S_Ab5S.wav",70
Sample,69170,0,"D#6S_Eb6S.wav",70
Sample,69350,0,"D#7S_Eb7S.wav",70
Sample,69350,0,"A#5S_Bb5S.wav",70
Sample,69530,0,"D#6S_Eb6S.wav",70
Sample,70069,0,"D#6S_Eb6S.wav",70
Sample,70607,0,"G#5S_Ab5S.wav",70
Sample,70787,0,"A#5S_Bb5S.wav",70
Sample,71506,0,"D#6S_Eb6S.wav",70
Sample,71685,0,"G#6S_Ab6S.wav",70
Sample,72045,0,"G#6S_Ab6S.wav",70
Sample,72943,0,"G#5S_Ab5S.wav",70
Sample,73482,0,"G#5S_Ab5S.wav",70
Sample,74200,0,"A#5S_Bb5S.wav",70
Sample,77434,0,"G5S.wav",70
Sample,77793,0,"G#5S_Ab5S.wav",70
Sample,77973,0,"G#5S_Ab5S.wav",70
Sample,78691,0,"D#6S_Eb6S.wav",70
Sample,79589,0,"D#7S_Eb7S.wav",70
Sample,79949,0,"D#7S_Eb7S.wav",70
Sample,79949,0,"G#6S_Ab6S.wav",70
Sample,80308,0,"A#6S_Bb6S.wav",70
Sample,80488,0,"A#6S_Bb6S.wav",70
Sample,86595,0,"G#7S_Ab7S.wav",70
Sample,86595,0,"F#6S_Gb6S.wav",70
Sample,86595,0,"C#6S_Db6S.wav",70

[TimingPoints]
1087,359.281437125748,4,2,1,70,1,0
55518,-100,4,2,1,70,0,1
66296,-100,4,2,1,70,0,0
67015,-100,4,2,1,70,0,1
80488,-100,4,2,1,70,0,0

[HitObjects]
36,192,548,5,0,0:0:0:70:C7S.wav
256,192,727,1,0,0:0:0:70:C7S.wav
475,192,907,1,0,0:0:0:70:C7S.wav
36,192,1087,1,0,0:0:0:0:
402,192,1266,1,0,0:0:0:70:G#6S_Ab6S.wav
256,192,1446,1,0,0:0:0:70:G#6S_Ab6S.wav
109,192,1625,1,0,0:0:0:70:G#6S_Ab6S.wav
36,192,1985,1,0,0:0:0:70:F6S.wav
182,192,2164,1,0,0:0:0:70:F6S.wav
329,192,2344,1,0,0:0:0:70:F6S.wav
475,192,2524,1,0,0:0:0:0:
109,192,2703,1,0,0:0:0:70:F6S.wav
329,192,2883,1,0,0:0:0:70:C7S.wav
182,192,3063,1,0,0:0:0:70:A#6S_Bb6S.wav
402,192,3422,1,0,0:0:0:70:G#6S_Ab6S.wav
109,192,3601,1,0,0:0:0:70:G6S.wav
329,192,3781,1,0,0:0:0:70:G#6S_Ab6S.wav
182,192,3961,1,0,0:0:0:70:D#6S_Eb6S.wav
36,192,4320,128,0,4679:0:0:0:70:G#6S_Ab6S.wav
256,192,4679,128,0,5039:0:0:0:70:D#7S_Eb7S.wav
475,192,5039,128,0,6476:0:0:0:70:D#8S_Eb8S.wav
36,192,5039,128,0,6476:0:0:0:0:
402,192,6835,1,4,0:0:0:0:
109,192,6835,1,2,0:0:0:0:
329,192,7194,1,8,0:0:0:0:
182,192,7194,1,0,0:0:0:0:
256,192,7554,1,2,0:0:0:0:
36,192,7913,1,8,0:0:0:0:
402,192,7913,1,0,0:0:0:0:
182,192,8272,1,2,0:0:0:0:
109,192,8631,1,8,0:0:0:0:
475,192,8631,1,0,0:0:0:0:
402,192,8991,1,2,0:0:0:0:
329,192,9350,1,8,0:0:0:0:
36,192,9350,1,0,0:0:0:70:A5S.wav
109,192,9709,1,2,0:0:0:0:
475,192,10069,1,8,0:0:0:0:
182,192,10069,1,0,0:0:0:0:
402,192,10428,1,2,0:0:0:0:
329,192,10787,1,8,0:0:0:0:
109,192,10787,1,0,0:0:0:0:
256,192,11146,1,2,0:0:0:0:
475,192,11506,1,8,0:0:0:0:
36,192,11506,1,0,0:0:0:70:A#5S_Bb5S.wav
109,192,11865,1,2,0:0:0:0:
402,192,12224,1,8,0:0:0:0:
182,192,12224,1,0,0:0:0:70:C6S.wav
329,192,12584,1,2,0:0:0:0:
36,192,12943,1,8,0:0:0:0:
256,192,12943,1,0,0:0:0:70:D#6S_Eb6S.wav
475,192,13302,1,2,0:0:0:0:
402,192,13661,1,8,0:0:0:0:
182,192,13661,1,0,0:0:0:0:
36,192,13841,1,2,0:0:0:0:
329,192,14200,1,2,0:0:0:0:
402,192,14380,128,2,14739:0:0:0:0:
475,192,14380,128,0,14739:0:0:0:70:C6S.wav
36,192,14919,128,2,15278:0:0:0:0:
109,192,14919,128,0,15278:0:0:0:70:C6S_s.wav
402,192,15458,1,0,0:0:0:70:soft-hitclap99.wav
182,192,15458,1,2,0:0:0:0:
402,192,15817,1,2,0:0:0:0:
475,192,16176,1,2,0:0:0:0:
475,192,16536,1,2,0:0:0:0:
109,192,16895,1,2,0:0:0:0:
109,192,17254,1,2,0:0:0:0:
36,192,17613,1,2,0:0:0:0:
36,192,17973,1,2,0:0:0:0:
329,192,18332,1,2,0:0:0:0:
329,192,18691,1,2,0:0:0:0:
475,192,19051,1,2,0:0:0:0:
475,192,19410,1,2,0:0:0:0:
182,192,19769,1,2,0:0:0:0:
182,192,20128,1,2,0:0:0:0:
36,192,20488,1,2,0:0:0:0:
36,192,20847,1,2,0:0:0:0:
109,192,21206,1,2,0:0:0:0:
109,192,21566,1,2,0:0:0:0:
256,192,21925,1,2,0:0:0:0:
256,192,22284,1,2,0:0:0:0:
402,192,22643,1,2,0:0:0:0:
402,192,23003,1,2,0:0:0:0:
256,192,23362,1,2,0:0:0:0:
256,192,23721,1,2,0:0:0:0:
109,192,24081,1,2,0:0:0:0:
109,192,24440,1,2,0:0:0:0:
475,192,24799,1,2,0:0:0:0:
475,192,25158,128,2,25338:0:0:0:0:
329,192,25338,128,0,25518:0:0:0:0:
182,192,25518,128,2,25697:0:0:0:0:
36,192,25697,128,0,25877:0:0:0:0:
402,192,25877,128,2,26057:0:0:0:0:
256,192,26057,128,0,26236:0:0:0:0:
109,192,26236,128,2,26416:0:0:0:0:
475,192,26416,128,0,26595:0:0:0:0:
329,192,26595,128,2,26775:0:0:0:0:
182,192,26775,128,2,26955:0:0:0:0:
36,192,26955,1,2,0:0:0:0:
109,192,27314,1,2,0:0:0:0:
256,192,27673,1,2,0:0:0:0:
182,192,28033,1,8,0:0:0:0:
475,192,28033,1,0,0:0:0:70:F5S.wav
109,192,28392,1,2,0:0:0:0:
256,192,28751,1,2,0:0:0:0:
402,192,29110,128,2,29470:0:0:0:0:
109,192,29470,1,8,0:0:0:0:
36,192,29470,128,0,29829:0:0:0:70:C6S.wav
256,192,29829,1,2,0:0:0:0:
402,192,30188,1,2,0:0:0:0:
182,192,30548,1,2,0:0:0:0:
329,192,30907,1,8,0:0:0:0:
36,192,30907,1,0,0:0:0:70:F5S.wav
109,192,31266,1,2,0:0:0:0:
182,192,31625,1,2,0:0:0:0:
402,192,31985,128,2,32344:0:0:0:0:
109,192,32344,1,8,0:0:0:0:
256,192,32344,128,0,32703:0:0:0:70:C6S.wav
475,192,32703,1,2,0:0:0:0:
182,192,33063,1,2,0:0:0:0:
402,192,33422,1,2,0:0:0:0:
36,192,33781,1,8,0:0:0:0:
329,192,33781,1,0,0:0:0:70:F5S.wav
182,192,34140,1,2,0:0:0:0:
109,192,34500,1,2,0:0:0:0:
402,192,34859,128,2,35218:0:0:0:0:
256,192,35218,1,8,0:0:0:0:
36,192,35218,1,0,0:0:0:0:
109,192,35578,1,2,0:0:0:0:
402,192,35937,1,2,0:0:0:0:
182,192,36296,1,2,0:0:0:0:
256,192,36655,1,8,0:0:0:0:
475,192,36655,1,0,0:0:0:70:D5S.wav
329,192,37015,1,2,0:0:0:0:
36,192,37374,128,2,38452:0:0:0:0:
475,192,37733,128,2,38452:0:0:0:0:
182,192,38092,1,8,0:0:0:0:
256,192,38092,128,2,38452:0:0:0:0:
329,192,38452,1,2,0:0:0:0:
182,192,38811,1,2,0:0:0:0:
329,192,39170,1,2,0:0:0:0:
109,192,39530,1,8,0:0:0:0:
475,192,39530,1,0,0:0:0:0:
256,192,39889,1,2,0:0:0:0:
109,192,40248,1,2,0:0:0:0:
475,192,40607,1,2,0:0:0:0:
36,192,40967,1,8,0:0:0:0:
329,192,40967,1,0,0:0:0:0:
182,192,41326,1,2,0:0:0:0:
402,192,41685,1,2,0:0:0:0:
329,192,42045,1,2,0:0:0:0:
36,192,42404,1,8,0:0:0:0:
256,192,42404,1,0,0:0:0:0:
109,192,42763,1,2,0:0:0:0:
182,192,43122,1,2,0:0:0:0:
402,192,43482,128,2,43841:0:0:0:0:
109,192,43841,128,8,44200:0:0:0:0:
36,192,43841,1,0,0:0:0:70:D6S.wav
256,192,44200,1,2,0:0:0:0:
182,192,44560,1,2,0:0:0:0:
109,192,44919,1,2,0:0:0:0:
36,192,45278,1,8,0:0:0:0:
329,192,45278,1,0,0:0:0:0:
182,192,45637,1,2,0:0:0:0:
256,192,45997,1,2,0:0:0:0:
329,192,46356,1,2,0:0:0:0:
182,192,46715,1,8,0:0:0:0:
475,192,46715,1,0,0:0:0:70:D#7S_Eb7S.wav
36,192,47075,1,2,0:0:0:0:
402,192,47434,1,2,0:0:0:0:
182,192,47793,1,2,0:0:0:0:
329,192,48152,1,8,0:0:0:0:
475,192,48152,1,0,0:0:0:0:
109,192,48512,1,2,0:0:0:0:
402,192,48871,1,2,0:0:0:0:
36,192,49230,1,2,0:0:0:0:
109,192,49589,1,8,0:0:0:0:
402,192,49589,1,0,0:0:0:0:
256,192,49769,1,2,0:0:0:0:
475,192,49949,128,2,51386:0:0:0:0:
182,192,50308,1,8,0:0:0:0:
329,192,50308,1,0,0:0:0:0:
36,192,50667,128,2,51386:0:0:0:0:
329,192,51027,1,8,0:0:0:0:
402,192,51027,1,0,0:0:0:0:
182,192,51386,128,2,52823:0:0:0:0:
109,192,51745,1,8,0:0:0:0:
402,192,51745,1,0,0:0:0:0:
329,192,52104,128,2,52823:0:0:0:0:
475,192,52464,1,8,0:0:0:0:
36,192,52464,1,0,0:0:0:0:
256,192,52823,1,2,0:0:0:0:
182,192,53182,1,8,0:0:0:0:
109,192,53182,1,0,0:0:0:70:F6S.wav
329,192,53542,1,2,0:0:0:0:
182,192,53901,1,8,0:0:0:0:
402,192,53901,1,0,0:0:0:70:C6S.wav
109,192,54260,1,2,0:0:0:0:
329,192,54260,1,0,0:0:0:70:F6S.wav
402,192,54619,1,8,0:0:0:0:
36,192,54619,1,0,0:0:0:70:A#5S_Bb5S.wav
256,192,54799,1,2,0:0:0:0:
329,192,55158,1,2,0:0:0:0:
109,192,55338,1,2,0:0:0:0:
256,192,55518,1,2,0:0:0:0:
475,192,55518,128,4,57134:0:0:0:0:
182,192,56057,1,8,0:0:0:0:
36,192,56057,1,0,0:0:0:0:
329,192,56416,1,2,0:0:0:0:
256,192,56775,1,8,0:0:0:0:
109,192,56775,1,0,0:0:0:0:
182,192,57134,128,2,58572:0:0:0:0:
329,192,57494,1,8,0:0:0:0:
36,192,57494,1,0,0:0:0:0:
402,192,57853,1,2,0:0:0:0:
475,192,58212,1,8,0:0:0:0:
256,192,58212,1,0,0:0:0:0:
36,192,58572,128,2,60009:0:0:0:0:
329,192,58931,1,8,0:0:0:0:
402,192,58931,1,0,0:0:0:70:G5S.wav
256,192,59290,1,2,0:0:0:0:
182,192,59649,1,8,0:0:0:0:
109,192,59649,1,0,0:0:0:0:
256,192,60009,1,2,0:0:0:0:
329,192,60368,1,8,0:0:0:0:
475,192,60368,1,0,0:0:0:70:D#6S_Eb6S.wav
256,192,60727,1,2,0:0:0:0:
182,192,61086,1,8,0:0:0:0:
36,192,61086,1,0,0:0:0:0:
329,192,61446,128,2,62883:0:0:0:0:
109,192,61805,1,8,0:0:0:0:
475,192,61805,1,0,0:0:0:0:
182,192,62164,1,2,0:0:0:0:
36,192,62524,1,8,0:0:0:0:
256,192,62524,1,0,0:0:0:70:G#5S_Ab5S.wav
109,192,62883,128,2,64320:0:0:0:0:
402,192,63242,1,8,0:0:0:0:
182,192,63242,1,0,0:0:0:0:
256,192,63601,1,2,0:0:0:0:
329,192,63961,1,8,0:0:0:0:
475,192,63961,1,0,0:0:0:70:A#5S_Bb5S.wav
36,192,64320,128,2,65039:0:0:0:0:
402,192,64679,1,8,0:0:0:0:
182,192,64679,1,0,0:0:0:70:D#7S_Eb7S.wav
475,192,65039,128,2,65218:0:0:0:0:
109,192,65218,128,0,65398:0:0:0:0:
329,192,65398,128,8,65578:0:0:0:0:
182,192,65578,1,2,0:0:0:0:
36,192,65578,1,4,0:0:0:0:
109,192,65937,1,4,0:0:0:0:
256,192,65937,1,2,0:0:0:0:
182,192,66296,1,4,0:0:0:0:
329,192,66296,1,2,0:0:0:0:
329,192,66655,1,2,0:0:0:0:
402,192,66835,1,2,0:0:0:0:
256,192,66835,1,0,0:0:0:0:
475,192,67015,1,4,0:0:0:0:
36,192,67015,128,2,68631:0:0:0:0:
256,192,67554,1,8,0:0:0:0:
402,192,67554,1,0,0:0:0:0:
182,192,67913,1,2,0:0:0:0:
109,192,68272,1,8,0:0:0:0:
329,192,68272,1,0,0:0:0:0:
402,192,68631,128,2,70069:0:0:0:0:
256,192,68991,1,8,0:0:0:0:
109,192,68991,1,0,0:0:0:0:
182,192,69350,128,2,70069:0:0:0:0:
329,192,69709,1,8,0:0:0:0:
36,192,69709,1,0,0:0:0:0:
475,192,70069,128,2,71506:0:0:0:0:
329,192,70428,1,8,0:0:0:0:
109,192,70428,1,0,0:0:0:70:G5S.wav
36,192,70787,128,2,71506:0:0:0:0:
402,192,71146,1,8,0:0:0:0:
182,192,71146,1,0,0:0:0:0:
329,192,71506,1,2,0:0:0:0:
256,192,71865,1,8,0:0:0:0:
109,192,71865,1,0,0:0:0:70:D#6S_Eb6S.wav
402,192,72224,1,2,0:0:0:0:
329,192,72584,1,8,0:0:0:0:
182,192,72584,1,0,0:0:0:0:
475,192,72943,1,2,0:0:0:0:
36,192,73302,1,8,0:0:0:0:
256,192,73302,1,0,0:0:0:0:
182,192,73661,1,2,0:0:0:0:
109,192,74021,1,8,0:0:0:0:
402,192,74021,1,0,0:0:0:70:G#5S_Ab5S.wav
256,192,74380,1,2,0:0:0:0:
475,192,74739,128,8,75098:0:0:0:0:
182,192,74739,1,0,0:0:0:0:
329,192,75098,128,2,75458:0:0:0:0:
36,192,75458,128,8,75817:0:0:0:0:
182,192,75458,1,0,0:0:0:0:
256,192,75817,1,2,0:0:0:0:
109,192,76176,1,8,0:0:0:0:
329,192,76176,1,0,0:0:0:0:
402,192,76536,1,2,0:0:0:0:
182,192,76895,1,8,0:0:0:0:
475,192,76895,1,0,0:0:0:0:
256,192,77254,1,2,0:0:0:0:
402,192,77613,1,8,0:0:0:0:
109,192,77613,1,0,0:0:0:70:G5S.wav
182,192,77973,1,2,0:0:0:0:
36,192,78332,1,8,0:0:0:0:
329,192,78332,1,0,0:0:0:70:A#5S_Bb5S.wav
256,192,78691,128,2,79769:0:0:0:0:
109,192,79051,1,8,0:0:0:0:
402,192,79051,1,0,0:0:0:0:
182,192,79410,1,2,0:0:0:0:
329,192,79769,1,8,0:0:0:0:
402,192,79769,1,0,0:0:0:0:
182,192,79949,1,4,0:0:0:0:
109,192,79949,1,8,0:0:0:0:
329,192,80308,1,8,0:0:0:0:
475,192,80308,1,4,0:0:0:0:
36,192,80488,1,8,0:0:0:0:
182,192,80488,1,4,0:0:0:0:
475,192,81566,128,0,82104:0:0:0:70:C#6S_Db6S.wav
329,192,81566,1,2,0:0:0:0:
182,192,81925,1,8,0:0:0:0:
36,192,81925,1,0,0:0:0:0:
109,192,82104,1,2,0:0:0:0:
329,192,82104,128,0,82823:0:0:0:70:C6S.wav
256,192,82464,1,2,0:0:0:0:
402,192,82643,1,8,0:0:0:0:
475,192,82643,1,0,0:0:0:0:
36,192,82823,1,2,0:0:0:0:
182,192,82823,128,0,83542:0:0:0:70:A#5S_Bb5S.wav
256,192,83182,1,2,0:0:0:0:
329,192,83362,1,8,0:0:0:0:
402,192,83362,1,0,0:0:0:0:
475,192,83542,1,2,0:0:0:0:
36,192,83542,128,0,84440:0:0:0:70:D#6S_Eb6S.wav
256,192,83901,1,2,0:0:0:0:
329,192,84081,1,8,0:0:0:0:
402,192,84081,1,0,0:0:0:0:
109,192,84260,1,8,0:0:0:0:
182,192,84260,1,0,0:0:0:0:
475,192,84440,128,0,86595:0:0:0:70:C#6S_Db6S.wav
329,192,84440,1,6,0:0:0:0:
402,192,84799,128,0,84979:0:0:0:70:C6S.wav
109,192,84979,128,0,85518:0:0:0:70:G#5S_Ab5S.wav
36,192,85518,128,0,86595:0:0:0:70:A#5S_Bb5S.wav
256,192,86595,1,0,0:0:0:70:G#6S_Ab6S.wav
