osu file format v14

[General]
AudioFilename: audio.mp3
AudioLeadIn: 0
PreviewTime: 54979
Countdown: 0
SampleSet: Soft
StackLeniency: 0.7
Mode: 3
LetterboxInBreaks: 0
SpecialStyle: 0
WidescreenStoryboard: 0

[Editor]
DistanceSpacing: 1.4
BeatDivisor: 6
GridSize: 4
TimelineZoom: 1.9

[Metadata]
Title:Signal Graph Short ver
TitleUnicode:シグナルグラフ ショートver
Artist:Annabel
ArtistUnicode:Annabel
Creator:Amiichii
Version:Hard
Source:恋と選挙とチョコレート
Tags:opening OP anime koi to senkyo to chocolate koichoco Love Election and Chocolate TV Size 恋チョコ
BeatmapID:1357524
BeatmapSetID:556998

[Difficulty]
HPDrainRate:7.5
CircleSize:7
OverallDifficulty:7.5
ApproachRate:5
SliderMultiplier:1.6
SliderTickRate:1

[Events]
//Background and Video events
Video,-640,"op.avi"
0,0,"BG.jpg",0,0
//Break Periods
//Storyboard Layer 0 (Background)
//Storyboard Layer 1 (Fail)
//Storyboard Layer 2 (Pass)
//Storyboard Layer 3 (Foreground)
//Storyboard Sound Samples
Sample,69350,0,"D#7S_Eb7S.wav",70
Sample,86595,0,"G#7S_Ab7S.wav",70
Sample,86595,0,"G#7S_Ab7S.wav",70

[TimingPoints]
1087,359.281437125748,4,2,1,70,1,0
55518,-100,4,2,1,70,0,1
66296,-100,4,2,1,70,0,0
67015,-100,4,2,1,70,0,1
80488,-100,4,2,1,70,0,0

[HitObjects]
109,192,548,5,0,0:0:0:70:C7S.wav
109,192,727,1,0,0:0:0:70:C7S.wav
109,192,907,1,0,0:0:0:70:C7S.wav
402,192,1087,128,0,2524:0:0:0:0:
182,192,1266,1,0,0:0:0:70:G#6S_Ab6S.wav
182,192,1446,1,0,0:0:0:70:G#6S_Ab6S.wav
182,192,1625,1,0,0:0:0:70:G#6S_Ab6S.wav
256,192,1985,1,0,0:0:0:70:F6S.wav
256,192,2164,1,0,0:0:0:70:F6S.wav
256,192,2344,1,0,0:0:0:70:F6S.wav
36,192,2524,128,0,3961:0:0:0:0:
182,192,2703,1,0,0:0:0:70:F6S.wav
475,192,2883,1,0,0:0:0:70:C7S.wav
329,192,3063,1,0,0:0:0:70:A#6S_Bb6S.wav
109,192,3422,1,0,0:0:0:70:G#6S_Ab6S.wav
402,192,3601,1,0,0:0:0:70:G6S.wav
182,192,3781,1,0,0:0:0:70:G#6S_Ab6S.wav
475,192,3961,128,0,6476:0:0:0:70:D#6S_Eb6S.wav
329,192,3961,1,0,0:0:0:0:
109,192,4320,128,0,4679:0:0:0:70:G#6S_Ab6S.wav
402,192,4320,128,0,4679:0:0:0:0:
182,192,4679,128,0,5039:0:0:0:70:D#7S_Eb7S.wav
329,192,4679,128,0,5039:0:0:0:0:
402,192,5039,128,0,6476:0:0:0:70:D#8S_Eb8S.wav
109,192,5039,128,0,6476:0:0:0:0:
36,192,5039,128,0,6476:0:0:0:0:
36,192,6835,128,0,7554:0:0:0:70:F6S.wav
182,192,6835,1,2,0:0:0:0:
402,192,6835,1,0,0:0:0:0:
329,192,6835,1,4,0:0:0:0:
256,192,7015,1,0,0:0:0:0:
109,192,7194,1,8,0:0:0:0:
475,192,7194,1,0,0:0:0:0:
182,192,7194,1,0,0:0:0:0:
256,192,7374,1,0,0:0:0:0:
402,192,7554,128,0,8272:0:0:0:70:G6S.wav
329,192,7554,1,2,0:0:0:0:
182,192,7733,1,0,0:0:0:0:
109,192,7913,1,8,0:0:0:0:
329,192,7913,1,0,0:0:0:0:
36,192,7913,1,0,0:0:0:0:
256,192,8092,1,0,0:0:0:0:
182,192,8272,128,0,8991:0:0:0:70:C6S.wav
109,192,8272,1,2,0:0:0:0:
329,192,8452,1,0,0:0:0:0:
36,192,8631,1,8,0:0:0:0:
402,192,8631,1,0,0:0:0:0:
475,192,8631,1,0,0:0:0:0:
256,192,8811,1,0,0:0:0:0:
475,192,8991,128,0,9350:0:0:0:70:A#5S_Bb5S.wav
109,192,8991,1,2,0:0:0:0:
256,192,9170,1,0,0:0:0:0:
329,192,9350,128,0,9709:0:0:0:70:A5S.wav
36,192,9350,1,8,0:0:0:0:
182,192,9350,1,0,0:0:0:0:
109,192,9530,1,0,0:0:0:0:
36,192,9709,128,0,10428:0:0:0:70:F5S.wav
402,192,9709,1,2,0:0:0:0:
256,192,9889,1,0,0:0:0:0:
109,192,10069,1,8,0:0:0:0:
475,192,10069,1,0,0:0:0:0:
329,192,10069,1,0,0:0:0:0:
402,192,10248,1,0,0:0:0:0:
256,192,10428,1,2,0:0:0:0:
475,192,10428,1,0,0:0:0:0:
182,192,10607,128,0,10787:0:0:0:70:C6S.wav
402,192,10787,1,8,0:0:0:0:
109,192,10787,1,0,0:0:0:0:
329,192,10787,1,0,0:0:0:0:
182,192,10967,128,0,11506:0:0:0:70:C6S.wav
475,192,11146,1,2,0:0:0:0:
36,192,11146,1,0,0:0:0:0:
256,192,11326,1,0,0:0:0:0:
109,192,11506,1,8,0:0:0:0:
402,192,11506,128,0,11865:0:0:0:70:A#5S_Bb5S.wav
329,192,11506,1,0,0:0:0:0:
182,192,11685,1,0,0:0:0:0:
36,192,11865,128,0,12045:0:0:0:70:F5S.wav
475,192,11865,1,2,0:0:0:0:
182,192,12045,128,0,12224:0:0:0:70:A#5S_Bb5S.wav
329,192,12224,128,0,12584:0:0:0:70:C6S.wav
402,192,12224,1,8,0:0:0:0:
36,192,12224,1,0,0:0:0:0:
182,192,12404,1,0,0:0:0:0:
109,192,12584,128,0,12943:0:0:0:70:D6S.wav
475,192,12584,1,2,0:0:0:0:
256,192,12763,1,0,0:0:0:0:
475,192,12943,128,0,13122:0:0:0:70:D#6S_Eb6S.wav
36,192,12943,1,8,0:0:0:0:
329,192,12943,1,0,0:0:0:0:
182,192,13122,128,0,13482:0:0:0:70:D6S.wav
475,192,13302,1,2,0:0:0:0:
329,192,13302,1,0,0:0:0:0:
36,192,13482,128,0,13661:0:0:0:70:A#5S_Bb5S.wav
329,192,13661,1,8,0:0:0:0:
475,192,13661,1,0,0:0:0:0:
182,192,13661,1,0,0:0:0:0:
256,192,13841,1,0,0:0:0:0:
36,192,13841,128,0,14021:0:0:0:70:A#5S_Bb5S.wav
109,192,14021,1,2,0:0:0:0:
182,192,14200,1,2,0:0:0:0:
402,192,14200,1,0,0:0:0:0:
36,192,14380,1,2,0:0:0:0:
475,192,14380,128,0,14739:0:0:0:70:C6S.wav
256,192,14380,1,0,0:0:0:0:
182,192,14470,1,0,0:0:0:0:
109,192,14560,1,0,0:0:0:0:
256,192,14649,1,0,0:0:0:0:
329,192,14739,1,0,0:0:0:0:
402,192,14829,1,0,0:0:0:0:
475,192,14919,128,0,15278:0:0:0:70:C6S_s.wav
182,192,14919,1,2,0:0:0:0:
109,192,15009,1,0,0:0:0:0:
36,192,15098,1,0,0:0:0:0:
109,192,15458,1,0,0:0:0:70:soft-hitclap99.wav
256,192,15458,1,2,0:0:0:0:
402,192,15458,1,0,0:0:0:0:
475,192,15817,1,2,0:0:0:0:
182,192,15997,1,0,0:0:0:0:
475,192,16176,1,2,0:0:0:0:
182,192,16356,1,0,0:0:0:0:
475,192,16536,1,2,0:0:0:0:
182,192,16655,1,0,0:0:0:0:
402,192,16715,1,0,0:0:0:0:
36,192,16895,1,2,0:0:0:0:
329,192,17075,1,0,0:0:0:0:
36,192,17254,1,2,0:0:0:0:
329,192,17434,1,0,0:0:0:0:
36,192,17613,1,2,0:0:0:0:
329,192,17793,1,0,0:0:0:0:
36,192,17973,1,2,0:0:0:0:
329,192,18092,1,0,0:0:0:0:
109,192,18152,1,0,0:0:0:0:
402,192,18272,1,0,0:0:0:0:
256,192,18332,1,2,0:0:0:0:
475,192,18512,1,0,0:0:0:0:
256,192,18691,1,2,0:0:0:0:
475,192,18871,1,0,0:0:0:0:
256,192,19051,1,2,0:0:0:0:
475,192,19230,1,0,0:0:0:0:
256,192,19410,1,2,0:0:0:0:
402,192,19530,1,0,0:0:0:0:
109,192,19589,1,0,0:0:0:0:
256,192,19769,1,2,0:0:0:0:
36,192,19949,1,0,0:0:0:0:
256,192,20128,1,2,0:0:0:0:
36,192,20308,1,0,0:0:0:0:
256,192,20488,1,2,0:0:0:0:
36,192,20667,1,0,0:0:0:0:
256,192,20847,1,2,0:0:0:0:
109,192,20967,1,0,0:0:0:0:
402,192,21027,1,0,0:0:0:0:
182,192,21146,1,0,0:0:0:0:
475,192,21206,1,2,0:0:0:0:
109,192,21386,1,0,0:0:0:0:
475,192,21566,1,2,0:0:0:0:
109,192,21745,1,0,0:0:0:0:
475,192,21925,1,2,0:0:0:0:
109,192,22104,1,0,0:0:0:0:
475,192,22284,1,2,0:0:0:0:
329,192,22404,1,0,0:0:0:0:
182,192,22464,1,0,0:0:0:0:
402,192,22643,1,2,0:0:0:0:
36,192,22823,1,0,0:0:0:0:
402,192,23003,1,2,0:0:0:0:
36,192,23182,1,0,0:0:0:0:
402,192,23362,1,2,0:0:0:0:
36,192,23542,1,0,0:0:0:0:
402,192,23721,1,2,0:0:0:0:
109,192,23841,1,0,0:0:0:0:
329,192,23901,1,0,0:0:0:0:
36,192,24021,1,0,0:0:0:0:
256,192,24081,1,2,0:0:0:0:
402,192,24260,1,0,0:0:0:0:
256,192,24440,1,2,0:0:0:0:
402,192,24619,1,0,0:0:0:0:
256,192,24799,1,2,0:0:0:0:
402,192,24979,1,0,0:0:0:0:
256,192,25158,1,2,0:0:0:0:
36,192,25278,1,0,0:0:0:0:
329,192,25338,1,0,0:0:0:0:
109,192,25518,1,2,0:0:0:0:
256,192,25697,1,0,0:0:0:0:
109,192,25877,1,2,0:0:0:0:
256,192,26057,1,0,0:0:0:0:
109,192,26236,1,2,0:0:0:0:
402,192,26356,1,0,0:0:0:0:
182,192,26416,1,0,0:0:0:0:
329,192,26536,1,0,0:0:0:0:
109,192,26595,1,2,0:0:0:0:
256,192,26775,1,2,0:0:0:0:
36,192,26955,128,0,27494:0:0:0:70:A#5S_Bb5S.wav
475,192,26955,1,2,0:0:0:0:
402,192,27134,1,0,0:0:0:0:
329,192,27314,1,2,0:0:0:0:
109,192,27314,1,0,0:0:0:0:
475,192,27494,128,0,28033:0:0:0:70:A5S.wav
182,192,27494,1,0,0:0:0:0:
256,192,27673,1,2,0:0:0:0:
402,192,27673,1,0,0:0:0:0:
36,192,27853,1,0,0:0:0:0:
182,192,28033,128,0,29110:0:0:0:70:F5S.wav
109,192,28033,1,8,0:0:0:0:
329,192,28033,1,0,0:0:0:0:
402,192,28212,1,0,0:0:0:0:
36,192,28392,1,2,0:0:0:0:
475,192,28392,1,0,0:0:0:0:
329,192,28572,1,0,0:0:0:0:
475,192,28751,1,2,0:0:0:0:
256,192,28751,1,0,0:0:0:0:
36,192,28931,1,0,0:0:0:0:
402,192,29110,128,0,29470:0:0:0:70:D6S.wav
109,192,29110,1,2,0:0:0:0:
256,192,29290,1,0,0:0:0:0:
109,192,29470,128,0,29829:0:0:0:70:C6S.wav
36,192,29470,1,8,0:0:0:0:
182,192,29470,1,0,0:0:0:0:
256,192,29649,1,0,0:0:0:0:
475,192,29829,128,0,30368:0:0:0:70:A#5S_Bb5S.wav
402,192,29829,1,2,0:0:0:0:
329,192,30009,1,0,0:0:0:0:
256,192,30188,1,2,0:0:0:0:
109,192,30188,1,0,0:0:0:0:
36,192,30368,128,0,30907:0:0:0:70:A5S.wav
182,192,30548,1,2,0:0:0:0:
402,192,30548,1,0,0:0:0:0:
329,192,30727,1,0,0:0:0:0:
475,192,30907,1,8,0:0:0:0:
109,192,30907,128,0,31985:0:0:0:70:F5S.wav
256,192,30907,1,0,0:0:0:0:
329,192,31086,1,0,0:0:0:0:
402,192,31266,1,2,0:0:0:0:
182,192,31266,1,0,0:0:0:0:
256,192,31446,1,0,0:0:0:0:
329,192,31625,1,2,0:0:0:0:
475,192,31625,1,0,0:0:0:0:
402,192,31805,1,0,0:0:0:0:
475,192,31985,128,0,32164:0:0:0:70:C6S.wav
182,192,31985,1,2,0:0:0:0:
329,192,32164,1,0,0:0:0:0:
475,192,32344,128,0,32703:0:0:0:70:C6S.wav
256,192,32344,1,0,0:0:0:0:
36,192,32344,1,8,0:0:0:0:
182,192,32524,1,0,0:0:0:0:
109,192,32703,128,0,33242:0:0:0:70:A#5S_Bb5S.wav
329,192,32703,1,2,0:0:0:0:
402,192,32883,1,0,0:0:0:0:
182,192,33063,1,2,0:0:0:0:
475,192,33063,1,0,0:0:0:0:
329,192,33242,128,0,33781:0:0:0:70:A5S.wav
256,192,33422,1,2,0:0:0:0:
36,192,33422,1,0,0:0:0:0:
109,192,33601,1,0,0:0:0:0:
182,192,33781,128,0,34320:0:0:0:70:F5S.wav
475,192,33781,1,8,0:0:0:0:
402,192,33781,1,0,0:0:0:0:
36,192,33961,1,0,0:0:0:0:
329,192,34140,1,2,0:0:0:0:
475,192,34140,1,0,0:0:0:0:
256,192,34320,128,0,34859:0:0:0:70:F5S.wav
402,192,34500,1,2,0:0:0:0:
109,192,34500,1,0,0:0:0:0:
182,192,34679,1,0,0:0:0:0:
475,192,34859,128,0,35218:0:0:0:70:F5S.wav
36,192,34859,1,2,0:0:0:0:
109,192,35039,1,0,0:0:0:0:
182,192,35218,1,8,0:0:0:0:
402,192,35218,1,0,0:0:0:0:
256,192,35218,1,0,0:0:0:0:
329,192,35398,1,0,0:0:0:0:
36,192,35578,128,0,36116:0:0:0:70:A#5S_Bb5S.wav
256,192,35578,1,2,0:0:0:0:
475,192,35578,1,0,0:0:0:0:
402,192,35757,1,0,0:0:0:0:
329,192,35937,1,2,0:0:0:0:
109,192,35937,1,0,0:0:0:0:
182,192,36116,128,0,36655:0:0:0:70:A5S.wav
402,192,36296,1,2,0:0:0:0:
256,192,36296,1,0,0:0:0:0:
329,192,36476,1,0,0:0:0:0:
109,192,36655,128,0,37374:0:0:0:70:D5S.wav
36,192,36655,1,0,0:0:0:0:
475,192,36655,1,8,0:0:0:0:
256,192,36835,1,0,0:0:0:0:
402,192,37015,1,2,0:0:0:0:
329,192,37015,1,0,0:0:0:0:
182,192,37194,1,0,0:0:0:0:
36,192,37374,128,0,38452:0:0:0:70:D5S.wav
475,192,37374,1,2,0:0:0:0:
329,192,37554,1,0,0:0:0:0:
256,192,37733,128,0,38452:0:0:0:70:F5S.wav
182,192,37733,1,2,0:0:0:0:
402,192,37913,1,0,0:0:0:0:
329,192,38092,1,8,0:0:0:0:
475,192,38092,128,0,38452:0:0:0:70:A#5S_Bb5S.wav
109,192,38092,1,2,0:0:0:0:
182,192,38182,1,2,0:0:0:0:
402,192,38272,1,2,0:0:0:0:
329,192,38362,1,2,0:0:0:0:
182,192,38452,1,2,0:0:0:0:
109,192,38452,128,0,38991:0:0:0:70:C6S.wav
329,192,38631,1,0,0:0:0:0:
182,192,38811,1,2,0:0:0:0:
402,192,38811,1,0,0:0:0:0:
475,192,38991,128,0,39170:0:0:0:70:D7S.wav
256,192,38991,1,0,0:0:0:0:
329,192,39170,1,2,0:0:0:0:
36,192,39170,1,0,0:0:0:0:
182,192,39350,1,0,0:0:0:0:
109,192,39530,1,8,0:0:0:0:
402,192,39530,1,0,0:0:0:0:
329,192,39530,1,0,0:0:0:0:
256,192,39709,1,0,0:0:0:0:
182,192,39889,1,2,0:0:0:0:
475,192,39889,1,0,0:0:0:0:
329,192,40069,1,0,0:0:0:0:
256,192,40248,1,2,0:0:0:0:
36,192,40248,1,0,0:0:0:0:
109,192,40428,1,0,0:0:0:0:
182,192,40607,1,2,0:0:0:0:
475,192,40607,1,0,0:0:0:0:
402,192,40787,1,0,0:0:0:0:
329,192,40967,1,8,0:0:0:0:
36,192,40967,1,0,0:0:0:0:
256,192,40967,1,0,0:0:0:0:
109,192,41146,1,0,0:0:0:0:
182,192,41326,1,2,0:0:0:0:
402,192,41326,128,0,41865:0:0:0:70:A#6S_Bb6S.wav
36,192,41506,1,0,0:0:0:0:
109,192,41685,1,2,0:0:0:0:
329,192,41685,1,0,0:0:0:0:
475,192,41865,128,0,42045:0:0:0:70:F6S_s.wav
256,192,41865,1,0,0:0:0:0:
182,192,42045,1,2,0:0:0:0:
36,192,42045,1,0,0:0:0:0:
329,192,42224,1,0,0:0:0:0:
256,192,42404,1,8,0:0:0:0:
109,192,42404,1,0,0:0:0:0:
402,192,42404,1,0,0:0:0:0:
182,192,42584,1,0,0:0:0:0:
329,192,42763,1,2,0:0:0:0:
475,192,42763,1,0,0:0:0:0:
256,192,42943,1,0,0:0:0:0:
109,192,43122,1,2,0:0:0:0:
402,192,43122,1,0,0:0:0:0:
182,192,43302,1,0,0:0:0:70:F6S.wav
256,192,43482,1,2,0:0:0:0:
475,192,43482,1,0,0:0:0:0:
402,192,43572,1,0,0:0:0:0:
329,192,43661,1,0,0:0:0:70:D#6S_Eb6S.wav
402,192,43751,1,0,0:0:0:0:
36,192,43841,1,8,0:0:0:0:
475,192,43841,1,0,0:0:0:0:
256,192,43841,1,0,0:0:0:70:D6S.wav
109,192,43931,1,0,0:0:0:0:
182,192,44021,1,0,0:0:0:70:C6S.wav
109,192,44110,1,0,0:0:0:0:
256,192,44200,128,0,44739:0:0:0:70:D6S.wav
36,192,44200,1,2,0:0:0:0:
402,192,44380,1,0,0:0:0:0:
329,192,44560,1,2,0:0:0:0:
36,192,44560,1,0,0:0:0:0:
475,192,44739,128,0,44919:0:0:0:70:A#6S_Bb6S.wav
109,192,44739,1,0,0:0:0:0:
182,192,44919,1,2,0:0:0:0:
402,192,44919,1,0,0:0:0:0:
329,192,45098,1,0,0:0:0:0:
182,192,45278,1,8,0:0:0:0:
109,192,45278,1,0,0:0:0:0:
475,192,45278,1,0,0:0:0:0:
256,192,45458,1,0,0:0:0:0:
329,192,45637,1,2,0:0:0:0:
36,192,45637,1,0,0:0:0:70:A#5S_Bb5S.wav
109,192,45817,128,0,45997:0:0:0:70:A#5S_Bb5S.wav
475,192,45997,1,2,0:0:0:0:
256,192,45997,128,0,46176:0:0:0:70:F6S.wav
402,192,46176,128,0,46536:0:0:0:70:A#6S_Bb6S.wav
36,192,46356,1,2,0:0:0:0:
329,192,46356,1,0,0:0:0:0:
182,192,46536,128,0,46715:0:0:0:70:D7S.wav
329,192,46715,128,0,46895:0:0:0:70:D#7S_Eb7S.wav
109,192,46715,1,0,0:0:0:0:
475,192,46715,1,8,0:0:0:0:
256,192,46895,128,0,47075:0:0:0:70:D#8S_Eb8S.wav
36,192,47075,1,2,0:0:0:0:
402,192,47075,1,0,0:0:0:70:F6S.wav
182,192,47254,1,0,0:0:0:0:
109,192,47434,1,2,0:0:0:0:
329,192,47434,1,0,0:0:0:0:
256,192,47613,1,0,0:0:0:0:
182,192,47793,1,2,0:0:0:0:
402,192,47793,1,0,0:0:0:0:
329,192,47973,1,0,0:0:0:0:
256,192,48152,1,8,0:0:0:0:
36,192,48152,1,0,0:0:0:0:
475,192,48152,1,0,0:0:0:0:
109,192,48332,1,0,0:0:0:0:
182,192,48512,1,2,0:0:0:0:
475,192,48512,1,0,0:0:0:0:
402,192,48691,128,0,48871:0:0:0:70:A#5S_Bb5S.wav
109,192,48871,128,0,49051:0:0:0:70:F6S.wav
36,192,48871,1,2,0:0:0:0:
256,192,49051,128,0,49230:0:0:0:70:A#6S_Bb6S.wav
402,192,49230,1,2,0:0:0:0:
475,192,49230,1,0,0:0:0:70:F6S.wav
329,192,49410,1,0,0:0:0:70:A#5S_Bb5S.wav
182,192,49589,1,8,0:0:0:0:
36,192,49589,1,0,0:0:0:70:C6S.wav
402,192,49589,1,0,0:0:0:0:
256,192,49769,1,2,0:0:0:0:
109,192,49769,1,0,0:0:0:0:
329,192,49949,1,2,0:0:0:0:
475,192,49949,128,0,51386:0:0:0:70:A#5S_Bb5S.wav
109,192,50128,1,0,0:0:0:0:
36,192,50308,1,8,0:0:0:0:
256,192,50308,1,0,0:0:0:0:
329,192,50308,1,0,0:0:0:0:
182,192,50488,1,0,0:0:0:0:
109,192,50667,1,2,0:0:0:0:
402,192,50667,128,0,51386:0:0:0:70:C6S.wav
256,192,50847,1,0,0:0:0:0:
329,192,51027,1,8,0:0:0:0:
36,192,51027,1,0,0:0:0:0:
182,192,51027,1,0,0:0:0:0:
109,192,51206,1,0,0:0:0:0:
256,192,51386,1,2,0:0:0:0:
36,192,51386,128,0,52823:0:0:0:70:F5S.wav
402,192,51566,1,0,0:0:0:0:
475,192,51745,1,8,0:0:0:0:
256,192,51745,1,0,0:0:0:0:
182,192,51745,1,0,0:0:0:0:
329,192,51925,1,0,0:0:0:0:
402,192,52104,1,2,0:0:0:0:
109,192,52104,128,0,52823:0:0:0:70:A#5S_Bb5S.wav
256,192,52284,1,0,0:0:0:0:
182,192,52464,1,8,0:0:0:0:
475,192,52464,1,0,0:0:0:0:
329,192,52464,1,0,0:0:0:0:
402,192,52643,1,0,0:0:0:0:
329,192,52823,1,2,0:0:0:0:
182,192,52823,128,0,53182:0:0:0:70:C6S.wav
256,192,53003,1,0,0:0:0:0:
402,192,53182,128,0,53542:0:0:0:70:F6S.wav
36,192,53182,1,0,0:0:0:0:
475,192,53182,1,8,0:0:0:0:
256,192,53362,1,0,0:0:0:0:
109,192,53542,128,0,53901:0:0:0:70:A#5S_Bb5S.wav
36,192,53542,1,2,0:0:0:0:
475,192,53721,1,0,0:0:0:0:
329,192,53901,128,0,54260:0:0:0:70:C6S.wav
182,192,53901,1,0,0:0:0:0:
402,192,53901,1,8,0:0:0:0:
256,192,54081,1,0,0:0:0:0:
475,192,54260,128,0,54440:0:0:0:70:F6S.wav
109,192,54260,1,2,0:0:0:0:
256,192,54440,128,0,54619:0:0:0:70:C6S.wav
36,192,54619,128,0,54799:0:0:0:70:A#5S_Bb5S.wav
182,192,54619,1,8,0:0:0:0:
329,192,54619,1,0,0:0:0:0:
402,192,54799,128,0,55518:0:0:0:70:C6S_s.wav
475,192,54799,1,2,0:0:0:0:
109,192,54799,1,0,0:0:0:0:
36,192,55158,1,2,0:0:0:0:
182,192,55158,1,0,0:0:0:0:
329,192,55248,1,2,0:0:0:0:
475,192,55248,1,0,0:0:0:0:
182,192,55338,1,2,0:0:0:0:
36,192,55338,1,0,0:0:0:0:
109,192,55518,1,2,0:0:0:0:
475,192,55518,1,4,0:0:0:0:
329,192,55518,1,0,0:0:0:0:
256,192,55518,128,0,57134:0:0:0:70:G#5S_Ab5S.wav
182,192,55877,1,0,0:0:0:0:
109,192,56057,1,8,0:0:0:0:
36,192,56057,1,0,0:0:0:0:
475,192,56057,1,0,0:0:0:0:
329,192,56236,1,0,0:0:0:0:
109,192,56416,1,2,0:0:0:0:
402,192,56416,1,0,0:0:0:0:
182,192,56595,1,0,0:0:0:0:
36,192,56775,1,8,0:0:0:0:
329,192,56775,1,0,0:0:0:0:
475,192,56775,1,0,0:0:0:0:
109,192,56955,1,0,0:0:0:0:
475,192,57134,1,2,0:0:0:0:
182,192,57134,128,0,58572:0:0:0:70:A#5S_Bb5S.wav
402,192,57314,1,0,0:0:0:0:
329,192,57494,1,8,0:0:0:0:
36,192,57494,1,0,0:0:0:0:
109,192,57494,1,0,0:0:0:0:
402,192,57673,1,0,0:0:0:0:
475,192,57853,128,0,58572:0:0:0:70:D#6S_Eb6S.wav
109,192,57853,1,2,0:0:0:0:
256,192,58033,1,0,0:0:0:0:
329,192,58212,1,8,0:0:0:0:
402,192,58212,1,0,0:0:0:0:
36,192,58212,1,0,0:0:0:0:
256,192,58392,1,0,0:0:0:0:
109,192,58572,1,2,0:0:0:0:
36,192,58572,128,0,60009:0:0:0:70:G5S.wav
256,192,58751,1,0,0:0:0:0:
182,192,58931,1,8,0:0:0:0:
402,192,58931,1,0,0:0:0:70:G5S.wav
475,192,58931,1,0,0:0:0:0:
329,192,59110,1,0,0:0:0:70:G#5S_Ab5S.wav
256,192,59290,1,2,0:0:0:0:
109,192,59290,128,0,60009:0:0:0:70:A#5S_Bb5S.wav
402,192,59470,1,0,0:0:0:0:
182,192,59649,1,8,0:0:0:0:
329,192,59649,1,0,0:0:0:0:
475,192,59649,1,0,0:0:0:0:
256,192,59829,1,0,0:0:0:0:
402,192,60009,128,2,60188:0:0:0:0:
475,192,60009,128,0,60188:0:0:0:70:D#6S_Eb6S.wav
182,192,60188,1,0,0:0:0:70:G#6S_Ab6S.wav
36,192,60368,1,8,0:0:0:0:
109,192,60368,1,0,0:0:0:70:D#6S_Eb6S.wav
402,192,60368,1,0,0:0:0:0:
256,192,60548,128,0,60727:0:0:0:70:G#6S_Ab6S.wav
182,192,60548,128,0,60727:0:0:0:0:
475,192,60727,1,2,0:0:0:0:
329,192,60727,1,0,0:0:0:0:
109,192,60907,128,0,61086:0:0:0:70:D#6S_Eb6S.wav
36,192,60907,128,0,61086:0:0:0:0:
256,192,61086,1,8,0:0:0:0:
402,192,61086,1,0,0:0:0:0:
475,192,61086,1,0,0:0:0:0:
182,192,61266,1,2,0:0:0:0:
329,192,61446,128,0,62883:0:0:0:70:G#5S_Ab5S.wav
109,192,61446,1,0,0:0:0:0:
36,192,61446,1,2,0:0:0:0:
256,192,61625,1,0,0:0:0:0:
182,192,61805,1,8,0:0:0:0:
475,192,61805,1,0,0:0:0:0:
402,192,61805,1,0,0:0:0:0:
109,192,61985,1,0,0:0:0:70:G#5S_Ab5S.wav
36,192,62164,1,2,0:0:0:0:
256,192,62164,1,0,0:0:0:0:
182,192,62344,1,0,0:0:0:0:
402,192,62524,1,8,0:0:0:0:
475,192,62524,1,0,0:0:0:0:
109,192,62524,1,0,0:0:0:70:G#5S_Ab5S.wav
256,192,62703,1,0,0:0:0:0:
475,192,62883,128,0,64320:0:0:0:70:A#5S_Bb5S.wav
36,192,62883,1,2,0:0:0:0:
182,192,63063,1,0,0:0:0:0:
109,192,63242,1,8,0:0:0:0:
256,192,63242,1,0,0:0:0:0:
402,192,63242,1,0,0:0:0:0:
329,192,63422,1,0,0:0:0:70:A#5S_Bb5S.wav
182,192,63601,1,2,0:0:0:0:
36,192,63601,1,0,0:0:0:0:
256,192,63781,1,0,0:0:0:0:
109,192,63961,1,8,0:0:0:0:
329,192,63961,1,0,0:0:0:70:A#5S_Bb5S.wav
36,192,63961,1,0,0:0:0:0:
182,192,64140,1,0,0:0:0:0:
402,192,64320,128,0,65039:0:0:0:70:G5S.wav
256,192,64320,1,2,0:0:0:0:
182,192,64500,1,0,0:0:0:70:D#6S_Eb6S.wav
109,192,64679,1,8,0:0:0:0:
36,192,64679,1,0,0:0:0:0:
329,192,64679,1,0,0:0:0:70:D#7S_Eb7S.wav
256,192,64859,1,0,0:0:0:70:D#6S_Eb6S.wav
475,192,65039,128,0,65218:0:0:0:0:
182,192,65039,1,2,0:0:0:0:
256,192,65218,128,0,65398:0:0:0:0:
36,192,65398,128,0,65578:0:0:0:0:
329,192,65398,1,0,0:0:0:0:
402,192,65398,1,8,0:0:0:0:
182,192,65578,1,2,0:0:0:0:
475,192,65578,1,4,0:0:0:0:
109,192,65578,1,0,0:0:0:0:
256,192,65937,1,4,0:0:0:0:
329,192,65937,1,2,0:0:0:0:
182,192,65937,1,0,0:0:0:0:
256,192,66296,1,4,0:0:0:0:
475,192,66296,1,2,0:0:0:0:
36,192,66296,1,0,0:0:0:0:
109,192,66655,1,2,0:0:0:0:
402,192,66655,1,0,0:0:0:0:
182,192,66745,1,0,0:0:0:0:
256,192,66835,1,2,0:0:0:0:
36,192,66835,1,0,0:0:0:0:
329,192,66925,1,0,0:0:0:0:
182,192,67015,1,4,0:0:0:0:
402,192,67015,1,2,0:0:0:0:
109,192,67015,1,0,0:0:0:0:
475,192,67015,128,0,68631:0:0:0:70:G#5S_Ab5S.wav
329,192,67374,1,0,0:0:0:0:
402,192,67554,1,8,0:0:0:0:
182,192,67554,1,0,0:0:0:0:
36,192,67554,1,0,0:0:0:0:
256,192,67733,1,0,0:0:0:0:
329,192,67913,1,2,0:0:0:0:
109,192,67913,1,0,0:0:0:0:
256,192,68092,1,0,0:0:0:0:
402,192,68272,1,8,0:0:0:0:
182,192,68272,1,0,0:0:0:0:
109,192,68272,1,0,0:0:0:0:
256,192,68452,1,0,0:0:0:0:
36,192,68631,1,2,0:0:0:0:
329,192,68631,128,0,70069:0:0:0:70:G#5S_Ab5S.wav
109,192,68811,1,0,0:0:0:0:
182,192,68991,1,8,0:0:0:0:
475,192,68991,1,0,0:0:0:0:
402,192,68991,1,0,0:0:0:0:
109,192,69170,1,0,0:0:0:70:D#6S_Eb6S.wav
36,192,69350,128,0,70069:0:0:0:70:A#5S_Bb5S.wav
402,192,69350,1,2,0:0:0:0:
256,192,69530,1,0,0:0:0:70:D#6S_Eb6S.wav
475,192,69709,1,8,0:0:0:0:
109,192,69709,1,0,0:0:0:0:
182,192,69709,1,0,0:0:0:0:
256,192,69889,1,0,0:0:0:0:
402,192,70069,1,2,0:0:0:0:
475,192,70069,128,0,71506:0:0:0:70:D#6S_Eb6S.wav
256,192,70248,1,0,0:0:0:0:
329,192,70428,1,8,0:0:0:0:
109,192,70428,1,0,0:0:0:70:G5S.wav
36,192,70428,1,0,0:0:0:0:
182,192,70607,1,0,0:0:0:70:G#5S_Ab5S.wav
256,192,70787,1,2,0:0:0:0:
402,192,70787,128,0,71506:0:0:0:70:A#5S_Bb5S.wav
109,192,70967,1,0,0:0:0:0:
329,192,71146,1,8,0:0:0:0:
182,192,71146,1,0,0:0:0:0:
36,192,71146,1,0,0:0:0:0:
256,192,71326,1,0,0:0:0:0:
36,192,71506,128,0,71685:0:0:0:70:D#6S_Eb6S.wav
182,192,71506,1,2,0:0:0:0:
329,192,71685,128,0,71865:0:0:0:70:G#6S_Ab6S.wav
36,192,71865,128,0,72045:0:0:0:70:D#6S_Eb6S.wav
109,192,71865,1,8,0:0:0:0:
402,192,71865,1,0,0:0:0:0:
329,192,72045,128,0,72584:0:0:0:70:G#6S_Ab6S.wav
182,192,72224,1,2,0:0:0:0:
256,192,72224,1,0,0:0:0:0:
475,192,72404,1,0,0:0:0:0:
109,192,72584,1,8,0:0:0:0:
36,192,72584,1,0,0:0:0:0:
402,192,72584,1,0,0:0:0:0:
256,192,72763,1,2,0:0:0:0:
182,192,72943,128,0,73302:0:0:0:70:G#5S_Ab5S.wav
475,192,72943,1,2,0:0:0:0:
329,192,73122,1,0,0:0:0:0:
402,192,73302,1,8,0:0:0:0:
36,192,73302,1,0,0:0:0:0:
256,192,73302,1,0,0:0:0:0:
182,192,73482,128,0,73841:0:0:0:70:G#5S_Ab5S.wav
329,192,73661,1,2,0:0:0:0:
475,192,73661,1,0,0:0:0:0:
402,192,73841,1,0,0:0:0:0:
329,192,74021,128,0,74200:0:0:0:70:G#5S_Ab5S.wav
109,192,74021,1,0,0:0:0:0:
36,192,74021,1,8,0:0:0:0:
182,192,74200,128,0,74380:0:0:0:70:A#5S_Bb5S.wav
36,192,74380,1,2,0:0:0:0:
402,192,74380,1,0,0:0:0:0:
256,192,74560,128,0,74739:0:0:0:0:
109,192,74739,128,0,74919:0:0:0:0:
475,192,74739,1,8,0:0:0:0:
402,192,74739,1,0,0:0:0:0:
329,192,74919,128,0,75098:0:0:0:0:
182,192,75098,128,0,75278:0:0:0:0:
36,192,75098,1,2,0:0:0:0:
402,192,75278,128,0,75458:0:0:0:0:
256,192,75458,128,0,75637:0:0:0:0:
109,192,75458,1,8,0:0:0:0:
36,192,75458,1,0,0:0:0:0:
475,192,75637,128,0,75817:0:0:0:0:
109,192,75817,128,0,76176:0:0:0:0:
329,192,75817,1,2,0:0:0:0:
256,192,75997,1,0,0:0:0:0:
475,192,76176,1,8,0:0:0:0:
36,192,76176,1,0,0:0:0:0:
402,192,76176,1,0,0:0:0:0:
109,192,76356,128,0,76536:0:0:0:0:
402,192,76536,1,2,0:0:0:0:
182,192,76536,1,0,0:0:0:0:
256,192,76715,1,0,0:0:0:0:
329,192,76895,1,8,0:0:0:0:
109,192,76895,1,0,0:0:0:0:
475,192,76895,128,0,77075:0:0:0:0:
182,192,77075,128,0,78691:0:0:0:0:
475,192,77254,1,2,0:0:0:0:
36,192,77254,1,0,0:0:0:0:
256,192,77434,1,0,0:0:0:70:G5S.wav
109,192,77613,1,8,0:0:0:0:
402,192,77613,1,0,0:0:0:0:
329,192,77613,1,0,0:0:0:70:G5S.wav
475,192,77793,128,0,78691:0:0:0:70:G#5S_Ab5S.wav
256,192,77973,1,2,0:0:0:0:
36,192,77973,1,0,0:0:0:70:G#5S_Ab5S.wav
109,192,78152,1,0,0:0:0:0:
402,192,78332,1,8,0:0:0:0:
329,192,78332,1,0,0:0:0:70:A#5S_Bb5S.wav
36,192,78332,1,0,0:0:0:0:
256,192,78512,1,0,0:0:0:0:
109,192,78691,1,2,0:0:0:0:
329,192,78691,128,0,79769:0:0:0:70:D#6S_Eb6S.wav
256,192,78871,1,0,0:0:0:0:
36,192,79051,1,8,0:0:0:0:
109,192,79051,1,0,0:0:0:0:
475,192,79051,1,0,0:0:0:0:
182,192,79230,1,0,0:0:0:0:
256,192,79410,1,2,0:0:0:0:
402,192,79410,1,0,0:0:0:0:
109,192,79589,1,0,0:0:0:70:D#7S_Eb7S.wav
36,192,79769,1,8,0:0:0:0:
256,192,79769,1,0,0:0:0:0:
475,192,79769,1,0,0:0:0:0:
402,192,79949,1,0,0:0:0:70:G#6S_Ab6S.wav
182,192,79949,1,4,0:0:0:0:
109,192,79949,1,8,0:0:0:0:
256,192,80308,1,8,0:0:0:0:
329,192,80308,1,4,0:0:0:0:
36,192,80308,1,0,0:0:0:70:A#6S_Bb6S.wav
109,192,80488,1,8,0:0:0:0:
182,192,80488,1,0,0:0:0:70:A#6S_Bb6S.wav
475,192,80488,1,4,0:0:0:0:
36,192,81566,1,0,0:0:0:0:
182,192,81566,1,2,0:0:0:0:
402,192,81566,128,0,82104:0:0:0:70:C#6S_Db6S.wav
329,192,81925,1,8,0:0:0:0:
109,192,81925,1,0,0:0:0:0:
36,192,81925,1,0,0:0:0:0:
182,192,82104,1,2,0:0:0:0:
256,192,82104,128,0,82823:0:0:0:70:C6S.wav
329,192,82464,1,2,0:0:0:0:
475,192,82464,1,0,0:0:0:0:
402,192,82643,1,8,0:0:0:0:
36,192,82643,1,0,0:0:0:0:
182,192,82643,1,0,0:0:0:0:
329,192,82823,1,2,0:0:0:0:
109,192,82823,128,0,83542:0:0:0:70:A#5S_Bb5S.wav
182,192,83182,1,2,0:0:0:0:
402,192,83182,1,0,0:0:0:0:
329,192,83362,1,8,0:0:0:0:
256,192,83362,1,0,0:0:0:0:
36,192,83362,1,0,0:0:0:0:
475,192,83542,128,0,84440:0:0:0:70:D#6S_Eb6S.wav
402,192,83542,1,2,0:0:0:0:
182,192,83901,1,2,0:0:0:0:
329,192,83901,1,0,0:0:0:0:
109,192,84081,1,8,0:0:0:0:
256,192,84081,1,0,0:0:0:0:
402,192,84081,1,0,0:0:0:0:
329,192,84260,1,8,0:0:0:0:
182,192,84260,1,0,0:0:0:0:
109,192,84440,1,4,0:0:0:0:
402,192,84440,1,2,0:0:0:0:
36,192,84440,1,0,0:0:0:0:
256,192,84440,128,0,86595:0:0:0:70:C#6S_Db6S.wav
475,192,84799,128,0,84979:0:0:0:70:C6S.wav
329,192,84979,128,0,85518:0:0:0:70:G#5S_Ab5S.wav
36,192,85518,128,0,86595:0:0:0:70:A#5S_Bb5S.wav
109,192,85518,1,0,0:0:0:0:
182,192,85607,1,0,0:0:0:0:
475,192,85697,1,0,0:0:0:0:
402,192,85787,1,0,0:0:0:0:
329,192,85877,1,0,0:0:0:0:
109,192,85967,1,0,0:0:0:0:
182,192,86057,1,0,0:0:0:0:
475,192,86146,1,0,0:0:0:0:
402,192,86236,1,0,0:0:0:0:
329,192,86326,1,0,0:0:0:0:
109,192,86416,1,0,0:0:0:0:
182,192,86506,1,0,0:0:0:0:
402,192,86595,128,0,88751:0:0:0:70:F#6S_Gb6S.wav
329,192,86595,128,0,88751:0:0:0:70:C#6S_Db6S.wav
475,192,86595,128,0,88751:0:0:0:70:G#6S_Ab6S.wav
