osu file format v14

[General]
AudioFilename: audio.mp3
AudioLeadIn: 0
PreviewTime: 54708
Countdown: 0
SampleSet: Soft
StackLeniency: 0
Mode: 2
LetterboxInBreaks: 0
WidescreenStoryboard: 1

[Editor]
DistanceSpacing: 1
BeatDivisor: 4
GridSize: 16
TimelineZoom: 2.2

[Metadata]
Title:Signal Graph (TV Size)
TitleUnicode:シグナルグラフ (TV Size)
Artist:Annabel
ArtistUnicode:Annabel
Creator:muya-
Version:Rain
Source:恋と選挙とチョコレート
Tags:Koi to Senkyo to Chocolate Love and Elections opening op anime japanese pop jpop j-pop アナベル 恋チョコ vn visual novel video game eroge Chatie Ascendance vgm female vocal vocals vocalist
BeatmapID:3497986
BeatmapSetID:1711863

[Difficulty]
HPDrainRate:5
CircleSize:3.8
OverallDifficulty:9
ApproachRate:9
SliderMultiplier:1.8
SliderTickRate:2

[Events]
//Background and Video events
0,0,"koichoco.jpg",0,0
Video,-400,"signal.mp4"
//Break Periods
//Storyboard Layer 0 (Background)
//Storyboard Layer 1 (Fail)
//Storyboard Layer 2 (Pass)
//Storyboard Layer 3 (Foreground)
//Storyboard Layer 4 (Overlay)
//Storyboard Sound Samples

[TimingPoints]
-711,359.281437125748,4,2,1,35,1,0
6115,-100,4,2,1,5,0,0
6474,-100,4,2,1,80,0,1
6833,-100,4,2,1,80,0,0
15097,-100,4,2,1,60,0,0
26594,-100,4,2,1,70,0,0
38091,-100,4,2,1,65,0,0
46714,-100,4,2,1,70,0,0
49588,-100,4,2,1,80,0,0
52462,-100,4,2,1,85,0,0
54797,-100,4,2,1,70,0,0
55157,-95.2380952380952,4,2,6,90,0,1
55247,-95.2380952380952,4,2,1,90,0,1
64857,-95.2380952380952,4,2,1,90,0,0
65217,-95.2380952380952,4,2,1,90,0,1
65576,-95.2380952380952,4,2,1,90,0,0
65935,-95.2380952380952,4,2,1,90,0,1
66294,-95.2380952380952,4,2,1,90,0,0
66654,-95.2380952380952,4,2,6,90,0,1
66744,-95.2380952380952,4,2,1,90,0,1
79229,-95.2380952380952,4,2,1,90,0,0
79588,-95.2380952380952,4,2,1,90,0,1
80127,-95.2380952380952,4,2,1,90,0,0
80306,-95.2380952380952,4,2,1,60,0,0
81205,-100,4,2,1,80,0,1
83720,-100,4,2,1,80,0,0
84079,-100,4,2,6,80,0,1
84169,-100,4,2,1,80,0,1
84438,-100,4,2,1,60,0,0
85157,-100,4,2,1,40,0,0
85247,-100,4,2,1,42,0,0
85336,-100,4,2,1,45,0,0
85426,-100,4,2,1,48,0,0
85516,-100,4,2,1,50,0,0
85606,-100,4,2,1,52,0,0
85696,-100,4,2,1,55,0,0
85786,-100,4,2,1,58,0,0
85875,-100,4,2,1,60,0,0
85965,-100,4,2,1,62,0,0
86055,-100,4,2,1,65,0,0
86145,-100,4,2,1,68,0,0
86235,-100,4,2,1,70,0,0
86414,-100,4,2,1,65,0,0
86594,-100,4,2,1,60,0,0
86774,-100,4,2,1,55,0,0
86953,-100,4,2,1,50,0,0
87133,-100,4,2,1,45,0,0
87312,-100,4,2,1,40,0,0
87492,-100,4,2,1,35,0,0
87672,-100,4,2,1,30,0,0
88031,-100,4,2,1,25,0,0
88390,-100,4,2,1,20,0,0
88750,-100,4,2,1,15,0,0
89109,-100,4,2,1,5,0,0

[Colours]
Combo1 : 101,239,198
Combo2 : 109,222,245
Combo3 : 244,104,157
Combo4 : 234,177,121

[HitObjects]
328,192,187,5,2,0:0:0:0:
328,192,366,1,2,0:0:0:0:
328,192,546,1,2,0:0:0:0:
131,190,905,5,2,0:0:0:0:
131,190,1084,1,2,0:0:0:0:
131,190,1264,1,2,0:0:0:0:
420,190,1624,5,2,0:0:0:0:
492,189,1803,1,2,0:0:0:0:
420,190,1983,1,2,0:0:0:0:
133,184,2342,5,2,0:0:0:0:
61,184,2522,1,2,0:0:0:0:
133,184,2702,1,2,0:0:0:0:
438,188,3061,5,2,0:0:0:0:
365,187,3241,1,2,0:0:0:0:
438,188,3421,1,2,0:0:0:0:
277,187,3600,6,0,L|68:187,2,180,2|2|2,0:2|0:2|0:2,0:0:0:0:
12,135,4678,1,2,0:2:0:0:
256,192,4857,12,0,6115,0:0:0:0:
355,197,6474,6,0,P|410:156|341:92,1,180,6|8,1:1|0:0,0:0:0:0:
260,89,7013,1,0,3:2:0:0:
97,92,7193,2,0,L|92:184,1,90,2|0,1:1|3:2,0:0:0:0:
254,191,7552,2,0,L|358:191,1,90,8|0,0:0|3:2,0:0:0:0:
99,190,7911,6,0,L|93:284,1,90,2|0,1:1|3:2,0:0:0:0:
256,287,8271,2,0,L|260:382,1,90,10|0,0:1|3:2,0:0:0:0:
421,370,8630,2,0,L|421:280,1,90,2|0,1:1|3:2,0:0:0:0:
256,287,8989,2,0,L|142:287,1,90,10|0,0:1|3:2,0:0:0:0:
415,272,9348,6,0,P|459:229|366:178,1,180,2|8,1:1|0:2,0:0:0:0:
284,172,9887,2,0,L|170:171,1,90,0|0,3:2|1:2,0:0:0:0:
358,142,10247,2,0,L|353:34,1,90,2|8,3:1|0:0,0:0:0:0:
108,46,10606,1,2,3:1:0:0:
19,48,10786,6,0,L|19:148,1,90,0|0,1:2|3:2,0:0:0:0:
181,141,11145,2,0,L|271:141,1,90,10|0,0:1|3:2,0:0:0:0:
108,148,11504,1,2,1:1:0:0:
201,175,11684,1,2,3:1:0:0:
364,325,11863,2,0,L|365:225,1,90,10|0,0:1|3:2,0:0:0:0:
364,235,12133,1,0,3:2:0:0:
197,220,12223,6,0,P|173:160|270:116,1,180,2|10,1:1|0:1,0:0:0:0:
407,105,12762,2,0,L|414:-3,1,90,2|0,3:1|1:2,0:0:0:0:
250,23,13121,2,0,L|150:22,1,90,2|8,3:1|0:0,0:0:0:0:
406,39,13480,6,0,P|465:95|413:160,1,180,2|0,1:1|3:2,0:0:0:0:
166,154,14019,2,0,L|102:155,1,45,2|2,1:1|0:0,0:0:0:0:
121,154,14199,2,0,L|166:154,1,45,2|2,0:0|0:0,0:0:0:0:
324,152,14378,2,0,L|368:151,1,45,2|2,0:0|0:0,0:0:0:0:
202,169,14558,2,0,P|145:130|220:63,1,180,2|0,1:1|0:0,0:0:0:0:
458,50,15097,6,0,L|271:49,1,180,6|2,1:1|1:2,0:0:0:0:
367,46,15636,2,0,L|367:154,1,90,2|0,3:2|1:2,0:0:0:0:
205,153,15995,2,0,L|89:153,1,90,2|0,3:2|1:2,0:0:0:0:
185,144,16265,1,0,3:2:0:0:
255,148,16354,6,0,L|256:46,1,90,2|0,3:2|1:2,0:0:0:0:
145,189,16714,2,0,L|137:81,1,90,2|0,3:2|1:2,0:0:0:0:
292,60,17073,2,0,P|352:105|286:164,1,180,2|0,3:2|3:2,0:0:0:0:
126,173,17612,2,0,L|70:174,1,45,0|0,1:2|3:2,0:0:0:0:
81,174,17791,2,0,L|125:173,1,45,2|0,3:2|3:2,0:0:0:0:
288,175,17971,6,0,P|368:155|359:68,1,180,2|2,1:2|1:2,0:0:0:0:
200,66,18510,2,0,L|193:184,1,90,2|0,3:2|1:2,0:0:0:0:
288,175,18869,2,0,L|289:72,1,90,2|2,3:2|1:2,1:2:0:0:
197,166,19139,1,0,3:2:0:0:
107,159,19229,6,0,L|105:261,1,90,2|0,3:2|1:2,0:0:0:0:
261,252,19588,1,2,3:2:0:0:
161,256,19768,1,2,1:2:0:0:
261,252,19947,2,0,L|360:252,2,90,2|0|0,3:2|1:2|3:2,0:0:0:0:
85,254,20486,2,0,L|40:254,1,45,0|0,1:2|3:2,0:0:0:0:
85,254,20666,2,0,L|129:254,1,45,2|0,3:2|3:2,0:0:0:0:
292,249,20845,6,0,P|364:209|322:140,1,180,2|2,1:2|1:2,0:0:0:0:
231,139,21384,2,0,L|136:140,1,90,2|0,3:2|1:2,0:0:0:0:
292,57,21744,2,0,L|398:57,1,90,2|2,3:2|1:2,0:0:0:0:
313,50,22013,1,0,3:2:0:0:
240,66,22103,6,0,L|138:66,1,90,2|0,3:2|1:2,0:0:0:0:
238,80,22462,2,0,L|332:80,1,90,2|0,3:2|1:2,0:0:0:0:
175,150,22821,2,0,P|120:191|199:247,1,180,2|0,3:2|3:2,0:0:0:0:
341,272,23360,1,2,1:2:0:0:
384,270,23449,1,0,3:2:0:0:
416,240,23539,1,0,3:2:0:0:
418,196,23629,1,0,3:2:0:0:
256,169,23720,6,0,L|64:171,1,180,2|0,1:2|1:2,0:0:0:0:
238,168,24259,2,0,P|303:128|234:63,1,180,2|0,3:2|3:2,0:0:0:0:
16,52,24797,6,0,L|197:54,1,180,2|0,1:2|1:2,0:0:0:0:
286,53,25336,1,0,3:2:0:0:
123,52,25516,2,0,P|76:78|148:158,1,180,2|0,1:2|1:2,0:0:0:0:
173,162,25965,1,0,3:2:0:0:
218,162,26055,1,2,3:2:0:0:
323,159,26235,1,0,1:2:0:0:
188,154,26414,1,0,1:2:0:0:
436,191,26594,6,0,P|455:126|362:83,1,180,6|2,1:2|1:2,0:0:0:0:
216,73,27133,2,0,L|208:180,1,90,2|0,3:2|1:2,0:0:0:0:
451,180,27492,2,0,L|453:272,1,90,2|8,3:2|0:0,0:0:0:0:
281,270,27851,6,0,L|176:269,1,90,2|0,3:2|1:2,0:0:0:0:
351,272,28211,2,0,L|448:273,1,90,2|0,3:2|1:2,0:0:0:0:
277,201,28570,2,0,L|184:201,2,90,2|0|0,3:2|1:2|3:2,0:0:0:0:
437,181,29109,2,0,L|485:181,1,45,8|0,0:0|3:2,0:0:0:0:
482,181,29288,2,0,L|437:181,1,45,2|0,3:2|3:2,0:0:0:0:
273,189,29468,6,0,L|78:189,1,180,2|2,1:2|1:2,0:0:0:0:
255,189,30007,2,0,L|262:76,1,90,2|0,3:2|1:2,0:0:0:0:
98,93,30366,2,0,L|93:-1,1,90,2|10,3:2|0:0,0:0:0:0:
141,14,30636,1,0,3:2:0:0:
305,95,30726,6,0,L|404:96,1,90,2|0,3:2|1:2,0:0:0:0:
232,94,31085,2,0,L|126:93,1,90,2|2,3:2|1:2,0:0:0:0:
305,95,31444,2,0,L|310:196,1,90,2|0,3:2|1:2,0:0:0:0:
211,188,31803,1,2,3:2:0:0:
372,209,31983,2,0,L|422:209,1,45,10|0,0:2|3:2,0:0:0:0:
417,209,32163,2,0,L|372:209,1,45,0|0,3:2|3:2,0:0:0:0:
214,213,32342,6,0,P|118:188|133:94,1,180,2|0,1:2|1:2,0:0:0:0:
191,101,32881,1,2,3:2:0:0:
433,97,33061,2,0,P|495:148|440:207,1,180,2|10,1:2|0:0,0:0:0:0:
276,203,33600,6,0,L|174:203,1,90,2|0,3:2|1:2,0:0:0:0:
348,206,33959,2,0,L|357:99,1,90,2|2,3:2|1:2,0:0:0:0:
193,113,34318,2,0,P|146:142|216:221,1,180,2|2,3:2|3:2,0:0:0:0:
363,222,34857,2,0,L|410:222,1,45,10|0,0:0|3:2,0:0:0:0:
408,222,35037,2,0,L|363:222,1,45,0|0,3:2|3:2,0:0:0:0:
197,224,35217,6,0,L|187:104,1,90,2|0,1:1|3:2,0:0:0:0:
351,144,35576,2,0,L|361:24,1,90,0|0,1:2|3:2,0:0:0:0:
196,53,35935,2,0,L|385:51,1,180,2|10,1:2|0:0,0:0:0:0:
457,49,36474,1,2,3:2:0:0:
294,169,36654,6,0,L|203:163,1,90,0|0,1:2|3:2,0:0:0:0:
365,138,37013,2,0,L|454:136,1,90,2|0,1:1|3:2,0:0:0:0:
209,163,37372,6,0,L|164:162,1,45,2|0,1:1|3:2,0:0:0:0:
164,162,37552,2,0,L|208:162,1,45,0|0,3:2|3:2,0:0:0:0:
376,163,37732,2,0,L|431:163,1,45,10|0,0:1|1:2,0:0:0:0:
259,162,37911,2,0,L|214:162,1,45,0|0,1:2|1:2,0:0:0:0:
389,191,38091,6,0,P|441:144|368:75,1,180,6|0,1:1|1:2,0:0:0:0:
220,83,38630,2,0,L|212:197,1,90,2|0,3:1|1:2,0:0:0:0:
375,162,38989,2,0,L|472:162,1,90,2|10,3:2|0:0,0:0:0:0:
221,200,39348,6,0,L|214:305,1,90,2|0,3:2|1:2,0:0:0:0:
378,288,39708,1,2,3:2:0:0:
215,289,39887,1,2,1:2:0:0:
378,288,40067,2,0,L|474:286,2,90,2|0|2,3:2|1:2|3:2,0:0:0:0:
215,289,40606,2,0,L|148:291,1,45,10|0,0:0|3:2,0:0:0:0:
170,290,40786,2,0,L|214:288,1,45,0|0,3:2|3:2,0:0:0:0:
378,288,40965,6,0,P|440:249|376:186,1,180,2|0,1:1|1:2,0:0:0:0:
220,178,41504,2,0,L|115:177,1,90,2|0,3:1|1:2,0:0:0:0:
292,179,41863,2,0,L|389:179,1,90,2|10,3:2|0:0,0:0:0:0:
137,171,42222,6,0,L|130:276,1,90,2|0,3:2|1:2,0:0:0:0:
297,257,42582,1,2,3:2:0:0:
131,260,42762,2,0,L|124:161,1,90,2|2,1:2|3:2,0:0:0:0:
364,166,43121,6,0,L|369:105,1,45,2|2,1:2|0:0,0:0:0:0:
293,115,43300,2,0,L|286:52,1,45,2|2,0:0|0:0,0:0:0:0:
438,64,43480,2,0,L|496:63,1,45,10|2,3:2|3:2,0:0:0:0:
483,63,43660,2,0,L|439:63,1,45,2|2,3:2|3:2,0:0:0:0:
279,63,43839,6,0,P|220:132|293:158,1,180,2|0,1:1|1:2,0:0:0:0:
436,168,44378,2,0,L|434:78,1,90,2|0,3:1|1:2,0:0:0:0:
271,80,44738,1,2,3:2:0:0:
435,79,44917,1,10,0:0:0:0:
187,84,45096,6,0,L|82:84,1,90,2|0,3:2|1:2,0:0:0:0:
259,86,45456,2,0,L|372:83,1,90,2|2,3:2|1:2,0:0:0:0:
187,84,45815,2,0,P|121:132|199:176,1,180,2|2,3:2|3:2,0:0:0:0:
343,189,46354,2,0,L|347:72,1,90,10|2,0:1|3:2,0:0:0:0:
304,96,46624,1,0,3:2:0:0:
135,105,46714,6,0,P|79:189|128:222,1,180,2|0,1:1|1:2,0:0:0:0:
286,223,47253,1,2,3:2:0:0:
124,221,47432,2,0,P|73:158|135:105,1,180,2|10,1:2|0:0,0:0:0:0:
381,197,47971,6,0,L|387:94,1,90,2|0,3:2|1:2,0:0:0:0:
222,104,48330,1,2,3:2:0:0:
381,197,48510,2,0,L|387:94,1,90,2|2,1:2|3:2,0:0:0:0:
147,103,48869,6,0,L|144:163,1,45,2|0,1:2|3:2,0:0:0:0:
221,162,49049,2,0,L|226:221,1,45,2|0,3:2|3:2,0:0:0:0:
59,214,49229,2,0,L|52:123,1,90,10|2,0:0|1:2,0:0:0:0:
300,118,49588,6,0,P|394:141|395:225,1,180,6|8,1:1|0:0,0:0:0:0:
317,214,50127,1,0,3:2:0:0:
155,217,50306,2,0,L|344:216,1,180,2|8,1:1|0:0,0:0:0:0:
424,219,50845,1,0,3:2:0:0:
177,233,51025,6,0,L|168:139,1,90,2|0,1:1|3:2,0:0:0:0:
330,154,51384,2,0,L|339:60,1,90,8|0,0:0|3:2,0:0:0:0:
87,57,51744,6,0,L|37:57,1,45,2|0,1:1|3:2,0:0:0:0:
42,57,51923,2,0,L|87:57,1,45,0|0,3:2|3:2,0:0:0:0:
255,51,52103,2,0,L|305:51,1,45,10|0,3:2|3:2,0:0:0:0:
137,78,52283,2,0,L|87:78,1,45,0|0,3:2|3:2,0:0:0:0:
272,89,52462,6,0,L|385:89,1,90,2|0,1:1|3:2,0:0:0:0:
199,95,52821,2,0,L|191:190,1,90,10|0,0:1|3:2,0:0:0:0:
440,196,53181,2,0,L|442:296,1,90,2|0,1:1|3:2,0:0:0:0:
279,284,53540,2,0,L|162:285,1,90,10|0,0:1|3:2,0:0:0:0:
434,292,53899,5,2,1:1:0:0:
324,315,54079,1,2,0:0:0:0:
434,292,54259,1,10,0:0:0:0:
187,305,54438,6,0,L|176:198,1,90,2|0,1:1|0:0,0:0:0:0:
344,197,54797,1,2,1:2:0:0:
388,197,54887,1,0,1:2:0:0:
432,197,54977,1,2,1:2:0:0:
166,196,55157,6,0,P|103:162|174:98,1,188.999994232178,6|2,1:1|3:2,0:0:0:0:
334,100,55696,1,10,0:0:0:0:
165,95,55875,2,0,L|160:205,1,94.499997116089,2|0,3:2|1:2,0:0:0:0:
333,190,56235,1,2,3:2:0:0:
164,192,56414,1,10,0:0:0:0:
421,192,56594,6,0,L|424:302,1,94.499997116089,2|0,3:2|1:2,0:0:0:0:
254,278,56953,1,2,3:2:0:0:
425,281,57133,1,10,0:0:0:0:
254,278,57312,2,0,L|156:278,1,94.499997116089,2|0,3:2|1:2,0:0:0:0:
331,278,57672,1,2,3:2:0:0:
373,278,57762,1,0,3:2:0:0:
331,278,57851,1,10,0:0:0:0:
78,281,58031,6,0,P|29:230|91:145,1,188.999994232178,2|2,3:2|3:2,0:0:0:0:
257,140,58570,2,0,L|372:140,1,94.499997116089,10|0,0:0|3:2,0:0:0:0:
182,137,58929,2,0,L|83:139,1,94.499997116089,2|2,1:2|3:2,0:0:0:0:
135,139,59199,1,0,3:2:0:0:
182,137,59288,1,10,0:0:0:0:
438,134,59468,6,0,L|443:239,1,94.499997116089,2|0,3:2|1:2,0:0:0:0:
268,230,59827,1,2,3:2:0:0:
365,231,60007,1,8,0:0:0:0:
462,232,60187,1,0,3:2:0:0:
207,238,60366,2,0,L|200:141,1,94.499997116089,2|2,1:2|3:2,0:0:0:0:
245,137,60636,1,0,3:2:0:0:
409,148,60726,2,0,L|416:51,1,94.499997116089,10|2,0:0|3:2,0:0:0:0:
154,58,61085,6,0,P|94:129|161:166,1,188.999994232178,0|10,1:2|0:0,0:0:0:0:
326,169,61624,2,0,L|335:63,1,94.499997116089,2|0,3:2|1:2,0:0:0:0:
164,78,61983,1,2,3:2:0:0:
262,77,62163,1,10,0:0:0:0:
164,78,62342,1,2,3:2:0:0:
423,187,62522,6,0,P|484:137|396:103,1,188.999994232178,0|8,1:2|0:0,0:0:0:0:
243,82,63061,2,0,L|242:192,1,94.499997116089,2|0,3:2|1:2,0:0:0:0:
417,203,63420,1,2,3:2:0:0:
309,206,63600,1,10,0:0:0:0:
417,203,63780,1,2,3:2:0:0:
154,234,63959,6,0,P|61:182|98:126,1,188.999994232178,0|8,1:2|0:0,0:0:0:0:
259,122,64498,2,0,L|356:121,1,94.499997116089,2|0,3:2|1:2,0:0:0:0:
181,69,64857,1,2,3:2:0:0:
135,68,64947,1,0,3:2:0:0:
88,67,65037,1,8,0:0:0:0:
345,154,65217,6,0,L|356:52,1,94.499997116089,14|0,1:1|0:0,0:0:0:0:
109,200,65576,2,0,L|98:98,1,94.499997116089,14|0,1:1|0:0,0:0:0:0:
375,155,65935,2,0,L|386:53,1,94.499997116089,14|0,1:1|0:0,0:0:0:0:
117,50,66294,2,0,L|65:50,1,47.2499985580445,2|0,1:2|3:2,0:0:0:0:
69,50,66474,2,0,L|117:50,1,47.2499985580445,10|0,0:2|3:2,0:0:0:0:
294,57,66654,6,0,P|389:60|400:154,1,188.999994232178,6|2,1:1|3:2,0:0:0:0:
241,214,67193,1,10,0:0:0:0:
412,218,67372,2,0,L|417:328,1,94.499997116089,2|0,3:2|1:2,0:0:0:0:
253,313,67732,1,2,3:2:0:0:
422,315,67911,1,10,0:2:0:0:
159,313,68091,6,0,L|155:206,1,94.499997116089,2|0,3:2|1:2,0:0:0:0:
330,316,68450,1,2,3:2:0:0:
159,313,68630,1,10,0:0:0:0:
330,316,68809,2,0,L|337:216,1,94.499997116089,2|0,3:2|1:2,0:0:0:0:
166,221,69169,1,2,3:2:0:0:
124,221,69259,1,0,3:2:0:0:
81,221,69348,1,10,0:0:0:0:
344,222,69528,6,0,P|393:171|331:86,1,188.999994232178,2|2,3:2|3:2,0:0:0:0:
165,89,70067,2,0,L|54:90,1,94.499997116089,10|0,0:0|3:2,0:0:0:0:
335,87,70426,2,0,L|439:88,1,94.499997116089,2|0,1:2|3:2,0:0:0:0:
381,87,70696,1,0,3:2:0:0:
335,87,70785,1,10,0:0:0:0:
76,68,70965,6,0,L|71:173,1,94.499997116089,2|0,3:2|1:2,0:0:0:0:
242,168,71324,1,2,3:2:0:0:
72,162,71504,1,10,0:0:0:0:
242,168,71684,2,0,L|340:168,1,94.499997116089,2|0,3:2|1:2,0:0:0:0:
167,173,72043,1,2,3:2:0:0:
120,171,72133,1,0,3:2:0:0:
73,168,72223,2,0,L|67:66,1,94.499997116089,8|2,0:0|1:2,0:0:0:0:
328,67,72582,6,0,L|440:68,2,94.499997116089,0|2|10,1:2|3:2|0:0,0:0:0:0:
158,71,73121,2,0,L|155:168,1,94.499997116089,2|0,3:2|1:2,0:0:0:0:
326,171,73480,1,2,3:2:0:0:
372,172,73570,1,0,3:2:0:0:
326,171,73660,1,10,0:0:0:0:
66,260,73839,6,0,L|62:156,1,94.499997116089,2|0,3:2|1:2,0:0:0:0:
156,164,74199,1,2,3:2:0:0:
415,171,74378,2,0,L|420:66,1,94.499997116089,10|0,0:0|3:2,0:0:0:0:
249,72,74738,2,0,L|246:182,1,94.499997116089,2|0,1:2|3:2,0:0:0:0:
77,168,75097,2,0,L|79:59,1,94.499997116089,10|0,0:0|3:2,0:0:0:0:
345,67,75456,6,0,P|417:140|370:203,1,188.999994232178,2|10,1:2|0:0,0:0:0:0:
189,200,75995,2,0,L|181:92,1,94.499997116089,2|0,3:2|1:2,0:0:0:0:
352,104,76354,1,2,3:2:0:0:
182,105,76534,1,10,0:0:0:0:
442,110,76714,6,0,L|447:225,1,94.499997116089,2|0,3:2|1:2,0:0:0:0:
275,209,77073,1,2,3:2:0:0:
370,212,77253,1,10,0:0:0:0:
197,228,77432,2,0,L|192:114,1,94.499997116089,2|0,3:2|1:2,0:0:0:0:
359,207,77791,1,2,3:2:0:0:
407,205,77881,1,0,3:2:0:0:
456,204,77971,2,0,L|452:96,1,94.499997116089,10|2,0:0|3:2,0:0:0:0:
193,102,78330,6,0,L|393:105,1,188.999994232178,2|10,1:2|0:0,0:0:0:0:
211,102,78869,2,0,L|200:203,1,94.499997116089,2|0,3:2|1:2,0:0:0:0:
372,199,79229,2,0,L|380:303,1,94.499997116089,2|8,3:2|0:0,0:0:0:0:
115,302,79588,6,0,L|109:199,1,94.499997116089,14|0,1:1|0:0,0:0:0:0:
378,205,79947,1,14,1:1:0:0:
109,207,80127,2,0,L|102:97,1,94.499997116089,14|2,1:1|0:0,0:0:0:0:
273,104,80486,2,0,P|377:111|390:202,1,188.999994232178,2|2,0:0|0:0,0:0:0:0:
326,186,81025,1,2,0:0:0:0:
82,187,81205,6,0,L|67:375,1,180,6|10,1:1|0:0,0:0:0:0:
315,368,81744,2,0,P|372:338|309:266,1,180,6|0,1:1|1:2,0:0:0:0:
226,312,82283,1,10,0:0:0:0:
470,318,82462,6,0,L|481:134,1,180,6|0,1:1|1:2,0:0:0:0:
401,135,83001,1,8,0:0:0:0:
157,139,83181,2,0,L|150:39,1,90,6|0,1:1|0:0,0:0:0:0:
313,49,83540,1,0,1:2:0:0:
150,49,83720,1,10,1:1:0:0:
326,54,83899,1,10,1:1:0:0:
78,83,84079,6,0,P|24:234|258:261,1,450,14|2,1:1|0:0,0:0:0:0:
100,207,85157,2,0,L|45:208,1,45,2|2,0:0|0:0,0:0:0:0:
55,207,85336,2,0,L|99:206,1,45,2|2,0:0|0:0,0:0:0:0:
210,202,85516,5,2,0:0:0:0:
255,202,85606,1,2,0:0:0:0:
300,202,85696,1,2,0:0:0:0:
345,202,85786,1,2,0:0:0:0:
182,171,85875,2,0,L|181:114,1,45,2|2,0:0|0:0,0:0:0:0:
278,101,86055,2,0,L|278:41,1,45,2|2,0:0|0:0,0:0:0:0:
95,43,86235,5,2,0:1:0:0:
256,192,86414,8,0,89109,0:0:0:0:
