osu file format v14

[General]
AudioFilename: audio.mp3
AudioLeadIn: 0
PreviewTime: 54708
Countdown: 0
SampleSet: Soft
StackLeniency: 0
Mode: 2
LetterboxInBreaks: 0
WidescreenStoryboard: 1

[Editor]
DistanceSpacing: 1.7
BeatDivisor: 4
GridSize: 16
TimelineZoom: 2.2

[Metadata]
Title:Signal Graph (TV Size)
TitleUnicode:シグナルグラフ (TV Size)
Artist:Annabel
ArtistUnicode:Annabel
Creator:muya-
Version:Koichoco
Source:恋と選挙とチョコレート
Tags:Koi to Senkyo to Chocolate Love and Elections opening op anime japanese pop jpop j-pop アナベル 恋チョコ vn visual novel video game eroge Chatie Ascendance vgm female vocal vocals vocalist
BeatmapID:3497983
BeatmapSetID:1711863

[Difficulty]
HPDrainRate:6
CircleSize:4.2
OverallDifficulty:9.2
ApproachRate:9.2
SliderMultiplier:2
SliderTickRate:2

[Events]
//Background and Video events
0,0,"koichoco.jpg",0,0
Video,-400,"signal.mp4"
//Break Periods
//Storyboard Layer 0 (Background)
//Storyboard Layer 1 (Fail)
//Storyboard Layer 2 (Pass)
//Storyboard Layer 3 (Foreground)
//Storyboard Layer 4 (Overlay)
//Storyboard Sound Samples

[TimingPoints]
-711,359.281437125748,4,2,1,35,1,0
3869,-100,4,2,1,5,0,0
3959,-100,4,2,1,35,0,0
4229,-100,4,2,1,5,0,0
4318,-100,4,2,1,35,0,0
4588,-100,4,2,1,5,0,0
4678,-100,4,2,1,35,0,0
6115,-100,4,2,1,5,0,0
6474,-100,4,2,1,80,0,1
6833,-100,4,2,1,80,0,0
15097,-100,4,2,1,60,0,0
26594,-100,4,2,1,70,0,0
38091,-100,4,2,1,65,0,0
46714,-100,4,2,1,70,0,0
49588,-100,4,2,1,80,0,0
52462,-100,4,2,1,85,0,0
54797,-100,4,2,1,70,0,0
55157,-95.2380952380952,4,2,6,90,0,1
55247,-95.2380952380952,4,2,1,90,0,1
64857,-95.2380952380952,4,2,1,90,0,0
65217,-62.5,4,2,1,90,0,1
65486,-62.5,4,2,1,5,0,1
65576,-62.5,4,2,1,90,0,0
65845,-62.5,4,2,1,5,0,0
65935,-62.5,4,2,1,90,0,1
66205,-62.5,4,2,1,5,0,1
66294,-95.2380952380952,4,2,1,90,0,0
66654,-95.2380952380952,4,2,6,90,0,1
66744,-95.2380952380952,4,2,1,90,0,1
79229,-95.2380952380952,4,2,1,90,0,0
79588,-95.2380952380952,4,2,1,90,0,1
80127,-95.2380952380952,4,2,1,90,0,0
80306,-95.2380952380952,4,2,1,60,0,0
81205,-100,4,2,1,80,0,1
81564,-100,4,2,1,80,0,1
83720,-100,4,2,1,80,0,0
84079,-100,4,2,6,80,0,1
84169,-100,4,2,1,80,0,1
84438,-100,4,2,1,60,0,0
85157,-100,4,2,1,40,0,0
85247,-100,4,2,1,42,0,0
85336,-100,4,2,1,45,0,0
85426,-100,4,2,1,48,0,0
85516,-100,4,2,1,50,0,0
85606,-100,4,2,1,52,0,0
85696,-100,4,2,1,55,0,0
85786,-100,4,2,1,58,0,0
85875,-100,4,2,1,60,0,0
85965,-100,4,2,1,62,0,0
86055,-100,4,2,1,65,0,0
86145,-100,4,2,1,68,0,0
86235,-100,4,2,1,70,0,0
86414,-100,4,2,1,65,0,0
86594,-100,4,2,1,60,0,0
86774,-100,4,2,1,55,0,0
86953,-100,4,2,1,50,0,0
87133,-100,4,2,1,45,0,0
87312,-100,4,2,1,40,0,0
87492,-100,4,2,1,35,0,0
87672,-100,4,2,1,30,0,0
88031,-100,4,2,1,25,0,0
88390,-100,4,2,1,20,0,0
88750,-100,4,2,1,15,0,0
89109,-100,4,2,1,5,0,0

[Colours]
Combo1 : 101,239,198
Combo2 : 109,222,245
Combo3 : 244,104,157
Combo4 : 234,177,121

[HitObjects]
354,191,187,5,2,0:0:0:0:
435,192,366,1,2,0:0:0:0:
354,191,546,1,2,0:0:0:0:
107,257,726,5,2,0:1:0:0:
25,209,905,1,2,0:0:0:0:
39,120,1084,1,2,0:0:0:0:
109,191,1264,1,2,0:0:0:0:
343,189,1624,5,2,0:0:0:0:
253,189,1803,1,2,0:0:0:0:
343,189,1983,1,2,0:0:0:0:
97,186,2163,5,2,0:1:0:0:
177,184,2342,1,2,0:0:0:0:
257,182,2521,1,2,0:0:0:0:
337,181,2701,1,2,0:0:0:0:
118,156,3061,5,2,0:0:0:0:
214,157,3241,1,2,0:0:0:0:
118,156,3420,1,2,0:0:0:0:
375,164,3600,6,0,P|420:118|366:57,1,150,2|0,0:2|0:0,0:0:0:0:
313,146,3959,2,0,P|242:116|282:52,1,150,2|0,0:2|0:0,0:0:0:0:
375,35,4318,2,0,P|401:114|354:158,1,150,2|0,0:2|0:0,0:0:0:0:
210,181,4678,1,2,0:2:0:0:
256,192,4768,12,0,6115,0:0:0:0:
161,199,6474,6,0,L|261:198,1,100,6|0,1:1|3:2,0:0:0:0:
310,197,6744,1,0,3:2:0:0:
132,195,6833,2,0,L|124:74,1,100,8|0,0:0|3:2,0:0:0:0:
382,219,7193,2,0,L|388:111,1,100,2|0,1:1|3:2,0:0:0:0:
217,119,7552,1,8,0:0:0:0:
267,119,7641,1,0,3:2:0:0:
317,120,7731,1,0,3:2:0:0:
62,118,7911,6,0,L|54:236,1,100,2|0,1:1|3:2,0:0:0:0:
314,222,8271,2,0,L|421:222,1,100,10|0,0:1|3:2,0:0:0:0:
243,215,8630,2,0,L|235:333,1,100,2|0,1:1|3:2,0:0:0:0:
407,315,8990,1,10,0:1:0:0:
456,315,9079,1,0,3:2:0:0:
407,315,9169,1,0,3:2:0:0:
155,314,9348,6,0,P|96:271|165:190,1,200,2|8,1:1|0:2,0:0:0:0:
329,184,9887,2,0,L|446:185,1,100,0|0,3:2|1:2,0:0:0:0:
171,187,10247,2,0,L|161:85,1,100,2|8,3:1|0:0,0:0:0:0:
210,87,10516,1,0,3:2:0:0:
396,86,10606,6,0,L|496:87,2,100,2|0|0,3:1|1:2|3:2,0:0:0:0:
140,99,11145,2,0,L|137:214,1,100,10|0,0:1|3:2,0:0:0:0:
307,196,11504,2,0,L|414:197,1,100,2|2,1:1|3:1,0:0:0:0:
146,218,11863,2,0,L|88:217,1,50,10|0,0:1|3:2,0:0:0:0:
96,217,12043,2,0,L|145:217,1,50,0|0,3:2|3:2,0:0:0:0:
340,229,12223,6,0,P|400:179|325:108,1,200,2|10,1:1|0:1,0:0:0:0:
79,110,12762,2,0,L|71:222,1,100,2|0,3:1|1:2,0:0:0:0:
329,221,13121,2,0,L|337:333,1,100,2|8,3:1|0:0,0:0:0:0:
80,318,13480,2,0,L|184:318,2,100,2|0|0,1:1|0:0|3:2,0:0:0:0:
323,309,14019,6,0,L|375:307,1,50,2|2,1:1|0:0,0:0:0:0:
192,300,14199,2,0,L|143:302,1,50,2|2,0:0|0:0,0:0:0:0:
328,289,14378,2,0,L|377:288,1,50,2|2,0:0|0:0,0:0:0:0:
178,280,14558,2,0,P|115:223|206:181,1,200,2|0,1:1|0:0,0:0:0:0:
467,222,15097,6,0,L|266:221,1,200,6|2,1:1|1:2,0:0:0:0:
437,220,15636,2,0,L|444:110,1,100,2|0,3:2|1:2,0:0:0:0:
274,101,15995,2,0,L|170:101,1,100,2|0,3:2|1:2,0:0:0:0:
126,101,16265,1,0,3:2:0:0:
298,109,16354,6,0,L|305:220,1,100,2|0,3:2|1:2,0:0:0:0:
133,209,16714,2,0,L|126:320,1,100,2|0,3:2|1:2,0:0:0:0:
385,316,17073,2,0,L|484:318,2,100,2|0|0,3:2|1:2|3:2,0:0:0:0:
214,319,17612,2,0,L|212:259,1,50,0|0,1:2|3:2,0:0:0:0:
299,259,17791,2,0,L|304:192,1,50,2|0,3:2|3:2,0:0:0:0:
117,197,17971,6,0,P|58:143|151:84,1,200,2|2,1:2|1:2,0:0:0:0:
298,74,18510,2,0,L|175:75,1,100,2|0,3:2|1:2,0:0:0:0:
368,73,18869,2,0,L|376:184,1,100,2|2,3:2|1:2,0:0:0:0:
324,171,19139,1,0,3:2:0:0:
152,172,19229,6,0,L|143:294,1,100,2|0,3:2|1:2,0:0:0:0:
314,274,19588,1,2,3:2:0:0:
144,271,19768,1,2,1:2:0:0:
397,273,19947,2,0,L|496:272,2,100,2|0|0,3:2|1:2|3:2,0:0:0:0:
226,268,20486,2,0,L|162:269,1,50,0|0,1:2|3:2,0:0:0:0:
177,268,20666,2,0,L|227:267,1,50,2|0,3:2|3:2,0:0:0:0:
415,268,20845,6,0,P|479:218|393:162,1,200,2|2,1:2|1:2,0:0:0:0:
238,153,21384,2,0,L|123:155,1,100,2|0,3:2|1:2,0:0:0:0:
309,156,21744,2,0,L|187:158,1,100,2|2,3:2|1:2,0:0:0:0:
251,156,22013,1,0,3:2:0:0:
429,58,22103,6,0,L|433:169,1,100,2|0,3:2|1:2,0:0:0:0:
263,162,22462,2,0,L|259:273,1,100,2|0,3:2|1:2,0:0:0:0:
90,260,22821,2,0,L|87:151,2,100,2|0|0,3:2|1:2|3:2,0:0:0:0:
346,269,23360,2,0,L|349:210,1,50,2|0,1:2|3:2,0:0:0:0:
265,213,23540,2,0,L|262:154,1,50,0|0,3:2|3:2,0:0:0:0:
452,151,23720,6,0,L|361:104,2,100,2|2|0,1:2|3:2|1:2,0:0:0:0:
282,147,24259,1,2,3:2:0:0:
186,149,24438,1,0,1:2:0:0:
89,149,24618,1,0,3:2:0:0:
338,142,24797,1,2,1:2:0:0:
389,142,24887,1,0,3:2:0:0:
338,142,24977,1,0,3:2:0:0:
168,145,25157,6,0,L|162:38,1,100,0|0,1:2|3:2,0:0:0:0:
333,50,25516,2,0,L|130:51,1,200,2|0,1:2|1:2,0:0:0:0:
97,68,25965,1,0,3:2:0:0:
92,123,26055,1,2,3:2:0:0:
126,158,26145,1,0,3:2:0:0:
280,152,26235,1,0,1:2:0:0:
141,158,26414,1,0,1:2:0:0:
418,153,26594,6,0,P|490:219|424:259,1,200,6|2,1:2|1:2,0:0:0:0:
259,254,27133,2,0,L|139:255,1,100,2|0,3:2|1:2,0:0:0:0:
415,262,27492,2,0,L|420:154,1,100,2|8,3:2|0:0,0:0:0:0:
370,162,27762,1,0,3:2:0:0:
189,166,27851,6,0,L|182:58,1,100,2|0,3:2|1:2,0:0:0:0:
354,67,28211,2,0,L|359:175,1,100,2|0,3:2|1:2,0:0:0:0:
103,169,28570,2,0,L|203:170,2,100,2|0|0,3:2|1:2|3:2,0:0:0:0:
358,160,29109,1,8,0:0:0:0:
252,169,29288,2,0,L|202:169,1,50,2|0,3:2|3:2,0:0:0:0:
379,182,29468,6,0,P|442:251|355:281,1,200,2|2,1:2|1:2,0:0:0:0:
203,283,30007,2,0,L|198:172,1,100,2|0,3:2|1:2,0:0:0:0:
369,174,30366,1,2,3:2:0:0:
199,180,30546,2,0,L|143:181,1,50,10|0,0:0|3:2,0:0:0:0:
331,180,30726,6,0,L|339:73,1,100,2|0,3:2|1:2,0:0:0:0:
167,83,31085,1,2,3:2:0:0:
338,81,31265,1,2,1:2:0:0:
167,83,31444,2,0,L|67:83,2,100,2|0|2,3:2|1:2|3:2,0:0:0:0:
427,81,31983,2,0,L|488:82,1,50,10|0,0:2|3:2,0:0:0:0:
477,82,32163,2,0,L|428:81,1,50,0|0,3:2|3:2,0:0:0:0:
242,82,32342,6,0,P|135:100|129:195,1,200,2|0,1:2|1:2,0:0:0:0:
208,200,32881,1,2,3:2:0:0:
465,200,33061,1,2,1:2:0:0:
349,197,33241,1,0,3:2:0:0:
234,198,33420,1,10,0:0:0:0:
491,203,33600,6,0,L|495:93,1,100,2|0,3:2|1:2,0:0:0:0:
325,104,33959,1,2,3:2:0:0:
495,103,34139,1,2,1:2:0:0:
240,112,34318,2,0,L|128:113,1,100,2|0,3:2|1:2,0:0:0:0:
141,112,34678,1,2,3:2:0:0:
400,118,34857,2,0,L|450:117,1,50,10|0,0:0|3:2,0:0:0:0:
400,118,35037,2,0,L|351:118,1,50,0|0,3:2|3:2,0:0:0:0:
162,114,35217,6,0,L|158:221,1,100,2|0,1:1|3:2,0:0:0:0:
329,214,35576,2,0,L|335:319,1,100,0|0,1:2|3:2,0:0:0:0:
86,324,35935,2,0,P|26:284|107:199,1,200,2|10,1:2|0:0,0:0:0:0:
130,195,36384,1,0,3:2:0:0:
180,197,36474,1,2,3:2:0:0:
351,183,36654,6,0,L|358:68,1,100,0|0,1:2|3:2,0:0:0:0:
178,79,37013,2,0,L|74:78,1,100,2|0,1:1|3:2,0:0:0:0:
346,186,37372,2,0,L|351:122,1,50,2|0,1:1|3:2,0:0:0:0:
264,131,37552,2,0,L|259:67,1,50,0|0,3:2|3:2,0:0:0:0:
438,65,37732,2,0,L|487:65,1,50,10|0,0:1|1:2,0:0:0:0:
288,53,37911,2,0,L|239:53,1,50,0|0,1:2|1:2,0:0:0:0:
437,47,38091,6,0,P|489:150|422:184,1,200,6|0,1:1|1:2,0:0:0:0:
193,229,38630,2,0,L|194:118,1,100,2|0,3:1|1:2,0:0:0:0:
366,229,38989,2,0,L|365:128,1,100,2|10,3:2|0:0,0:0:0:0:
312,128,39259,1,0,3:2:0:0:
133,131,39348,6,0,L|126:21,1,100,2|0,3:2|1:2,0:0:0:0:
296,33,39708,1,2,3:2:0:0:
127,31,39887,1,2,1:2:0:0:
383,33,40067,2,0,L|482:33,2,100,2|0|2,3:2|1:2|3:2,0:0:0:0:
127,42,40606,2,0,L|68:42,1,50,10|0,0:0|3:2,0:0:0:0:
77,42,40786,2,0,L|127:42,1,50,0|0,3:2|3:2,0:0:0:0:
310,44,40965,6,0,P|408:81|395:172,1,200,2|0,1:1|1:2,0:0:0:0:
233,165,41504,2,0,L|227:273,1,100,2|0,3:1|1:2,0:0:0:0:
398,269,41863,2,0,L|405:380,1,100,2|10,3:2|0:0,0:0:0:0:
356,373,42133,1,0,3:2:0:0:
179,268,42222,6,0,L|62:268,1,100,2|0,3:2|1:2,0:0:0:0:
251,268,42582,1,2,3:2:0:0:
86,266,42762,2,0,L|81:163,1,100,2|2,1:2|3:2,0:0:0:0:
337,144,43121,2,0,L|402:145,1,50,2|2,1:2|0:0,0:0:0:0:
202,137,43300,2,0,L|153:136,1,50,2|2,0:0|0:0,0:0:0:0:
332,135,43480,2,0,L|337:67,1,50,10|2,3:2|3:2,0:0:0:0:
251,72,43660,2,0,L|246:4,1,50,2|2,3:2|3:2,0:0:0:0:
433,29,43839,6,0,P|495:98|440:184,1,200,2|0,1:1|1:2,0:0:0:0:
191,189,44378,2,0,L|188:302,1,100,2|0,3:1|1:2,0:0:0:0:
356,304,44737,2,0,L|485:309,1,100,2|10,3:2|0:0,0:0:0:0:
403,201,45007,1,0,3:2:0:0:
222,198,45096,6,0,L|111:199,1,100,2|0,3:2|1:2,0:0:0:0:
294,197,45456,1,2,3:2:0:0:
125,195,45635,1,2,1:2:0:0:
381,197,45815,2,0,L|384:89,1,100,2|0,3:2|1:2,0:0:0:0:
213,91,46175,1,2,3:2:0:0:
384,97,46354,2,0,L|449:98,1,50,10|0,0:1|3:2,0:0:0:0:
251,152,46534,2,0,L|201:152,1,50,2|0,3:2|3:2,0:0:0:0:
400,25,46713,6,0,P|466:98|383:127,1,200,2|0,1:1|1:2,0:0:0:0:
129,158,47253,1,2,3:2:0:0:
299,162,47432,2,0,L|303:55,1,100,2|0,1:2|3:2,0:0:0:0:
123,65,47791,2,0,L|57:65,1,50,10|0,0:0|3:2,0:0:0:0:
256,62,47971,6,0,L|267:169,1,100,2|0,3:2|1:2,0:0:0:0:
96,158,48330,1,2,3:2:0:0:
267,161,48510,2,0,L|387:161,1,100,2|2,1:2|3:2,0:0:0:0:
112,167,48869,6,0,L|174:167,1,50,2|0,1:2|3:2,0:0:0:0:
341,200,49049,2,0,L|415:200,1,50,2|0,3:2|3:2,0:0:0:0:
203,234,49229,1,10,0:0:0:0:
343,237,49408,1,2,1:2:0:0:
73,240,49588,6,0,P|17:183|89:109,1,200,6|8,1:1|0:0,0:0:0:0:
169,109,50127,1,0,3:2:0:0:
423,238,50306,2,0,P|499:186|445:112,1,200,2|8,1:1|0:0,0:0:0:0:
359,110,50845,1,0,3:2:0:0:
111,224,51025,6,0,L|356:224,1,200,2|8,1:1|0:0,0:0:0:0:
309,172,51564,1,0,3:2:0:0:
66,72,51744,2,0,L|12:72,1,50,2|0,1:1|3:2,0:0:0:0:
16,72,51923,2,0,L|66:72,1,50,0|0,3:2|3:2,0:0:0:0:
267,70,52103,2,0,L|328:70,1,50,10|0,3:2|3:2,0:0:0:0:
124,50,52283,2,0,L|63:50,1,50,0|0,3:2|3:2,0:0:0:0:
278,84,52462,6,0,L|400:84,1,100,2|0,1:1|3:2,0:0:0:0:
112,80,52821,2,0,L|114:198,1,100,10|0,0:1|3:2,0:0:0:0:
167,186,53091,1,0,3:2:0:0:
371,192,53181,2,0,L|438:193,1,50,2|0,1:1|3:2,0:0:0:0:
421,192,53360,2,0,L|371:192,1,50,0|0,3:2|3:2,0:0:0:0:
177,175,53540,2,0,L|110:176,1,50,10|0,0:1|3:2,0:0:0:0:
128,175,53719,2,0,L|178:174,1,50,0|0,3:2|3:2,0:0:0:0:
386,165,53899,5,2,1:1:0:0:
245,162,54079,1,2,0:0:0:0:
416,162,54259,1,10,0:0:0:0:
143,164,54438,2,0,L|137:43,1,100,2|0,1:1|0:0,0:0:0:0:
395,54,54797,2,0,L|316:54,1,50,2|0,1:2|1:2,0:0:0:0:
166,52,54977,1,2,1:2:0:0:
466,64,55157,6,0,L|248:64,1,209.999993591309,6|2,1:1|3:2,0:0:0:0:
344,64,55606,1,0,3:2:0:0:
433,65,55696,1,10,0:0:0:0:
168,66,55875,2,0,L|166:184,1,104.999996795654,2|0,3:2|1:2,0:0:0:0:
346,171,56235,2,0,L|404:170,2,52.4999983978272,2|0|10,3:2|3:2|0:0,0:0:0:0:
80,199,56594,6,0,L|73:79,1,104.999996795654,2|0,3:2|1:2,0:0:0:0:
259,89,56953,1,2,3:2:0:0:
80,97,57133,1,10,0:0:0:0:
351,89,57312,2,0,L|459:90,1,104.999996795654,2|0,3:2|1:2,0:0:0:0:
276,94,57672,1,2,3:2:0:0:
223,95,57762,1,0,3:2:0:0:
169,94,57851,1,10,0:0:0:0:
436,114,58031,6,0,L|442:219,1,104.999996795654,2|0,3:2|1:2,0:0:0:0:
262,219,58390,1,2,3:2:0:0:
445,178,58570,2,0,L|452:282,1,104.999996795654,10|0,0:0|3:2,0:0:0:0:
170,281,58929,1,2,1:2:0:0:
304,280,59109,1,2,3:2:0:0:
357,280,59199,1,0,3:2:0:0:
412,278,59288,1,10,0:0:0:0:
137,293,59468,6,0,L|128:172,1,104.999996795654,2|0,3:2|1:2,0:0:0:0:
307,183,59827,2,0,L|424:183,1,104.999996795654,2|8,3:2|0:0,0:0:0:0:
412,183,60187,1,0,3:2:0:0:
147,185,60366,1,2,1:2:0:0:
298,164,60546,2,0,L|357:162,1,52.4999983978272,2|0,3:2|3:2,0:0:0:0:
164,74,60726,1,10,0:0:0:0:
336,62,60905,1,2,3:2:0:0:
71,31,61085,6,0,P|49:110|151:149,1,209.999993591309,0|10,1:2|0:0,0:0:0:0:
334,169,61624,2,0,L|440:170,1,104.999996795654,2|0,3:2|1:2,0:0:0:0:
261,169,61983,2,0,L|205:169,1,52.4999983978272,2|0,3:2|3:2,0:0:0:0:
407,170,62163,2,0,L|414:58,1,104.999996795654,10|2,0:0|3:2,0:0:0:0:
131,91,62522,6,0,L|346:93,1,209.999993591309,0|8,1:2|0:0,0:0:0:0:
157,89,63061,2,0,L|152:199,1,104.999996795654,2|0,3:2|1:2,0:0:0:0:
332,198,63420,2,0,L|393:198,1,52.4999983978272,2|0,3:2|3:2,0:0:0:0:
207,205,63600,2,0,L|324:235,1,104.999996795654,10|2,0:0|3:2,0:0:0:0:
48,203,63959,6,0,L|45:74,1,104.999996795654,0|0,1:2|3:2,0:0:0:0:
155,96,64318,1,8,0:0:0:0:
336,43,64498,2,0,L|337:160,1,104.999996795654,2|0,3:2|1:2,0:0:0:0:
83,159,64857,2,0,L|23:159,2,52.4999983978272,2|0|8,3:2|3:2|0:0,0:0:0:0:
383,269,65217,6,0,P|459:203|352:139,1,240,14|0,1:1|0:0,0:0:0:0:
189,139,65576,2,0,P|103:97|207:28,1,240,14|0,1:1|0:0,0:0:0:0:
389,14,65935,2,0,P|472:57|358:116,1,240,14|0,1:1|0:0,0:0:0:0:
200,188,66294,2,0,L|136:189,1,52.4999983978272,2|0,1:2|3:2,0:0:0:0:
351,196,66474,2,0,L|415:197,1,52.4999983978272,10|0,0:2|3:2,0:0:0:0:
147,188,66654,6,0,L|351:265,1,209.999993591309,6|2,1:1|3:2,0:0:0:0:
255,247,67103,1,0,3:2:0:0:
166,226,67193,1,10,0:0:0:0:
442,164,67372,2,0,L|440:54,1,104.999996795654,2|0,3:2|1:2,0:0:0:0:
255,78,67732,1,2,3:2:0:0:
203,76,67821,1,0,3:2:0:0:
150,78,67911,1,10,0:2:0:0:
420,206,68091,6,0,L|422:91,1,104.999996795654,2|0,3:2|1:2,0:0:0:0:
242,98,68450,1,2,3:2:0:0:
422,101,68630,1,10,0:0:0:0:
139,94,68809,2,0,L|134:214,1,104.999996795654,2|0,3:2|1:2,0:0:0:0:
315,200,69169,1,2,3:2:0:0:
368,201,69259,1,0,3:2:0:0:
422,200,69348,1,10,0:0:0:0:
143,195,69528,6,0,L|32:195,1,104.999996795654,2|0,3:2|1:2,0:0:0:0:
309,190,69887,1,2,3:2:0:0:
136,183,70067,2,0,L|130:76,1,104.999996795654,10|0,0:0|3:2,0:0:0:0:
400,63,70426,2,0,L|505:63,1,104.999996795654,2|0,1:2|3:2,0:0:0:0:
452,64,70696,1,0,3:2:0:0:
400,63,70786,1,10,0:0:0:0:
123,66,70965,6,0,L|124:176,1,104.999996795654,2|0,3:2|1:2,0:0:0:0:
303,170,71324,1,2,3:2:0:0:
124,170,71504,1,10,0:0:0:0:
389,167,71684,2,0,L|392:277,1,104.999996795654,2|0,3:2|1:2,0:0:0:0:
121,288,72043,2,0,L|116:225,1,52.4999983978272,2|0,3:2|3:2,0:0:0:0:
185,221,72223,2,0,L|239:219,1,52.4999983978272,8|0,0:0|3:2,0:0:0:0:
63,206,72402,2,0,L|11:208,1,52.4999983978272,2|0,1:2|3:2,0:0:0:0:
230,191,72582,6,0,L|353:191,2,104.999996795654,0|2|10,1:2|3:2|0:0,0:0:0:0:
52,188,73121,2,0,L|51:69,1,104.999996795654,2|0,3:2|1:2,0:0:0:0:
230,83,73480,1,2,3:2:0:0:
178,83,73569,1,0,3:2:0:0:
125,83,73659,1,10,0:0:0:0:
391,79,73839,6,0,L|492:128,2,104.999996795654,2|0|2,3:2|1:2|3:2,0:0:0:0:
111,85,74378,2,0,L|105:193,1,104.999996795654,10|0,0:0|3:2,0:0:0:0:
286,192,74738,2,0,L|394:193,1,104.999996795654,2|0,1:2|3:2,0:0:0:0:
104,305,75097,2,0,L|44:305,2,52.4999983978272,10|0|0,0:0|3:2|3:2,0:0:0:0:
379,316,75456,6,0,P|450:250|373:185,1,209.999993591309,2|10,1:2|0:0,0:0:0:0:
208,179,75995,2,0,L|93:179,1,104.999996795654,2|0,3:2|1:2,0:0:0:0:
282,176,76354,1,2,3:2:0:0:
335,176,76443,1,0,3:2:0:0:
387,176,76533,1,10,0:0:0:0:
116,174,76714,6,0,L|111:52,1,104.999996795654,2|0,3:2|1:2,0:0:0:0:
291,65,77073,1,2,3:2:0:0:
112,69,77253,1,10,0:0:0:0:
385,70,77432,2,0,L|390:175,1,104.999996795654,2|0,3:2|1:2,0:0:0:0:
126,194,77791,2,0,L|124:134,1,52.4999983978272,2|0,3:2|3:2,0:0:0:0:
190,122,77971,2,0,L|251:120,1,52.4999983978272,10|0,0:0|3:2,0:0:0:0:
69,80,78151,2,0,L|17:80,1,52.4999983978272,2|0,3:2|3:2,0:0:0:0:
233,69,78330,6,0,P|341:94|317:181,1,209.999993591309,2|10,1:2|0:0,0:0:0:0:
155,188,78869,2,0,L|151:83,1,104.999996795654,2|0,3:2|1:2,0:0:0:0:
339,80,79229,1,2,3:2:0:0:
392,79,79318,1,0,3:2:0:0:
339,80,79408,1,8,0:0:0:0:
42,91,79588,6,0,L|41:209,1,104.999996795654,14|0,1:1|0:0,0:0:0:0:
315,194,79947,1,14,1:1:0:0:
42,195,80127,2,0,L|39:90,1,104.999996795654,14|2,1:1|0:0,0:0:0:0:
218,84,80486,2,0,L|431:85,1,209.999993591309,2|2,0:0|0:0,0:0:0:0:
428,84,81025,1,2,0:0:0:0:
155,80,81205,6,0,P|87:148|164:192,1,200,6|10,1:1|0:0,0:0:0:0:
435,216,81744,2,0,L|205:214,1,200,6|0,1:1|1:2,0:0:0:0:
396,199,82283,1,10,0:0:0:0:
122,216,82462,6,0,P|57:159|132:104,1,200,6|0,1:1|1:2,0:0:0:0:
296,95,83001,1,8,0:0:0:0:
36,69,83181,2,0,L|34:173,1,100,6|0,1:1|0:0,0:0:0:0:
306,213,83540,1,0,1:2:0:0:
132,212,83720,1,10,1:1:0:0:
306,213,83899,1,10,1:1:0:0:
31,333,84079,6,0,L|28:125,1,200,14|2,1:1|0:0,0:0:0:0:
191,310,84618,2,0,L|188:197,1,100,2|0,0:0|0:0,0:0:0:0:
300,208,84977,1,2,0:0:0:0:
138,314,85157,6,0,L|85:313,1,50,2|2,0:0|0:0,0:0:0:0:
88,313,85336,2,0,L|137:313,1,50,2|2,0:0|0:0,0:0:0:0:
293,309,85516,2,0,L|299:251,1,50,2|2,0:0|0:0,0:0:0:0:
150,233,85696,2,0,L|144:165,1,50,2|2,0:0|0:0,0:0:0:0:
334,177,85875,6,0,L|390:177,1,50,2|2,0:0|0:0,0:0:0:0:
153,130,86055,2,0,L|97:130,1,50,2|2,0:0|0:0,0:0:0:0:
392,139,86235,5,2,0:1:0:0:
256,192,86324,12,0,89109,0:0:0:0:
