osu file format v14

[General]
AudioFilename: audio.mp3
AudioLeadIn: 0
PreviewTime: 54708
Countdown: 0
SampleSet: Soft
StackLeniency: 0
Mode: 2
LetterboxInBreaks: 0
WidescreenStoryboard: 0

[Editor]
Bookmarks: 55157
DistanceSpacing: 1.1
BeatDivisor: 4
GridSize: 16
TimelineZoom: 2.2

[Metadata]
Title:Signal Graph (TV Size)
TitleUnicode:シグナルグラフ (TV Size)
Artist:Annabel
ArtistUnicode:Annabel
Creator:muya-
Version:Cup
Source:恋と選挙とチョコレート
Tags:Koi to Senkyo to Chocolate Love and Elections opening op anime japanese pop jpop j-pop アナベル 恋チョコ vn visual novel video game eroge Chatie Ascendance vgm female vocal vocals vocalist
BeatmapID:3497982
BeatmapSetID:1711863

[Difficulty]
HPDrainRate:2
CircleSize:2.5
OverallDifficulty:6
ApproachRate:6
SliderMultiplier:1.3
SliderTickRate:0.5

[Events]
//Background and Video events
0,0,"koichoco.jpg",0,0
Video,-400,"signal.mp4"
//Break Periods
//Storyboard Layer 0 (Background)
//Storyboard Layer 1 (Fail)
//Storyboard Layer 2 (Pass)
//Storyboard Layer 3 (Foreground)
//Storyboard Layer 4 (Overlay)
//Storyboard Sound Samples

[TimingPoints]
-711,359.281437125748,4,2,1,35,1,0
6115,-100,4,2,1,5,0,0
6474,-100,4,2,1,80,0,1
6833,-100,4,2,1,80,0,0
15097,-100,4,2,1,60,0,0
26594,-100,4,2,1,70,0,0
38091,-100,4,2,1,65,0,0
46714,-100,4,2,1,70,0,0
49588,-100,4,2,1,80,0,0
52462,-100,4,2,1,85,0,0
54797,-100,4,2,1,70,0,0
55157,-100,4,2,6,90,0,1
55247,-100,4,2,1,90,0,1
66294,-100,4,2,1,90,0,0
66654,-100,4,2,6,90,0,1
66744,-100,4,2,1,90,0,1
80127,-100,4,2,1,90,0,0
80306,-100,4,2,1,60,0,0
81205,-100,4,2,1,80,0,0
84079,-100,4,2,6,80,0,0
84169,-100,4,2,1,80,0,0
84438,-100,4,2,1,60,0,0
85157,-100,4,2,1,40,0,0
85247,-100,4,2,1,42,0,0
85336,-100,4,2,1,45,0,0
85426,-100,4,2,1,48,0,0
85516,-100,4,2,1,50,0,0
85606,-100,4,2,1,52,0,0
85696,-100,4,2,1,55,0,0
85786,-100,4,2,1,58,0,0
85875,-100,4,2,1,60,0,0
85965,-100,4,2,1,62,0,0
86055,-100,4,2,1,65,0,0
86145,-100,4,2,1,68,0,0
86235,-100,4,2,1,70,0,0

[Colours]
Combo1 : 101,239,198
Combo2 : 109,222,245
Combo3 : 244,104,157
Combo4 : 234,177,121

[HitObjects]
343,353,726,6,0,P|439:165|324:51,1,390,2|2,0:1|0:0,0:0:0:0:
204,63,2163,6,0,P|108:251|223:365,1,390,2|2,0:1|0:0,0:0:0:0:
256,192,3600,12,0,6115,0:0:0:0:
357,187,6474,6,0,L|221:188,1,130,6|8,1:1|0:0,0:0:0:0:
95,188,7193,2,0,L|92:46,1,130,2|8,1:1|0:0,0:0:0:0:
221,51,7911,5,2,1:1:0:0:
351,49,8271,1,10,0:1:0:0:
221,51,8630,2,0,L|222:193,1,130,2|10,1:1|0:1,0:0:0:0:
378,190,9348,6,0,P|461:240|368:334,1,260,2|0,1:1|1:2,0:0:0:0:
310,339,10247,1,2,3:1:0:0:
180,336,10606,6,0,P|111:300|140:181,1,195,2|10,3:1|0:1,0:0:0:0:
251,196,11504,1,2,1:1:0:0:
316,196,11684,1,2,3:1:0:0:
380,196,11863,1,10,0:1:0:0:
224,195,12223,6,0,L|85:196,1,130,2|10,1:1|0:1,0:0:0:0:
94,195,12762,1,2,3:1:0:0:
224,195,13121,1,2,3:1:0:0:
233,131,13300,1,8,0:0:0:0:
172,124,13480,1,2,1:1:0:0:
7,103,14019,6,0,L|148:97,1,130,2|2,1:1|0:0,0:0:0:0:
202,65,14558,1,2,1:1:0:0:
434,64,15097,6,0,L|437:205,1,130,6|2,1:1|1:2,0:0:0:0:
371,193,15636,1,2,3:2:0:0:
241,191,15995,1,2,3:2:0:0:
111,190,16354,6,0,L|242:191,1,130,2|2,3:2|3:2,0:0:0:0:
371,196,17073,2,0,P|422:154|346:83,1,195,2|0,3:2|1:2,0:0:0:0:
284,80,17791,1,2,3:2:0:0:
206,81,17971,6,0,L|69:81,1,130,2|2,1:2|1:2,0:0:0:0:
76,81,18510,1,2,3:2:0:0:
206,81,18869,1,2,3:2:0:0:
271,81,19049,1,2,1:2:0:0:
336,83,19229,5,2,3:2:0:0:
206,81,19588,1,2,3:2:0:0:
146,80,19768,1,2,1:2:0:0:
206,81,19947,1,2,3:2:0:0:
397,82,20486,1,0,1:2:0:0:
462,82,20666,1,2,3:2:0:0:
397,82,20845,6,0,L|261:82,1,130,2|2,1:2|1:2,0:0:0:0:
267,82,21384,1,2,3:2:0:0:
395,215,21744,1,2,3:2:0:0:
395,215,21923,1,2,1:2:0:0:
329,215,22103,5,2,3:2:0:0:
199,212,22462,1,2,3:2:0:0:
69,212,22821,2,0,L|73:376,1,130,2|0,3:2|3:2,0:0:0:0:
137,341,23360,1,2,1:2:0:0:
293,343,23720,5,2,1:2:0:0:
293,343,23899,1,2,3:2:0:0:
162,338,24259,1,2,3:2:0:0:
362,336,24797,6,0,P|417:263|282:199,1,260,2|2,1:2|1:2,0:0:0:0:
167,183,25875,1,0,1:2:0:0:
305,132,26235,1,0,1:2:0:0:
370,133,26414,1,0,1:2:0:0:
449,132,26594,6,0,L|447:276,1,130,6|2,1:2|1:2,0:0:0:0:
383,263,27133,1,2,3:2:0:0:
254,255,27492,1,2,3:2:0:0:
202,254,27672,1,8,0:0:0:0:
254,255,27851,6,0,L|397:258,1,130,2|2,3:2|3:2,0:0:0:0:
254,255,28570,2,0,P|120:235|87:193,1,195,2|8,3:2|0:0,0:0:0:0:
88,194,29288,1,2,3:2:0:0:
164,167,29468,6,0,L|298:166,1,130,2|2,1:2|1:2,0:0:0:0:
219,165,30007,1,2,3:2:0:0:
68,203,30366,1,2,3:2:0:0:
67,167,30546,1,10,0:0:0:0:
130,164,30726,5,2,3:2:0:0:
248,112,31085,1,2,3:2:0:0:
301,111,31265,1,2,1:2:0:0:
354,114,31444,2,0,L|353:250,1,130,2|2,3:2|3:2,0:0:0:0:
288,242,31983,1,10,0:2:0:0:
128,245,32342,6,0,L|266:244,1,130,2|0,1:2|1:2,0:0:0:0:
311,244,32881,1,2,3:2:0:0:
258,244,33061,1,2,1:2:0:0:
128,245,33420,1,10,0:0:0:0:
63,243,33600,6,0,P|25:196|88:152,1,130,2|2,3:2|3:2,0:0:0:0:
130,111,34139,1,2,1:2:0:0:
194,111,34318,1,2,3:2:0:0:
324,112,34678,1,2,3:2:0:0:
324,112,34857,1,10,0:0:0:0:
167,107,35217,6,0,L|163:260,1,130,2|0,1:1|1:2,0:0:0:0:
294,234,35935,1,2,1:2:0:0:
452,236,36294,1,10,0:0:0:0:
452,236,36474,1,2,3:2:0:0:
388,235,36654,6,0,L|218:235,1,130,0|2,1:2|1:1,0:0:0:0:
127,235,37372,1,2,1:1:0:0:
258,235,37732,1,10,0:1:0:0:
323,236,37911,1,0,1:2:0:0:
245,234,38091,6,0,B|40:235,1,195,6|2,1:1|3:1,0:0:0:0:
189,225,38989,1,2,3:2:0:0:
241,224,39169,1,10,0:0:0:0:
293,223,39348,5,2,3:2:0:0:
162,220,39708,1,2,3:2:0:0:
111,220,39887,1,2,1:2:0:0:
60,222,40067,2,0,L|58:361,1,130,2|2,3:2|3:2,0:0:0:0:
124,351,40606,1,10,0:0:0:0:
282,351,40965,6,0,P|347:300|278:219,1,195,2|2,1:1|3:1,0:0:0:0:
166,211,41863,1,2,3:2:0:0:
166,211,42043,1,10,0:0:0:0:
232,148,42223,6,0,L|377:150,1,130,2|2,3:2|3:2,0:0:0:0:
414,151,42762,1,2,1:2:0:0:
414,151,42941,1,2,3:2:0:0:
281,149,43300,1,2,0:0:0:0:
281,149,43480,1,10,3:2:0:0:
433,281,43839,6,0,L|231:282,1,195,2|2,1:1|3:1,0:0:0:0:
108,279,44738,1,2,3:2:0:0:
56,279,44917,1,10,0:0:0:0:
108,279,45097,5,2,3:2:0:0:
239,281,45456,1,2,3:2:0:0:
304,281,45636,1,2,1:2:0:0:
369,281,45815,2,0,L|231:281,1,130,2|2,3:2|3:2,0:0:0:0:
173,281,46354,1,10,0:1:0:0:
107,283,46534,1,2,3:2:0:0:
173,281,46714,5,2,1:1:0:0:
368,279,47253,1,2,3:2:0:0:
432,274,47432,2,0,L|432:113,1,130,2|10,1:2|0:0,0:0:0:0:
368,279,47971,5,2,3:2:0:0:
239,282,48330,1,2,3:2:0:0:
173,280,48510,1,2,1:2:0:0:
313,278,48869,1,2,1:2:0:0:
369,245,49049,1,2,3:2:0:0:
367,179,49229,1,10,0:0:0:0:
313,278,49408,1,2,1:2:0:0:
235,278,49588,6,0,L|77:278,1,130,6|8,1:1|0:0,0:0:0:0:
235,278,50306,2,0,L|235:148,1,130,2|8,1:1|0:0,0:0:0:0:
82,148,51025,6,0,L|82:2,1,130,2|8,1:1|0:0,0:0:0:0:
212,10,51744,1,2,1:1:0:0:
82,18,52103,1,10,3:2:0:0:
239,59,52462,6,0,L|389:59,3,130,2|10|2|10,1:1|0:1|1:1|0:1,0:0:0:0:
210,105,53899,6,0,L|213:244,1,130,2|10,1:1|0:0,0:0:0:0:
277,228,54438,1,2,1:1:0:0:
406,230,54797,1,2,1:2:0:0:
406,230,54977,1,2,1:2:0:0:
327,258,55157,6,0,L|185:257,1,130,6|2,1:1|3:2,0:0:0:0:
131,258,55696,1,10,0:0:0:0:
131,258,55875,1,2,3:2:0:0:
261,257,56235,1,2,3:2:0:0:
327,258,56414,1,10,0:0:0:0:
392,259,56594,6,0,L|391:92,1,130,2|2,3:2|3:2,0:0:0:0:
327,258,57133,1,10,0:0:0:0:
261,257,57312,1,2,3:2:0:0:
130,254,57672,1,2,3:2:0:0:
65,251,57851,1,10,0:0:0:0:
130,254,58031,6,0,L|259:256,1,130,2|2,3:2|3:2,0:0:0:0:
325,255,58570,1,10,0:0:0:0:
195,255,58929,1,2,1:2:0:0:
140,219,59109,1,2,3:2:0:0:
142,154,59288,1,10,0:0:0:0:
197,120,59468,6,0,L|341:120,1,130,2|2,3:2|3:2,0:0:0:0:
392,118,60007,1,8,0:0:0:0:
262,118,60366,1,2,1:2:0:0:
197,120,60546,1,2,3:2:0:0:
131,119,60726,1,10,0:0:0:0:
197,120,60905,6,0,L|437:120,1,195,2|10,3:2|0:0,0:0:0:0:
457,120,61624,1,2,3:2:0:0:
327,120,61983,1,2,3:2:0:0:
261,120,62163,1,10,0:0:0:0:
197,120,62342,6,0,P|130:176|214:219,1,195,2|8,3:2|0:0,0:0:0:0:
261,226,63061,1,2,3:2:0:0:
390,235,63420,1,2,3:2:0:0:
455,233,63600,1,10,0:0:0:0:
390,235,63780,6,0,L|167:236,1,195,2|8,3:2|0:0,0:0:0:0:
129,235,64498,1,2,3:2:0:0:
258,236,64857,1,2,3:2:0:0:
258,236,65037,1,8,0:0:0:0:
180,160,65217,5,14,1:1:0:0:
336,159,65576,1,14,1:1:0:0:
180,160,65935,2,0,L|182:10,1,130,14|2,1:1|1:2,0:0:0:0:
246,28,66474,1,10,0:2:0:0:
325,30,66654,6,0,L|176:30,1,130,6|2,1:1|3:2,0:0:0:0:
122,153,67193,1,10,0:0:0:0:
196,153,67372,1,2,3:2:0:0:
326,159,67732,1,2,3:2:0:0:
390,159,67911,1,10,0:2:0:0:
455,160,68091,6,0,L|457:314,1,130,2|2,3:2|3:2,0:0:0:0:
390,159,68630,1,10,0:0:0:0:
326,159,68809,1,2,3:2:0:0:
195,154,69169,1,2,3:2:0:0:
130,153,69348,1,10,0:0:0:0:
195,154,69528,6,0,L|343:156,1,130,2|2,3:2|3:2,0:0:0:0:
324,155,70067,1,10,0:0:0:0:
170,256,70426,2,0,L|11:255,1,130,2|10,1:2|0:0,0:0:0:0:
100,254,70965,5,2,3:2:0:0:
230,274,71324,1,2,3:2:0:0:
295,273,71504,1,10,0:0:0:0:
360,275,71684,2,0,P|358:215|284:183,1,130,2|2,3:2|3:2,0:0:0:0:
170,137,72402,1,2,1:2:0:0:
104,137,72582,6,0,L|286:138,1,130,0|10,1:2|0:0,0:0:0:0:
105,266,73300,2,0,L|103:124,1,130,0|10,1:2|0:0,0:0:0:0:
234,140,74019,5,0,1:2:0:0:
363,142,74378,2,0,L|226:141,2,130,10|2|10,0:0|1:2|0:0,0:0:0:0:
207,143,75456,6,0,L|204:272,1,130,2|10,1:2|0:0,0:0:0:0:
269,271,75995,1,2,3:2:0:0:
398,271,76354,1,2,3:2:0:0:
462,266,76534,6,0,P|482:165|335:150,1,260,10|10,0:0|0:0,0:0:0:0:
225,130,77612,1,0,1:2:0:0:
160,130,77791,1,2,3:2:0:0:
290,130,78151,1,2,3:2:0:0:
355,132,78330,6,0,L|353:261,1,130,2|10,1:2|0:0,0:0:0:0:
290,130,78869,1,2,3:2:0:0:
159,129,79229,1,2,3:2:0:0:
159,129,79408,1,8,0:0:0:0:
235,195,79588,6,0,L|381:195,1,130,14|14,1:1|1:1,0:0:0:0:
287,194,80127,1,14,1:1:0:0:
196,312,81205,6,0,L|46:313,1,130,6|10,1:1|0:0,0:0:0:0:
138,311,81744,1,6,1:1:0:0:
278,309,82103,1,0,1:2:0:0:
349,310,82283,1,10,0:0:0:0:
420,307,82462,6,0,L|417:167,1,130,6|0,1:1|1:2,0:0:0:0:
256,192,83181,2,0,P|191:150|270:61,1,195,6|10,1:1|1:1,0:0:0:0:
312,56,83899,1,10,1:1:0:0:
389,57,84079,5,14,1:1:0:0:
256,192,84438,12,2,86235,0:1:0:0:
